#TITLE:Everybody's Warming;
#SUBTITLE:;
#ARTIST:Tension;
#TITLETRANSLIT:;
#SUBTITLETRANSLIT:;
#ARTISTTRANSLIT:;
#GENRE:;
#CREDIT:;
#BANNER:;
#BACKGROUND:;
#LYRICSPATH:;
#CDTITLE:;
#MUSIC:Tension - Everybody's Warming.ogg;
#OFFSET:0.109000;
#SAMPLESTART:65.227997;
#SAMPLELENGTH:12.532000;
#SELECTABLE:YES;
#BPMS:0.000000=158.000000
;
#STOPS:
;
#BGCHANGES:;
#KEYSOUNDS:;
#ATTACKS:;

//---------------dance-single - ----------------
#NOTES:
     dance-single:
     :
     Hard:
     8:
     0.509634,0.697714,0.328889,0.409433,0.181224,1063.000000,965.000000,98.000000,122.000000,0.000000,0.000000,0.509634,0.697714,0.328889,0.409433,0.181224,1063.000000,965.000000,98.000000,122.000000,0.000000,0.000000:
// measure 0
0000
0000
0000
0000
,  // measure 1
0000
0000
0000
0000
,  // measure 2
0000
0000
0000
0000
,  // measure 3
0000
0000
0000
0000
,  // measure 4
0000
0000
0000
0000
,  // measure 5
0000
0000
0000
0000
,  // measure 6
0000
0000
0000
0000
,  // measure 7
1000
0001
0010
0001
,  // measure 8
2000
0000
0100
3100
0000
0000
0010
0000
,  // measure 9
0001
0100
0001
0010
,  // measure 10
0100
0000
0000
0000
1000
0000
0000
0000
0010
0000
0000
0100
0010
0000
0100
0000
,  // measure 11
0001
1000
0010
0100
,  // measure 12
0002
0000
0000
0013
0000
0000
0001
0000
,  // measure 13
0100
0000
0000
0001
0000
0000
1000
0000
0010
0000
0000
0100
0000
0000
0001
0000
,  // measure 14
1000
0000
0000
0100
0000
0000
1000
0000
2002
0000
0000
0000
3003
0000
0000
0000
,  // measure 15
0100
0010
1000
0001
,  // measure 16
2000
0000
0100
3100
0000
0000
1000
0000
,  // measure 17
0010
0000
0000
0100
0000
0000
0001
0000
0010
0000
0000
0001
0000
0000
0100
0000
,  // measure 18
0110
0000
0000
1010
0000
0000
1100
0000
2002
0000
0000
0000
0000
0000
3003
0000
,  // measure 19
1000
0000
0000
0010
0000
0000
0001
0000
0010
0000
0000
1000
0000
0000
0100
0000
,  // measure 20
0001
0000
0000
0100
0000
0000
1000
0000
0010
0000
0000
0001
0000
0000
0010
0000
,  // measure 21
1000
0001
0000
1000
0001
0000
0100
0000
0010
1000
0000
0010
1000
0000
0100
0000
,  // measure 22
1000
0010
0000
0100
0001
0000
0010
0001
0010
0000
0001
1000
0001
0000
1000
0000
,  // measure 23
0010
0000
0000
0100
0000
0000
1000
0000
0100
0000
0000
0001
0000
0000
0100
0000
,  // measure 24
0010
0000
0000
0001
0000
0000
0010
0000
1000
0000
0000
0100
0000
0000
0001
0000
,  // measure 25
0100
0000
0000
1000
0000
0000
0100
0000
0010
0000
0000
0001
0000
0000
0100
0000
,  // measure 26
0010
0000
0000
0110
0000
0000
1000
0001
1000
0000
0001
0100
0001
0000
0000
0000
,  // measure 27
0200
0000
0310
0200
0000
0301
0010
0000
,  // measure 28
0011
0110
1100
0202
,  // measure 29
0303
0000
0100
0001
0010
0001
0100
0000
,  // measure 30
0001
0000
0101
0000
1000
2010
0000
3010
,  // measure 31
1000
0000
0001
0100
1000
0001
0010
1000
,  // measure 32
1001
0010
0101
1000
,  // measure 33
1100
0000
0012
0020
0000
0033
0101
0000
,  // measure 34
0010
0110
0000
0101
0000
1010
0000
2200
,  // measure 35
0000
3300
0110
0000
1000
0010
0100
2000
,  // measure 36
0000
3200
0000
0302
0000
0013
0001
0000
,  // measure 37
2002
0000
0000
3003
1000
0100
0001
2000
,  // measure 38
0000
3020
0000
0032
0000
1003
0000
0000
,  // measure 39
0220
0000
0000
0330
0001
0100
0010
0002
,  // measure 40
0000
0023
0000
2030
0000
3010
0100
0001
,  // measure 41
0200
0000
0000
0000
0301
0000
0010
0000
0002
0000
0000
0003
1000
0000
0100
0000
,  // measure 42
1000
0001
0100
0210
,  // measure 43
0310
1000
0100
0000
0001
0000
0100
0000
,  // measure 44
1200
0000
0010
0310
0000
0000
0001
0100
,  // measure 45
0010
0001
0010
1000
0100
0000
1000
0010
,  // measure 46
0100
0000
1000
0000
0100
0000
0001
0000
0100
0000
0010
0100
0010
0000
1000
0000
,  // measure 47
0100
0001
0100
1000
,  // measure 48
0012
0000
0100
0103
0000
0010
1000
2100
,  // measure 49
0000
3200
0000
0320
0000
0030
0000
0002
,  // measure 50
0000
0000
0023
0000
0000
0000
0130
0000
1000
0100
1000
0100
1000
0000
0001
0000
,  // measure 51
0010
1000
0010
0001
,  // measure 52
0201
0000
0010
0310
0000
1000
0100
0001
,  // measure 53
0100
1000
0001
0100
0000
0001
0010
1000
,  // measure 54
0010
0000
0001
0000
0100
0000
0010
0000
1000
0000
0010
1000
0010
0000
1000
0000
,  // measure 55
0100
0001
0100
1000
,  // measure 56
2010
0000
0100
3100
0000
0000
1000
2001
,  // measure 57
0000
3002
0000
0020
0000
0033
0000
0110
,  // measure 58
0000
1100
0000
2002
0000
0000
0000
3003
,  // measure 59
1000
0000
0000
0100
0000
0000
0001
0000
0100
0000
0000
1000
0000
0000
0010
0000
,  // measure 60
0100
0000
0000
1000
0000
0000
0100
0000
0001
0000
0000
0100
0000
0000
0001
0000
,  // measure 61
0010
0001
0000
1000
0100
0000
1000
0000
0010
0100
0000
0001
0100
0000
0010
0000
,  // measure 62
1000
0000
0000
0001
0000
0000
0010
0001
0010
0000
0001
1000
0001
0000
0000
0000
,  // measure 63
1000
0000
0000
0100
0000
0000
0001
0000
0100
0000
0000
1000
0000
0000
0001
0000
,  // measure 64
0100
0000
0000
0010
0000
0000
0001
0000
0010
0000
0000
1000
0000
0000
0010
0000
,  // measure 65
1000
0001
0000
0100
0010
0000
1000
0000
0010
1000
0000
0100
1000
0000
0100
0000
,  // measure 66
1000
0000
0000
0001
0000
0000
0100
0010
0100
0000
0100
0001
0100
0000
0000
0000
,  // measure 67
0001
0100
0010
1000
0100
1000
0001
0000
,  // measure 68
0100
0010
0100
2020
,  // measure 69
3030
0000
1000
0100
0001
1000
0010
0001
,  // measure 70
0100
0010
1000
0100
1000
0020
0000
0100
,  // measure 71
0130
0000
0100
0001
0010
0100
0001
0100
,  // measure 72
1000
0100
0010
1000
0010
0001
1000
0100
,  // measure 73
2000
0000
0000
3020
0000
0000
1030
0000
,  // measure 74
0100
1001
0000
0101
0000
0011
0000
2002
,  // measure 75
0000
3003
0100
0000
1000
0100
0001
1000
,  // measure 76
0010
0001
1000
0100
1000
0000
0001
0000
,  // measure 77
0200
0000
0310
0000
0100
0010
0100
0001
,  // measure 78
0100
1000
0001
0010
1000
0010
0100
0000
,  // measure 79
0202
0000
0303
0000
0100
0010
1000
0100
,  // measure 80
1000
0010
0001
1000
0100
0001
1000
0100
,  // measure 81
0001
0000
0010
1000
0100
0000
1000
0010
,  // measure 82
1000
0001
0100
0001
0010
0000
0100
0000
,  // measure 83
1000
0100
0001
0000
0100
0000
1000
0000
,  // measure 84
2010
0000
0001
3001
0000
0000
0001
0100
,  // measure 85
0001
0010
1000
0010
0001
0000
1000
0100
,  // measure 86
0010
0000
0100
0000
1000
0000
0010
0000
0100
0000
0001
0100
0001
0000
1000
0000
,  // measure 87
0100
1000
0010
0000
0100
0000
0010
0000
,  // measure 88
0201
0000
0010
0310
0000
0000
1000
0010
,  // measure 89
0100
0000
0001
0000
0100
0000
0010
1000
,  // measure 90
0100
0000
0000
0000
1000
0000
0000
0000
0010
1000
0010
1000
0010
0000
1000
0000
,  // measure 91
0100
1000
0010
0000
0100
0000
0001
0000
,  // measure 92
0021
0000
0100
0130
0000
0000
0010
0001
,  // measure 93
0100
1000
0001
0010
1000
0000
0001
0010
,  // measure 94
1000
0000
0001
0000
0100
0000
1000
0000
0001
0000
0100
0010
0100
0000
0001
0000
,  // measure 95
1000
0010
0100
0001
,  // measure 96
0210
0000
0001
0301
0000
0000
0001
0010
,  // measure 97
1000
0000
0001
0100
1000
0000
0100
0110
,  // measure 98
0000
0011
0000
2200
0000
0000
3300
0000
,  // measure 99
0001
0000
0000
0010
0000
0000
1000
0000
0010
0000
0000
0001
0000
0000
0100
0000
,  // measure 100
1000
0000
0000
0100
0000
0000
0001
0000
0010
0000
0000
1000
0000
0000
0010
0000
,  // measure 101
0001
1000
0000
0001
1000
0000
0100
0000
0010
0001
0000
0010
0001
0000
0100
0000
,  // measure 102
0001
0010
0000
0100
1000
0000
0010
1000
0010
0000
1000
0001
1000
0000
0001
0000
,  // measure 103
0010
0000
0000
0100
0000
0000
0001
0000
0100
0000
0000
1000
0000
0000
0100
0000
,  // measure 104
0010
0000
0000
1000
0000
0000
0010
0000
0001
0000
0000
0100
0000
0000
1000
0000
,  // measure 105
0100
0000
0000
0001
0000
0000
0100
0000
0010
0000
0000
1000
0000
0000
0100
0000
,  // measure 106
0010
0000
0000
0110
0000
0000
0001
1000
0001
0000
1000
0100
1000
0000
0000
0000
,  // measure 107
0200
0000
0310
0200
0000
1300
0010
0000
,  // measure 108
1010
0110
0101
1100
,  // measure 109
0001
1100
0001
1100
,  // measure 110
0001
0000
1100
0000
0001
0012
0000
0013
,  // measure 111
0001
0000
1000
0100
0001
1000
0010
0001
,  // measure 112
1001
0010
1100
0001
,  // measure 113
0101
1000
1100
0001
,  // measure 114
0010
0110
0000
0011
0000
1001
0000
0202
,  // measure 115
0000
0303
0110
0000
0001
0010
0100
0002
,  // measure 116
0000
0203
0000
2300
0000
3010
1000
0000
,  // measure 117
2002
0000
0000
3003
0001
0100
1000
0002
,  // measure 118
0000
0023
0000
2030
0000
3001
0000
0000
,  // measure 119
0220
0000
0000
0330
1000
0100
0010
2000
,  // measure 120
0000
3020
0000
0032
0000
0013
0100
1000
,  // measure 121
0200
0000
1300
0010
2000
3000
0001
0100
,  // measure 122
0001
1000
0100
0210
,  // measure 123
0310
0001
0100
0000
1000
0000
0100
0000
,  // measure 124
0201
0000
0010
0310
0000
0000
1000
0100
,  // measure 125
0010
1000
0010
0001
0100
0000
0001
0010
,  // measure 126
0100
0000
0001
0000
0100
0000
1000
0000
0100
0000
0010
0100
0010
0000
0001
0000
,  // measure 127
0100
1000
0100
0001
,  // measure 128
2010
0000
0100
3100
0000
0010
0001
0102
,  // measure 129
0000
0203
0000
0320
0000
0030
0000
2000
,  // measure 130
0000
0000
3020
0000
0000
0000
0130
0000
0001
0100
0001
0100
0001
0000
1000
0000
,  // measure 131
0010
0001
0010
1000
,  // measure 132
1200
0000
0010
0310
0000
0001
0100
1000
,  // measure 133
0100
0001
1000
0100
0000
1000
0010
0001
,  // measure 134
0010
0000
1000
0000
0100
0000
0010
0000
0001
0000
0010
0001
0010
0000
0001
0000
,  // measure 135
0100
1000
0100
0001
,  // measure 136
0012
0000
1000
1003
0000
0000
0001
1002
,  // measure 137
0000
0203
0000
0320
0000
0030
0000
0110
,  // measure 138
0000
0101
0000
1001
0000
0000
0000
0000
,  // measure 139
1000
0000
0000
0100
0000
0000
0001
0000
0100
0000
0000
1000
0000
0000
0010
0000
,  // measure 140
0100
0000
0000
1000
0000
0000
0100
0000
0001
0000
0000
0100
0000
0000
0001
0000
,  // measure 141
0010
0001
0000
1000
0100
0000
1000
0000
0010
0100
0000
0001
0100
0000
0010
0000
,  // measure 142
1000
0000
0000
0001
0000
0000
0010
0001
0010
0000
0001
1000
0001
0000
0000
0000
,  // measure 143
1000
0000
0000
0100
0000
0000
0001
0000
0100
0000
0000
1000
0000
0000
0001
0000
,  // measure 144
0100
0000
0000
0010
0000
0000
0001
0000
0010
0000
0000
1000
0000
0000
0010
0000
,  // measure 145
1000
0001
0000
0100
0010
0000
1000
0000
0010
1000
0000
0100
1000
0000
0100
0000
,  // measure 146
1000
0000
0000
0001
0000
0000
0100
0010
0100
0000
0100
0001
0100
0000
0000
0000
,  // measure 147
0001
0000
0001
1000
0000
1000
0100
0000
,  // measure 148
0010
0100
1000
0001
,  // measure 149
1000
0000
1000
0001
0000
0001
0100
0000
,  // measure 150
0010
0000
0100
0000
0001
0001
0000
1000
,  // measure 151
1000
0000
1000
0001
0000
0001
0010
0000
,  // measure 152
0100
0010
0001
1000
,  // measure 153
0001
0000
0001
1000
0000
1000
0010
0000
,  // measure 154
0100
0110
0000
1010
0000
1001
0000
2200
,  // measure 155
0000
3300
0110
0000
0100
1000
0001
0100
,  // measure 156
0000
1000
0000
0100
0000
0001
1000
0010
,  // measure 157
1010
0000
0110
0000
0010
1000
0001
0010
,  // measure 158
0000
1000
0000
0010
0000
0001
1000
0100
,  // measure 159
1100
0000
0000
0000
0010
0001
1000
0010
,  // measure 160
0000
0001
0000
0010
0000
1000
0000
0102
,  // measure 161
0000
1003
0000
0021
0000
0130
0000
1100
,  // measure 162
0100
0000
0010
0000
0001
1000
0001
1000
0010
0000
0000
0000
0110
0000
0000
0000
,  // measure 163
0010
1000
0100
0000
0001
0000
0100
0000
,  // measure 164
1200
0000
0010
0310
0000
0000
0001
0100
,  // measure 165
0010
0001
0010
1000
0100
0000
1000
0010
,  // measure 166
0100
0000
1000
0000
0100
0000
0001
0000
0100
0000
0010
0100
0010
0000
1000
0000
,  // measure 167
0100
0001
0100
1000
,  // measure 168
0012
0000
1000
1003
0000
0010
1000
2100
,  // measure 169
0000
3200
0000
0320
0000
0030
0000
0011
,  // measure 170
0000
0110
0000
1100
0000
0000
1001
0000
,  // measure 171
2000
0001
0010
0001
,  // measure 172
3200
1000
0010
0300
,  // measure 173
0200
0010
0001
0300
,  // measure 174
0200
0001
0310
0010
,  // measure 175
0002
1000
0010
1000
,  // measure 176
0203
0001
0010
0300
,  // measure 177
0200
0010
1000
0300
,  // measure 178
0200
1000
0310
0010
,  // measure 179
2001
0000
0000
0000
,  // measure 180
3020
0000
0000
0000
,  // measure 181
0230
0000
0000
0000
,  // measure 182
0302
0000
0000
0000
,  // measure 183
0023
0000
0000
0000
,  // measure 184
0032
0000
0000
0000
,  // measure 185
2003
0000
0000
0000
,  // measure 186
3020
0000
0100
0130
,  // measure 187
2002
0000
0000
0000
,  // measure 188
0000
0000
0000
0000
,  // measure 189
3003
0000
0000
0000
;
