#TITLE:Chopper;
#SUBTITLE:;
#ARTIST:Shintaro & Masayoshi Iimori;
#TITLETRANSLIT:;
#SUBTITLETRANSLIT:;
#ARTISTTRANSLIT:;
#GENRE:Hybrid Trap;
#CREDIT:;
#BANNER:Chopper.png;
#BACKGROUND:Chopper-bg.png;
#LYRICSPATH:;
#CDTITLE:cdtitle.png;
#MUSIC:Chopper.ogg;
#OFFSET:-0.080000;
#SAMPLESTART:52.799992;
#SAMPLELENGTH:12.799999;
#SELECTABLE:YES;
#DISPLAYBPM:150.000000;
#BPMS:0.000000=150.000000
,128.000000=300.000000
,132.000000=150.000000
,148.000000=225.000000
,148.750000=75.000000
,149.000000=150.000000
,162.000000=225.000000
,162.750000=75.000000
,163.000000=150.000000
,195.000000=300.000000
,196.000000=150.000000
,258.000000=75.000000
,259.000000=150.000000
,290.000000=300.000000
,291.000000=150.000000
,383.000000=75.000000
,384.500000=150.000000
,415.000000=225.000000
,415.750000=75.000000
,416.000000=150.000000
,446.000000=300.000000
,447.000000=150.000000
,509.000000=75.000000
,510.000000=150.000000
;
#STOPS:128.000000=0.200000,
129.000000=0.100000,
129.500000=0.100000,
130.000000=0.050000,
130.250000=0.050000,
130.500000=0.050000,
130.750000=0.050000,
131.000000=0.200000,
195.000000=0.050000,
195.250000=0.050000,
195.500000=0.050000,
195.750000=0.050000,
290.000000=0.050000,
290.250000=0.050000,
290.500000=0.050000,
290.750000=0.050000,
384.500000=0.100000,
384.750000=0.100000,
441.000000=0.200000,
441.500000=0.200000,
442.000000=0.200000,
442.500000=0.200000,
446.000000=0.050000,
446.250000=0.050000,
446.500000=0.050000,
446.750000=0.050000
;
#BGCHANGES:;
#KEYSOUNDS:;
#ATTACKS:;

//---------------dance-single - ----------------
#NOTES:
     dance-single:
     :
     Beginner:
     3:
     0.279745,0.367326,0.328503,0.000000,0.000000,459.000000,382.000000,77.000000,0.000000,0.000000,0.000000,0.279745,0.367326,0.328503,0.000000,0.000000,459.000000,382.000000,77.000000,0.000000,0.000000,0.000000:
// measure 0
0000
0000
0000
0000
,  // measure 1
1001
0000
0000
0000
,  // measure 2
0110
0000
0000
0000
,  // measure 3
1001
0000
0000
0000
,  // measure 4
0110
0000
0000
0000
,  // measure 5
1001
0000
0000
0000
,  // measure 6
0110
0000
0000
0000
,  // measure 7
1001
0000
0000
0000
,  // measure 8
0110
0000
0000
0000
,  // measure 9
1001
0000
1000
0000
,  // measure 10
0100
0000
1000
0000
,  // measure 11
0001
0000
1000
0000
,  // measure 12
0100
0000
1000
0000
,  // measure 13
0001
0000
0010
0000
,  // measure 14
0100
0000
0010
0000
,  // measure 15
0001
0000
0010
0000
,  // measure 16
0100
0000
0010
0000
,  // measure 17
0001
0000
0000
1000
,  // measure 18
0000
0000
0000
0001
,  // measure 19
0000
0000
0000
0000
,  // measure 20
0100
0000
0000
0000
,  // measure 21
0010
0000
0000
0000
,  // measure 22
0100
0000
0000
0000
,  // measure 23
0010
0000
0000
0000
,  // measure 24
1000
0000
0001
0000
,  // measure 25
1001
0000
1000
0000
,  // measure 26
0100
0000
1000
0000
,  // measure 27
0100
0000
0010
0000
,  // measure 28
0001
0000
0010
0000
,  // measure 29
0001
0000
0100
0000
,  // measure 30
0001
0000
0100
0000
,  // measure 31
0001
0010
0100
1000
,  // measure 32
1001
0000
0000
0000
,  // measure 33
1001
0000
1000
0000
,  // measure 34
0001
0000
1000
0000
,  // measure 35
0001
0000
0100
0000
,  // measure 36
0010
0000
0100
0110
,  // measure 37
0010
0000
1000
0000
,  // measure 38
0010
0000
1000
0000
,  // measure 39
0100
0000
0010
0000
,  // measure 40
0100
0000
0010
0000
,  // measure 41
0110
0000
0100
0000
,  // measure 42
1000
0000
0001
0000
,  // measure 43
1000
0000
0010
0000
,  // measure 44
1000
0000
0001
1001
,  // measure 45
1000
0000
0010
0000
,  // measure 46
1000
0000
0001
0000
,  // measure 47
0010
0000
0001
0000
,  // measure 48
1000
0000
0001
0000
,  // measure 49
1001
0000
1000
1000
,  // measure 50
0000
0010
0010
0000
,  // measure 51
0100
0000
0001
0001
,  // measure 52
0000
0100
0100
0000
,  // measure 53
0010
0000
0100
0100
,  // measure 54
0000
0001
0001
0000
,  // measure 55
1000
0000
0100
0100
,  // measure 56
0000
0010
0010
0000
,  // measure 57
0110
0100
0100
0000
,  // measure 58
1000
0001
1000
0000
,  // measure 59
0001
1000
0001
0000
,  // measure 60
0100
0010
0100
0000
,  // measure 61
0010
0000
0010
0100
0010
0000
0000
0000
,  // measure 62
1000
0010
1000
0000
,  // measure 63
1000
1000
0001
1000
,  // measure 64
0001
1000
1001
1001
,  // measure 65
0000
1100
0000
0000
0001
0000
0101
0000
,  // measure 66
0000
0110
0000
0000
1000
0000
1010
0000
,  // measure 67
0000
1001
0000
0000
0001
0000
0011
0000
,  // measure 68
0000
0110
0000
0000
1000
0000
1100
0000
,  // measure 69
0000
0110
0000
0000
0001
0000
0101
0000
,  // measure 70
0000
1001
0000
0000
0100
0000
1100
0000
,  // measure 71
0000
0011
0000
0000
0100
0000
0110
0000
,  // measure 72
0000
0101
0000
0000
1000
0000
1001
0000
,  // measure 73
0000
1000
0000
0100
,  // measure 74
0000
0010
0000
0001
,  // measure 75
0000
0100
0000
0010
,  // measure 76
0000
1000
1001
0001
,  // measure 77
0000
0010
0000
0100
,  // measure 78
0000
1000
0000
0010
,  // measure 79
0000
0100
0000
0001
,  // measure 80
0000
0000
1000
0001
1000
0000
1001
0000
,  // measure 81
0000
1000
0100
1000
,  // measure 82
0000
0001
0000
0100
,  // measure 83
0000
0010
0000
1000
,  // measure 84
0000
0001
0000
0010
,  // measure 85
0000
0100
1000
0100
,  // measure 86
0000
1000
0000
0001
,  // measure 87
0000
1000
0000
0100
,  // measure 88
0000
0010
0000
0110
,  // measure 89
0000
0001
0000
0010
,  // measure 90
0000
0100
0000
1000
,  // measure 91
0000
0010
0000
0100
,  // measure 92
0000
0001
0000
1000
,  // measure 93
0000
0100
0000
0010
,  // measure 94
0000
0001
0000
1000
,  // measure 95
0010
0100
0001
1001
,  // measure 96
0000
1001
1000
0100
,  // measure 97
0010
0001
1000
0100
,  // measure 98
0010
0001
1000
0010
,  // measure 99
0100
0001
1000
0010
,  // measure 100
0100
0001
1000
0001
,  // measure 101
1000
0010
0100
0010
,  // measure 102
0100
0001
0010
0001
,  // measure 103
0010
0011
0000
1000
,  // measure 104
0000
1001
1000
0010
,  // measure 105
0100
0001
1000
0010
,  // measure 106
0100
0001
1000
0100
,  // measure 107
0010
0001
1000
0100
,  // measure 108
0010
0001
1000
0001
,  // measure 109
1000
0010
0100
0010
,  // measure 110
0100
0000
0001
0010
0001
0010
0011
0000
,  // measure 111
0000
1000
0000
1001
,  // measure 112
0001
1001
1000
0000
,  // measure 113
0010
1010
1000
0001
,  // measure 114
0010
0011
0001
0000
,  // measure 115
0100
0000
0110
0000
0010
0000
1000
0001
,  // measure 116
1000
1001
0001
0000
,  // measure 117
0010
0011
0001
1000
,  // measure 118
0010
1010
1000
0000
,  // measure 119
0001
0000
1001
0000
1000
0001
1000
0000
,  // measure 120
0100
1100
1000
0000
,  // measure 121
0001
0000
0101
0000
0100
0001
0100
0000
,  // measure 122
0010
0110
0100
0000
,  // measure 123
0001
0000
1001
0000
1000
0000
0100
0010
,  // measure 124
0100
0110
0010
0000
,  // measure 125
0001
0011
0010
0100
,  // measure 126
1000
0001
1000
0001
,  // measure 127
1000
0000
1001
0000
0011
0000
0000
1001
,  // measure 128
0000
0000
1000
0000
1100
0000
0000
1001
,  // measure 129
0000
0000
0001
0000
0011
0000
0000
0110
,  // measure 130
0000
0000
1000
0000
1010
0000
0000
1001
,  // measure 131
0000
0000
0001
0000
0101
0000
0000
0110
,  // measure 132
0000
0000
1000
0000
1100
0000
0000
1001
,  // measure 133
0000
0000
0001
0000
0011
0000
0000
0110
,  // measure 134
0000
0000
1000
0000
1010
0000
0000
0001
,  // measure 135
1000
0000
0000
0000
1001
0000
0000
0100
,  // measure 136
1000
0000
0001
0000
1000
0000
0000
0010
,  // measure 137
0100
0000
0010
0000
1000
0000
0000
0100
,  // measure 138
0010
0000
0100
0000
1000
0000
0000
0001
,  // measure 139
0010
0001
1000
0010
,  // measure 140
0100
0001
0010
0100
,  // measure 141
1000
0000
0000
0000
1001
0000
0000
1000
,  // measure 142
0000
0000
0010
0000
1000
0000
0000
0001
,  // measure 143
0000
0010
0011
0000
;

//---------------dance-single - ----------------
#NOTES:
     dance-single:
     :
     Challenge:
     10:
     0.789869,0.920314,0.524751,0.366899,0.492754,1296.000000,1173.000000,123.000000,86.000000,201.000000,0.000000,0.789869,0.920314,0.524751,0.366899,0.492754,1296.000000,1173.000000,123.000000,86.000000,201.000000,0.000000:
// measure 0
0000
0000
0000
0000
,  // measure 1
1100
0000
0100
1000
0100
0000
1000
0000
0100
1000
0100
0000
1000
0000
1000
0000
,  // measure 2
0001
1000
0001
0000
1000
0001
1000
0000
0100
0000
0010
0001
0010
0000
0001
0000
,  // measure 3
1000
0000
0100
1000
0100
0000
1000
0000
0100
1000
0100
0000
1000
0000
1000
0000
,  // measure 4
0001
1000
0001
0000
1000
0001
1000
0000
0010
0000
0400
0300
0004
0003
4000
3000
,  // measure 5
1001
0000
1000
0100
0010
0000
0010
0000
0100
0010
0001
0000
0001
0000
1000
0000
,  // measure 6
0010
0100
0001
0000
0001
0100
0010
0000
0010
0000
1000
0010
0001
0000
0001
0010
,  // measure 7
1000
0000
0001
0010
0100
0000
0100
0000
0010
0100
1000
0000
1000
0000
0001
0000
,  // measure 8
0100
0010
1000
0000
1000
0010
0100
0000
0002
0000
1003
0010
1000
0010
1000
0010
,  // measure 9
1000
0000
0001
0010
1000
0000
0001
0100
,  // measure 10
1000
0000
0010
0100
1000
0100
0001
0000
,  // measure 11
1000
0000
0001
0010
1000
0000
0001
0100
,  // measure 12
1000
0000
0010
1000
0010
0000
1000
0000
0001
0000
0400
0300
0004
0003
4000
3000
,  // measure 13
1001
0000
0001
0010
0100
0000
1000
0100
,  // measure 14
0010
0000
0001
0100
1000
0100
0010
0000
,  // measure 15
1000
0000
0100
0010
0001
0000
1000
0010
,  // measure 16
0100
0000
0001
1000
0001
0000
0010
0000
1000
0000
0010
0000
0001
0000
0100
0000
,  // measure 17
1001
0000
1000
0001
1000
0000
0001
0000
1000
0001
1000
0000
0200
0000
0000
0000
,  // measure 18
0310
0000
0100
0000
0010
0100
0010
0000
0100
0000
0010
0100
0020
0030
0001
0000
,  // measure 19
0100
0001
0100
0000
0001
0000
0100
0001
0100
0000
0001
0000
0010
0100
0010
0000
,  // measure 20
0100
0000
0000
1000
0100
0000
1000
0000
0001
0100
00M0
0100
1000
0000
0010
0000
,  // measure 21
1000
0000
0000
0100
0000
0000
0001
0000
1000
0000
0000
0010
0000
0000
0001
0000
,  // measure 22
1000
0000
0000
0010
0000
0000
0100
0000
0001
0010
0M00
0010
1000
0000
0001
0000
,  // measure 23
0100
0000
0000
0010
0000
0000
1000
0000
0001
0000
0000
0010
0000
0000
0100
0000
,  // measure 24
1000
0000
0000
0001
0000
0000
1000
0000
0001
0100
00M0
0100
1000
0000
0001
0000
,  // measure 25
1001
0000
0000
0100
1000
0000
0010
0000
0100
0000
0001
1000
0001
0000
0100
0000
,  // measure 26
0101
0000
0000
0001
1000
0000
0100
0000
0010
0000
0100
1000
0100
0000
0010
0000
,  // measure 27
0110
0000
0000
1000
0010
0000
0001
0000
0010
0000
1000
0100
1000
0000
0010
0000
,  // measure 28
1010
0000
0000
1000
0100
0000
0001
0000
0100
0000
1000
0010
1000
0000
0100
0000
,  // measure 29
0110
0010
0001
1000
0010
0100
0001
1000
,  // measure 30
0100
0010
0001
0100
0010
1000
0001
0010
,  // measure 31
0100
1000
0100
1000
0001
0100
0001
0100
0010
1000
0010
1000
0100
0010
0100
0010
,  // measure 32
0110
0000
0000
0000
1000
0000
0010
0000
1000
0100
0010
0100
1000
0000
0000
0000
,  // measure 33
1001
0000
0000
0000
1000
0000
0010
0000
0100
0000
0001
0000
1000
0000
0001
0100
,  // measure 34
0001
0100
0010
0001
0010
0100
0001
1000
,  // measure 35
2002
0000
0000
3003
1000
0000
0100
0010
0100
0000
1000
0000
0001
0000
0010
0000
,  // measure 36
0001
0000
1000
0000
0010
0000
0100
0010
0100
0000
0001
0000
2000
0000
0000
3000
,  // measure 37
2200
0000
0000
3300
1000
0000
0010
0000
0100
0000
0001
0100
0001
0000
0100
0000
,  // measure 38
0010
0000
0001
0000
0010
0000
1000
0000
0001
0000
0010
0001
0010
0000
0100
0000
,  // measure 39
2000
3010
1000
0100
0001
0100
0010
0001
,  // measure 40
1000
0100
0010
0001
0100
0010
4000
0000
0000
3001
1000
0001
,  // measure 41
1001
0000
0000
0001
0100
0000
0010
0000
1010
0000
0000
1000
0100
0000
0010
0000
,  // measure 42
0011
0000
0000
0001
1000
0000
0010
0000
0110
0000
0000
0001
1000
0000
0100
0000
,  // measure 43
0210
0000
0000
1300
0010
0000
0100
0000
0101
0000
0000
0001
0010
0000
0100
0000
,  // measure 44
1100
0000
0000
1000
0001
0000
0100
0000
0010
0000
1000
0000
0101
0000
MMMM
0000
,  // measure 45
0044
0000
0033
0010
0100
0000
1000
0000
1001
0000
0000
0010
0100
0000
0001
0000
,  // measure 46
1001
0000
0000
1000
0100
0000
1000
0000
1010
0000
0000
0100
0001
0000
0010
0000
,  // measure 47
0011
0002
0013
2000
3010
0200
0310
0002
,  // measure 48
1003
0000
0010
1000
1000
0000
0001
0000
1000
0010
0010
0000
0400
0000
0000
0300
,  // measure 49
0101
0001
1000
0100
1001
1000
0010
0100
,  // measure 50
0100
0000
0000
0000
0000
0000
0010
0000
0100
0000
0010
0000
0100
0000
0000
0000
0000
0000
0001
0000
0000
0100
0000
0000
0001
0000
0000
0000
0000
0000
1000
0000
0000
0000
0000
0000
0100
0000
0000
0000
0000
0000
0010
0000
0000
0000
0000
0000
,  // measure 51
0001
0000
1000
0001
0100
0010
1000
0001
0100
0000
0100
0000
0001
0000
0010
0000
,  // measure 52
0010
0000
0000
0000
0000
0000
0100
0000
0010
0000
0100
0000
0010
0000
0000
0000
0000
0000
0001
0000
0000
0010
0000
0000
0001
0000
0000
0000
0000
0000
1000
0000
0000
0000
0000
0000
0200
0000
0000
0000
0000
0000
0000
0000
0000
0000
0000
0000
,  // measure 53
0340
0030
0040
0030
0001
0000
0100
0000
1001
0000
0010
0000
0101
0000
0100
0000
,  // measure 54
0100
0000
0000
0000
0000
0000
0001
0000
1000
0000
0001
0000
1000
0000
0000
0000
0000
0000
0100
0000
0000
0010
0000
0000
0001
0000
0000
0000
0000
0000
1000
0000
0000
0000
0000
0000
0010
0000
0000
0000
0000
0000
0100
0000
0000
0000
0000
0000
,  // measure 55
0001
0100
0010
1000
0001
0100
0010
1000
0001
0000
0100
0000
0001
0010
0100
1000
,  // measure 56
0001
0000
1000
0000
0001
0000
1000
0000
0000
0001
0000
0000
0010
0000
0000
0100
0000
0000
1000
0000
0000
0001
0000
0000
0100
0000
0000
0000
0000
0000
0010
0000
0000
0000
0000
0000
4000
0000
0000
3000
0000
0000
4000
0000
0000
3000
0000
0000
,  // measure 57
1001
0000
1000
0000
0101
0000
0001
0010
,  // measure 58
1000
0000
0010
0100
0010
0000
0001
0000
1000
0000
0001
0000
0100
0000
0020
0030
,  // measure 59
1000
0000
0001
0010
0001
0100
0001
0010
0100
0000
1000
0000
1000
0000
0010
0000
,  // measure 60
0010
0000
0000
0000
0000
0000
1000
0000
0001
0000
1000
0000
0001
0000
0000
0000
0000
0000
1000
0000
0000
0100
0000
0000
1000
0000
0000
0000
0000
0000
0001
0000
0000
0000
0000
0000
0020
0000
0000
0000
0000
0000
0000
0000
0000
0000
0000
0000
,  // measure 61
0430
0300
0400
0300
1000
0000
0010
0000
0001
0000
0010
0000
1010
0000
0100
0000
,  // measure 62
0100
0000
0000
0000
0000
0000
0001
0000
0010
0000
0001
0000
0010
0000
0000
0000
0000
0000
0100
0000
0000
0010
0000
0000
0001
0000
0000
0000
0000
0000
1000
0000
0000
0000
0000
0000
0010
0000
0000
0000
0000
0000
0100
0000
0000
0000
0000
0000
,  // measure 63
0001
0010
0100
1000
0001
0100
0010
1000
0001
0100
0000
01M0
1000
0010
0100
0001
,  // measure 64
1000
0000
0100
0000
1000
0000
0100
0000
0000
0010
0000
0000
0001
0000
0000
1000
0000
0000
0001
0000
0000
0100
0000
0000
0010
0000
0000
0000
0000
0000
0000
0000
0000
0000
0000
0000
1010
0000
0000
0000
0000
0000
1000
0000
0000
0010
0000
0000
,  // measure 65
1000
0000
0001
0000
0010
0000
0100
0010
0100
0000
1000
0000
0001
0000
0010
0000
,  // measure 66
1000
0000
0001
0000
0100
0000
1000
0000
0001
0000
1000
0000
0100
0000
0010
0100
,  // measure 67
0010
0000
0001
0000
1000
0000
0010
0100
0010
0000
1000
0000
0001
0000
0010
0000
,  // measure 68
1000
0000
0001
0000
0100
0000
1000
0000
1100
0000
0000
0000
1001
0000
0001
0100
,  // measure 69
0001
0000
1000
0000
0100
0000
0010
0100
0010
0000
0001
0000
1000
0000
0100
0000
,  // measure 70
0001
0000
1000
0000
0010
0000
0001
0000
1000
0000
0001
0000
0010
0000
0100
0010
,  // measure 71
0100
0000
1000
0000
0001
0000
0100
0001
0100
0000
0010
0000
1000
0000
0100
0000
,  // measure 72
0001
0000
1000
0000
0010
0000
0001
0000
0010
0001
0010
0001
1001
0000
1000
0100
,  // measure 73
0010
0000
0100
0000
0010
0000
0001
0100
0010
0000
1000
0000
1100
0000
0100
0000
,  // measure 74
0010
0000
0110
0000
0100
0000
1000
0000
1001
0000
0001
0000
0101
0000
0100
1000
,  // measure 75
0100
0000
0001
0000
1000
0000
0100
0001
0100
0000
1000
0000
1001
0000
0010
0000
,  // measure 76
0100
0000
1001
0000
0100
0000
0010
0000
0011
0000
0000
0000
1001
0000
0010
1000
,  // measure 77
0001
0000
0100
0000
0001
0000
0010
0001
1000
0000
0001
0000
1010
0000
1000
0000
,  // measure 78
0100
0011
0001
0100
0001
1000
0010
0010
,  // measure 79
0100
0000
0001
1000
0000
1000
0001
0000
0010
0100
0010
0000
0001
1000
0001
0000
,  // measure 80
0100
0000
0010
1000
0000
1000
0010
0000
1000
0000
0100
0000
120M
0000
0000
0000
,  // measure 81
000M
0000
000M
0000
001M
0020
003M
0000
,  // measure 82
000M
0000
0000
0000
000M
0000
0000
0000
000M
0000
0000
0000
000M
0000
0000
0010
,  // measure 83
000M
0000
0010
0000
100M
0000
0000
1000
000M
0000
1000
0000
001M
0000
0000
0010
,  // measure 84
000M
0000
0010
0000
100M
1000
0000
1000
000M
0000
1000
0000
130M
0000
0000
0100
,  // measure 85
000M
0000
1000
0000
001M
0000
0000
0100
001M
0000
0001
0000
001M
0000
0000
0100
,  // measure 86
000M
0000
0001
0000
100M
0010
0000
0010
010M
0000
0001
0000
010M
0000
0000
0010
,  // measure 87
000M
0000
1000
0000
010M
0000
0000
0010
000M
0000
0001
0000
100M
0000
0000
0010
,  // measure 88
000M
0000
1000
0000
010M
0010
0000
0010
100M
0000
0001
0000
1001
0000
1000
0000
,  // measure 89
0001
0000
0100
0000
0010
0000
1000
0001
1000
0000
0010
0000
0100
0000
0001
0000
,  // measure 90
0010
0000
0100
0000
1000
0000
0010
0100
0010
0000
1000
0000
0100
0000
1000
0000
,  // measure 91
0001
0000
1000
0000
0010
0000
1000
0001
1000
0000
0100
0000
0001
0000
0100
0000
,  // measure 92
0010
0000
0001
0000
1000
0000
0010
0100
0010
0000
1000
0000
0200
0300
2000
3000
,  // measure 93
0002
0003
2000
3000
0200
0300
0020
0030
0002
0003
2000
3000
0020
0030
0200
0300
,  // measure 94
0002
0003
0020
0030
0200
0300
2000
3000
0002
0003
0200
0300
0010
1000
0010
1000
,  // measure 95
0001
0010
0001
0010
0100
1000
0100
1000
0010
0100
0010
0100
0110
0000
0000
0000
,  // measure 96
0000
0000
MMMM
1000
MMMM
0100
MMMM
0001
,  // measure 97
MMMM
0100
MMMM
0010
MMMM
0001
MMMM
1000
,  // measure 98
MMMM
0001
MMMM
0010
MMMM
1000
MMMM
0010
,  // measure 99
MMMM
0100
MMMM
1000
MMMM
0001
MMMM
1000
,  // measure 100
2002
0000
0000
3003
MMMM
0000
1000
0000
MMMM
0000
0100
0000
MMMM
0000
0001
0000
,  // measure 101
MMMM
1000
MMMM
0010
MMMM
0001
MMMM
1000
,  // measure 102
MMMM
0010
MMMM
0001
MMMM
1000
MMMM
0100
,  // measure 103
MMMM
0000
0001
0000
MMMM
0000
1000
0100
0000
0000
1000
0001
4000
0000
0000
0000
,  // measure 104
3100
0000
1000
0000
0001
0000
0101
0000
0000
MM22
0000
0000
0033
0000
0000
M2M2
0000
0000
0303
0000
0000
2M2M
0000
0000
,  // measure 105
3030
22MM
3300
M22M
0330
M2M2
0303
M22M
,  // measure 106
0330
2MM2
3003
2M2M
3030
M2M2
0303
MM22
,  // measure 107
0033
22MM
3300
2MM2
3003
M22M
0330
2MM2
,  // measure 108
3003
MMMM
1100
1100
0000
MM22
0033
M22M
,  // measure 109
0330
2M2M
3030
M22M
0330
2MM2
3003
M22M
,  // measure 110
0330
0000
2MM2
3003
1010
0000
0101
0000
0110
0000
1001
0000
1000
0000
0100
1000
,  // measure 111
1000
0000
0001
0000
1000
0100
0100
0000
0040
0000
0000
0030
1001
0000
0000
0000
,  // measure 112
0100
0000
1001
0000
0010
0100
0100
0000
,  // measure 113
0101
0000
0001
0100
0001
0000
1000
0000
0010
0000
1000
0000
1001
0000
0000
0000
,  // measure 114
0010
0000
0000
0000
0000
0000
0011
0000
0000
0010
0000
0000
0010
0000
0000
0001
0000
0000
0001
0000
0000
1000
0001
1000
,  // measure 115
0001
0000
0010
0100
1000
0000
0010
0000
0001
0000
0010
0000
4000
3000
4000
3000
,  // measure 116
0010
0000
1001
0000
0100
0010
0010
0000
,  // measure 117
1001
0000
0001
1000
0001
0000
0100
0000
0010
0000
0100
0000
0101
0000
0000
0000
,  // measure 118
0010
0000
0000
0000
0000
0000
1010
0000
0000
0100
0000
0000
0100
0000
0000
0001
0000
0000
0001
0000
0000
1000
0010
1000
,  // measure 119
0010
0000
0100
0010
1000
0000
0000
0000
0004
0003
0004
0003
0101
0000
0000
0000
,  // measure 120
1000
0000
0000
0000
1010
0000
0000
0000
0010
0000
0100
0000
0010
0000
1000
0100
,  // measure 121
1000
0000
0010
0000
0100
0000
0100
0000
0101
0000
0001
0000
1001
0000
1000
0100
,  // measure 122
0010
0000
0000
0100
0000
0000
1000
0000
0000
0001
0000
0000
0100
0000
0000
0000
0000
0000
0100
0000
0000
0000
0000
0000
0110
0000
0000
0000
0000
0000
1000
0000
0000
0000
0000
0000
0001
0000
0000
0000
0000
0000
0010
0000
0100
0000
0010
0000
,  // measure 123
0100
0000
1000
0010
0100
0000
0001
0000
2000
0000
0000
0000
3040
0030
0040
0030
,  // measure 124
1000
0000
0000
0100
0000
0000
1000
0000
0000
0010
0000
0000
1010
0000
0000
1000
0000
0000
0100
0000
0000
0010
0001
0010
,  // measure 125
0001
0000
1000
0001
0100
0000
0010
0000
1001
0000
0001
0000
1000
0100
0010
0001
,  // measure 126
1000
0000
0000
0010
0000
0000
0100
0000
0000
0001
0000
0000
1000
0000
0000
0010
0000
0000
0000
0000
0000
0M10
0000
0000
0001
0000
0000
0100
0000
0000
0010
0000
0000
1000
0000
0000
0001
0000
0010
0000
0001
0000
0010
0000
0000
0100
0000
0000
,  // measure 127
1000
0001
1000
0010
0100
0000
0000
0000
1001
0000
1000
0000
0010
0000
1000
0000
,  // measure 128
1001
0000
0000
0000
0010
0000
0001
0010
0001
0000
1000
0000
0001
0000
0100
0000
,  // measure 129
1001
0000
1002
0000
0013
0100
1000
0010
,  // measure 130
1001
0000
0000
0000
0100
0000
0010
0100
0010
0000
1000
0000
0001
0000
0010
0000
,  // measure 131
0100
0000
1010
0000
1001
1000
0010
1000
,  // measure 132
1001
0000
0000
0000
0010
0000
0001
0010
0001
0000
1000
0000
0001
0000
0100
0000
,  // measure 133
1001
0000
2001
0000
3100
0010
0001
0100
,  // measure 134
1001
0000
0000
0000
0010
0000
0100
0010
0100
0000
0001
0000
1000
0000
0010
0000
,  // measure 135
1010
0001
1000
0000
1001
1000
0010
0100
,  // measure 136
0101
0000
0000
0000
0011
0000
0001
1000
0001
0000
0100
0000
1000
0000
0100
0000
,  // measure 137
0101
0000
1002
0000
0013
0100
1000
0010
,  // measure 138
0110
0000
0000
0000
1010
0000
1000
0001
1000
0000
0010
0000
0100
0000
0001
0000
,  // measure 139
1001
0000
1010
0000
1001
1000
0100
0010
,  // measure 140
0011
0000
0000
0000
0110
0000
0001
1000
0001
0000
0010
0000
1000
0000
0010
0000
,  // measure 141
0011
0000
0000
0000
1200
0000
0000
0000
0310
0000
0010
0000
0100
0000
1000
0001
,  // measure 142
0000
0001
1000
0000
0010
0100
0010
0000
1000
0001
1000
0000
0100
0000
0010
0001
,  // measure 143
0000
0001
0010
0000
0001
0000
0100
0000
0110
0000
0004
0003
4000
3000
0000
0000
;

//---------------dance-single - ----------------
#NOTES:
     dance-single:
     :
     Hard:
     9:
     0.716733,0.765262,0.362633,0.332769,0.287973,1176.000000,1091.000000,85.000000,78.000000,0.000000,0.000000,0.716733,0.765262,0.362633,0.332769,0.287973,1176.000000,1091.000000,85.000000,78.000000,0.000000,0.000000:
// measure 0
0000
0000
0000
0000
,  // measure 1
1100
0000
1000
0001
1000
0000
0010
0010
,  // measure 2
0110
0000
0100
0001
1000
0000
0001
0010
,  // measure 3
0011
0000
0100
1000
0001
0000
1000
1000
,  // measure 4
1010
0000
0000
0000
0010
0000
0100
0000
0001
0000
2000
3000
0200
0300
0020
0030
,  // measure 5
1001
0000
1000
0001
0010
0000
0100
0100
,  // measure 6
1100
1000
0001
1000
0100
0001
0100
1000
,  // measure 7
0200
0001
0010
0001
,  // measure 8
1000
0000
0000
0000
0001
0000
0000
0000
0310
0000
0002
0000
0000
0000
0000
0003
,  // measure 9
0101
0100
0010
1000
1010
0000
0001
0010
,  // measure 10
0001
0000
0000
0000
1000
0000
0100
0000
0010
0000
0001
0010
0001
0000
0100
0010
,  // measure 11
0100
0000
0010
1000
1001
0000
1000
0100
,  // measure 12
0010
0000
0001
0010
0001
0000
0100
0000
1000
0000
0200
0300
0020
0030
2000
3000
,  // measure 13
0001
0000
1000
0100
1100
0000
0001
0100
,  // measure 14
0010
0100
0010
0000
1000
0010
1000
0000
0001
0000
0010
0000
0100
0000
0010
0001
,  // measure 15
0010
0000
0001
1000
1100
0000
0001
0100
,  // measure 16
0010
0000
1000
0010
1000
0000
0100
0000
0010
0000
0001
0000
1000
0000
0001
0000
,  // measure 17
1001
0000
1000
0001
1000
0000
0020
0000
,  // measure 18
0130
0000
0010
0100
0010
0000
2000
3001
,  // measure 19
1000
0000
0100
0010
0100
0000
1000
0010
,  // measure 20
1000
0000
0000
0001
0000
0000
0100
0000
0001
1000
0000
1000
0100
0000
0010
0000
,  // measure 21
0100
0000
0000
1000
0000
0000
0001
0000
0100
0000
0000
0001
0000
0000
1000
0000
,  // measure 22
0010
0000
0000
0100
0000
0000
0010
0000
1000
0001
0000
0001
0100
0000
0010
0000
,  // measure 23
1000
0000
0000
0100
0000
0000
0010
0000
0100
0000
0000
1000
0000
0000
0001
0000
,  // measure 24
0100
0000
0000
0010
0000
0000
0100
0000
0001
0010
0000
0010
0100
0000
1000
0000
,  // measure 25
1100
0000
0000
0100
1000
0000
0001
0000
1000
0000
0010
0100
0010
0000
1000
0000
,  // measure 26
0001
0000
0000
0010
0100
0000
0010
0000
0001
0000
0100
0010
0100
0000
0001
0000
,  // measure 27
1000
0000
0000
0010
1000
0000
0100
0000
0010
0000
0001
0010
0001
0000
1000
0000
,  // measure 28
0010
0000
0000
0100
0010
0000
0100
0000
0001
0000
0010
0100
0010
0000
0001
0000
,  // measure 29
1000
0100
0010
0001
0100
0010
1000
0100
,  // measure 30
0010
0001
0100
0010
1000
0100
0010
0001
,  // measure 31
1000
0001
1000
0001
1000
0001
1000
0001
1000
0100
0010
0100
0010
0100
0010
0100
,  // measure 32
0010
0000
0001
1000
0002
0000
0013
0000
,  // measure 33
0011
0000
1000
0100
0001
0100
0010
0100
,  // measure 34
1000
0001
0100
0001
1000
0100
0010
0001
,  // measure 35
2000
0000
3010
1000
0100
0001
0100
1000
,  // measure 36
0010
0100
0010
1000
0001
0010
0011
0000
,  // measure 37
2000
0000
3001
0010
1000
0010
0100
0010
,  // measure 38
0001
1000
0001
0100
0010
1000
0100
0010
,  // measure 39
0002
0103
0001
0100
1000
0100
0010
0100
,  // measure 40
0001
1000
0001
1000
0001
1000
0002
0000
0000
0013
0001
0010
,  // measure 41
0011
0000
0000
1000
0001
0000
1000
0000
0001
0000
0010
0100
0010
0000
0001
0000
,  // measure 42
1000
0000
0000
0010
1000
0000
0001
0000
0010
0000
0000
0100
0010
0000
0100
0000
,  // measure 43
1000
0000
0001
0000
1000
0000
0100
0010
0100
0000
1000
0000
0001
0000
1000
0000
,  // measure 44
0010
0000
0000
0100
0010
0000
0100
0000
0001
0000
0010
0000
0011
0000
0001
0000
,  // measure 45
1001
0000
0000
1000
0100
0000
1000
0000
0001
0000
0010
0100
0010
0000
0001
0000
,  // measure 46
1000
0000
0000
0100
1000
0000
0001
0000
0100
0000
0010
0000
0001
0000
0010
0000
,  // measure 47
1000
0100
0010
0001
1000
0010
0100
0001
,  // measure 48
1000
0000
0010
1000
0010
0000
0010
0000
1000
0100
1000
0000
2000
0000
0000
3000
,  // measure 49
1100
1000
0001
1000
0001
0010
0000
0010
,  // measure 50
0100
0000
1000
0100
1000
0000
0001
0100
0001
0000
2000
3000
0002
0003
0020
0030
,  // measure 51
0100
0000
0010
0100
0010
0100
0010
0100
0010
0000
0001
0000
0001
0000
1000
0000
,  // measure 52
1000
0000
0010
1000
0010
0000
0100
0010
0100
0000
0001
0000
2000
0000
0000
0000
,  // measure 53
3200
0300
0200
0300
0010
0000
0001
0000
0010
0000
0001
0000
0000
0000
1000
0000
,  // measure 54
0010
0000
0100
0010
0100
0000
0001
0100
0001
0000
0010
0000
1000
0000
0010
0000
,  // measure 55
0001
1000
0001
1000
0001
1000
0001
1000
0010
0000
1000
0000
0001
0000
0010
0000
,  // measure 56
0100
0000
0010
0000
0001
0000
1000
0000
0001
0000
0010
0000
0200
0300
0200
0300
,  // measure 57
1001
0000
1000
0000
1100
0000
0100
0010
,  // measure 58
0001
0000
1000
0001
1000
0000
0010
0000
0100
0000
1000
0000
0100
0000
0010
0000
,  // measure 59
1010
1000
0001
1000
0001
0010
0010
0100
,  // measure 60
0100
0000
1000
0100
1000
0000
0001
1000
0001
0000
0100
0000
0020
0000
0000
0000
,  // measure 61
2030
3000
2000
3000
0001
0000
0100
0000
1000
0000
0001
0000
0010
0000
1000
0000
,  // measure 62
0001
0000
0100
0001
0100
0000
0010
0000
1000
0000
0100
0000
0010
0000
0100
0000
,  // measure 63
1000
0100
1000
0100
1000
0000
0000
0000
1100
0000
0000
0000
0101
0000
0000
0000
,  // measure 64
1100
0000
0000
0000
0101
0000
0000
0000
1001
0000
0000
0000
1100
0000
1000
0100
,  // measure 65
1000
1001
0001
0010
0001
0100
0101
0100
,  // measure 66
0010
0000
0100
0000
0010
0000
0100
0000
0220
0000
0330
0000
1001
0000
1000
0100
,  // measure 67
1000
1010
0010
0100
0001
0010
0011
0001
,  // measure 68
1000
0000
0001
0000
1000
0000
0100
0000
0100
0000
0000
0000
0101
0000
0001
1000
,  // measure 69
0001
0010
1000
0010
0100
1000
1100
0001
,  // measure 70
0100
0000
0001
0000
0100
0000
0001
0000
0202
0000
0303
0000
1001
0000
0001
1000
,  // measure 71
0001
0010
1000
0010
0100
1000
1100
0001
,  // measure 72
0100
0001
0100
0010
0020
0000
0130
0010
,  // measure 73
1000
0000
0001
0000
0100
0000
0010
0000
1000
0000
0001
1000
0001
0000
1000
0000
,  // measure 74
0100
0000
1000
0000
0001
0000
1000
0000
0100
0000
1000
0001
1000
0000
0010
0000
,  // measure 75
0100
0000
0010
0000
0001
0000
0010
0000
0100
0000
0010
1000
0010
0000
1000
0000
,  // measure 76
0100
0010
0001
1000
1100
0000
1001
1000
,  // measure 77
0100
0000
0010
0000
0001
0000
1000
0000
0100
0000
0010
0001
0010
0000
0001
0000
,  // measure 78
1000
0001
0010
0001
0010
0001
1000
0010
,  // measure 79
1000
0000
0100
0010
0000
0100
0010
0000
0001
0000
1000
0000
0010
0000
0100
0000
,  // measure 80
0001
0000
1000
0100
0000
1000
0100
0000
1000
0000
0010
0000
1020
0000
0000
0000
,  // measure 81
0100
0001
0100
1000
,  // measure 82
0100
0001
0100
1000
,  // measure 83
0100
0001
0100
1000
,  // measure 84
0100
0000
0000
0000
0001
0000
0000
0000
0100
0000
0000
0000
1030
0000
0000
0010
,  // measure 85
0000
0000
1000
0000
0100
0000
0000
0010
0000
0000
0100
0000
1000
0000
0000
0001
,  // measure 86
0000
0000
0010
0000
0001
0100
0000
0100
0010
0000
1000
0000
0001
0000
0000
0010
,  // measure 87
0000
0000
1000
0000
0010
0000
0000
0100
0000
0000
1000
0000
0001
0000
0000
0100
,  // measure 88
0000
0000
0010
0000
0100
0001
0000
0001
1000
0000
0100
0000
1100
0000
1000
0000
,  // measure 89
0001
1000
0001
0010
0100
0010
0100
1000
,  // measure 90
0010
1000
0010
0100
0001
0100
0001
0010
,  // measure 91
0100
0010
0100
1000
0010
1000
0010
0100
,  // measure 92
0001
0100
0001
0010
0100
0010
0100
0100
,  // measure 93
0100
0100
1000
1000
1000
1000
0001
0001
,  // measure 94
0001
0000
0001
0000
0100
0000
0100
0000
0100
0000
0100
0000
0010
0100
0010
0100
,  // measure 95
0010
0100
0010
0100
0001
0010
0001
0010
0001
0010
0001
0010
0001
0000
0000
0000
,  // measure 96
0000
0000
1000
0100
1100
0000
0200
0000
0301
0000
0200
0000
1300
0000
0200
0000
,  // measure 97
0310
0200
1300
0020
0130
0020
0031
0020
,  // measure 98
0130
0020
1030
0200
0301
0200
1300
0200
,  // measure 99
0310
0200
1300
0020
0130
0020
0031
0020
,  // measure 100
0130
0000
0101
0200
0310
0200
1300
0200
,  // measure 101
0310
0200
0301
0020
0130
0020
1030
0020
,  // measure 102
0130
0020
0031
0200
0310
0200
1300
0200
,  // measure 103
0310
0200
0301
0100
0001
1000
2000
0000
,  // measure 104
3010
0000
0000
0000
1000
0000
0000
0000
0001
0000
0000
0000
1000
0000
0000
0000
0000
0000
0000
0000
0000
0100
0000
0000
1000
0000
0000
0000
0000
0000
0001
0000
0000
0000
0000
0000
1000
0000
0000
0000
0000
0000
0100
0000
0000
0000
0000
0000
,  // measure 105
0010
0000
0100
0000
1000
0000
0000
0001
0100
0000
0001
0000
1000
0000
0010
0000
,  // measure 106
0100
0000
0010
0000
1000
0000
0000
0100
0010
0000
0100
0000
1000
0000
0001
0000
,  // measure 107
0100
0000
0010
0000
1000
0000
0000
0100
0010
0000
0001
0000
1000
0000
0001
0000
,  // measure 108
1001
0000
1000
0000
0010
0000
1000
0000
0001
0000
0010
0000
0100
0000
0000
0010
,  // measure 109
0100
0000
1000
0000
0001
0000
0000
0100
0010
0000
0100
0000
1000
0000
0100
0000
,  // measure 110
0001
0000
0100
0000
0101
0000
0110
0000
1100
0000
1001
0000
1000
0000
0100
1000
,  // measure 111
0100
0000
0100
0000
1000
0001
1000
0000
0002
0000
0000
0000
0013
0000
0000
0000
,  // measure 112
0001
0000
1001
0000
1000
0100
0010
0000
,  // measure 113
0100
0000
0010
0100
0010
0000
0010
0000
0001
0000
1000
0000
1001
0000
0000
0000
,  // measure 114
0010
0000
0110
0100
0100
0001
0001
2000
,  // measure 115
3001
0000
0010
0001
0010
0000
0100
0000
1000
0000
0001
0000
2000
3000
2000
3000
,  // measure 116
0100
0000
0110
0000
0010
0001
0001
0000
,  // measure 117
1001
0000
1000
0001
1000
0000
1000
0000
0010
0000
0100
0000
0110
0000
0000
0000
,  // measure 118
1000
0000
0000
0000
1001
0000
0001
0000
0001
0000
0100
0000
0100
0000
0010
0100
,  // measure 119
0010
0000
1000
0001
1000
0000
0000
0000
0200
0300
0200
0300
1010
0000
0000
0000
,  // measure 120
1000
0000
0000
0000
1001
0000
0000
0000
0001
0000
0010
0000
0010
0000
0100
0010
,  // measure 121
0100
0000
1000
0000
0010
0000
0010
0000
0100
0000
0010
0000
1000
0000
0001
1000
,  // measure 122
0001
1000
0001
1000
0001
0000
0100
0000
0100
0000
0010
0000
0010
0000
1000
0010
,  // measure 123
1000
0000
0001
1000
0001
0000
0010
0000
0200
0000
0000
0000
2300
3000
2000
3000
,  // measure 124
0001
0000
0001
0000
0001
0000
0001
0000
1001
0000
0001
0000
0100
0000
0010
0100
,  // measure 125
0010
0000
1000
0001
1000
0000
1000
0000
0010
0000
0100
0000
0001
0100
0001
0100
,  // measure 126
0001
0101
1100
0101
,  // measure 127
1100
0000
1001
0000
1100
0100
0000
0100
,  // measure 128
0101
0000
0002
0003
0011
0010
0000
0010
,  // measure 129
1010
0000
2000
3000
1100
0100
0000
0100
,  // measure 130
0101
0000
0002
0003
0011
0010
0000
0010
,  // measure 131
1010
0000
1001
0000
1100
0100
0000
0100
,  // measure 132
0101
0000
0002
0003
0011
0010
0000
0010
,  // measure 133
1010
0000
2000
3000
1100
0100
0000
0100
,  // measure 134
0101
0000
0002
0003
0011
0010
0000
0010
,  // measure 135
1010
1000
0001
0000
1001
1000
0100
0001
,  // measure 136
0100
0000
1000
0000
0010
0000
0100
0010
0100
0000
0001
0000
0010
0000
0001
0000
,  // measure 137
1000
0010
0200
0000
0301
0100
1000
0100
,  // measure 138
0001
0000
0010
0000
0100
0000
1000
0100
1000
0000
0010
0000
0100
0000
0010
0000
,  // measure 139
1000
0000
1001
0000
0001
0010
0100
1000
,  // measure 140
0010
0000
0100
0000
0001
0000
1000
0001
1000
0000
0010
0000
0100
0000
0010
0000
,  // measure 141
1000
0000
0000
0000
0002
0000
0003
0000
0010
0000
0010
0000
0001
0000
1000
0010
,  // measure 142
0000
1000
0010
0000
0100
0000
0001
0000
0010
0000
0100
0000
1000
0000
0001
0010
,  // measure 143
0000
0001
0010
0000
0001
0000
1000
0000
1010
0000
0000
0000
0000
0000
0000
0000
;

//---------------dance-single - ----------------
#NOTES:
     dance-single:
     :
     Medium:
     7:
     0.574727,0.643940,0.226112,0.251710,0.059728,943.000000,890.000000,53.000000,59.000000,0.000000,0.000000,0.574727,0.643940,0.226112,0.251710,0.059728,943.000000,890.000000,53.000000,59.000000,0.000000,0.000000:
// measure 0
0000
0000
0000
0000
,  // measure 1
0011
0000
0001
0000
0100
0010
1000
0000
,  // measure 2
1001
0000
1000
0000
0100
0010
0100
0000
,  // measure 3
1100
0000
1000
0000
0001
0100
0010
0000
,  // measure 4
1001
0000
1000
0000
0001
1000
0010
0100
,  // measure 5
0101
0000
0010
0000
1000
0001
0010
0000
,  // measure 6
0110
0000
1000
0000
0001
0100
0001
0000
,  // measure 7
1020
0100
0001
0100
,  // measure 8
1000
0000
0100
0000
2030
0000
0000
3000
,  // measure 9
1001
0000
0001
1000
0100
0000
0100
0010
,  // measure 10
0100
0000
1000
0000
0010
0100
0001
0000
,  // measure 11
1000
0000
0001
0010
0100
0000
0100
0010
,  // measure 12
0100
1000
0100
0010
0001
0100
0010
1000
,  // measure 13
0001
0000
1000
0001
0010
0000
0010
0100
,  // measure 14
0010
0000
0001
0000
0100
0010
1000
0000
,  // measure 15
0001
0000
1000
0100
0010
0000
0010
0100
,  // measure 16
0010
0001
0010
0100
1000
0010
0100
0001
,  // measure 17
1002
0000
0000
0200
,  // measure 18
0300
0000
0000
0000
0000
0000
2000
3000
,  // measure 19
0000
0000
0000
0003
,  // measure 20
1000
0000
0000
1000
0000
0000
1000
0000
0001
0000
0000
0100
0000
0000
0100
0000
,  // measure 21
0010
0000
0000
0010
0000
0000
0010
0000
1000
0000
0000
1000
0000
0000
1000
0000
,  // measure 22
0001
0000
0000
0001
0000
0000
0001
0000
1000
0000
0000
0100
0000
0000
0100
0000
,  // measure 23
0010
0000
0000
0010
0000
0000
0010
0000
0001
0000
0000
0001
0000
0000
0001
0000
,  // measure 24
1000
0000
0000
1000
0000
0000
1000
0000
0010
0000
0000
0100
0000
0000
0100
0000
,  // measure 25
0101
0000
0001
0010
0100
1000
0100
0010
,  // measure 26
0011
0000
0001
0100
0001
0010
0001
0100
,  // measure 27
0110
0000
0001
0100
0010
1000
0010
0100
,  // measure 28
0101
0000
0001
0010
0001
0100
0001
1000
,  // measure 29
0001
0010
0001
0010
1000
0010
1000
0010
,  // measure 30
0001
0100
0001
0100
1000
0100
1000
0100
,  // measure 31
0001
1000
0001
1000
0001
1000
0001
1000
,  // measure 32
1001
0000
0000
0000
,  // measure 33
1100
0000
1000
0010
0100
0001
1000
0010
,  // measure 34
0100
0010
0100
0001
0010
0100
1000
0001
,  // measure 35
2000
0000
3001
0100
0010
0100
0010
1000
,  // measure 36
0100
0010
0001
1000
0010
1000
1001
0000
,  // measure 37
0200
0000
0301
0010
0100
0010
0001
1000
,  // measure 38
0001
1000
0100
0010
0100
1000
0010
1000
,  // measure 39
0010
0100
0001
0010
0100
1000
0010
0100
,  // measure 40
0001
1000
0001
1000
0001
1000
0002
0000
0000
0103
0001
0100
,  // measure 41
0001
0000
0001
0100
0010
1000
0001
0100
,  // measure 42
0010
0100
0010
1000
0100
0010
0001
1000
,  // measure 43
0002
0000
1003
0010
0100
0010
0100
0001
,  // measure 44
0010
0100
1000
0001
0100
0001
1000
1000
,  // measure 45
0020
0000
1030
0100
0010
0100
1000
0001
,  // measure 46
1000
0001
0010
0100
0010
0001
0100
0001
,  // measure 47
0100
0010
1000
0100
0010
0001
0100
0010
,  // measure 48
1000
0001
0001
0100
0001
0001
0020
0000
,  // measure 49
0130
1000
1000
0001
0001
0001
0000
1000
,  // measure 50
1000
0100
0001
0100
1000
0100
0010
0001
,  // measure 51
0000
0100
0001
0010
0001
0001
0000
1000
,  // measure 52
1000
0010
0100
0001
1000
1000
0200
0000
,  // measure 53
0300
0000
1000
1000
0010
0010
0000
0100
,  // measure 54
0001
0010
0100
0010
0001
0001
0000
1000
,  // measure 55
0001
0100
0010
1000
0001
0010
0100
1000
,  // measure 56
0002
0000
1003
0100
0010
0001
0100
0100
,  // measure 57
0110
0000
0001
0000
0001
0000
0000
1000
,  // measure 58
1000
0010
0001
0010
1000
0010
0100
0001
,  // measure 59
0000
0010
0001
0100
0001
0001
0000
1000
,  // measure 60
1000
0100
0010
0001
1000
1000
0020
0000
,  // measure 61
0030
0000
1000
1000
0100
0100
0000
0010
,  // measure 62
0001
0100
0010
0100
0001
0001
0000
1000
,  // measure 63
0001
0010
0100
1000
0001
0000
0001
1000
,  // measure 64
0002
0000
1003
0010
0100
0000
2002
0000
,  // measure 65
3003
0202
0000
0303
1001
0000
2200
0000
,  // measure 66
3300
2002
0000
3003
1010
0000
0220
0000
,  // measure 67
0330
0202
0000
0303
0011
0000
0220
0000
,  // measure 68
0330
2200
0000
3300
0110
0000
2002
0000
,  // measure 69
3003
2020
0000
3030
1001
0000
0022
0000
,  // measure 70
0033
2002
0000
3003
0101
0000
0220
0000
,  // measure 71
0330
2020
0000
3030
1100
0000
0220
0000
,  // measure 72
0330
0022
0000
0033
0000
0000
1000
0001
,  // measure 73
0100
0001
1000
0001
0010
0000
0010
0100
,  // measure 74
1000
0100
0010
0001
0100
0000
0100
0001
,  // measure 75
1000
0001
0100
0001
0010
0000
0010
0100
,  // measure 76
1000
0010
0100
0001
1001
0000
1000
0001
,  // measure 77
0010
0001
1000
0001
0100
0000
0100
0010
,  // measure 78
1000
0010
0100
0001
0010
0100
1000
1000
,  // measure 79
0010
0100
0001
0001
1000
0100
0010
0100
,  // measure 80
0100
1000
0010
0100
0100
0010
2010
0000
,  // measure 81
0000
0000
0200
0300
,  // measure 82
0000
0000
0000
0000
,  // measure 83
0000
0000
0000
0000
0000
0000
0000
0000
0000
0000
3000
0000
0001
0000
0000
0001
,  // measure 84
0000
0000
0001
0000
1000
0000
0000
0010
0000
0000
0010
0000
0100
0000
0000
0100
,  // measure 85
0000
0000
0100
0000
0001
0000
0000
0001
0000
0000
0001
0000
1000
0000
0000
1000
,  // measure 86
0000
0000
1000
0000
0001
0000
0000
0010
0000
0000
0010
0000
0100
0000
0000
0100
,  // measure 87
0000
0000
0100
0000
1000
0000
0000
1000
0000
0000
1000
0000
0001
0000
0000
0001
,  // measure 88
0000
0000
0001
0000
0100
0000
0000
0010
0000
0000
0010
0000
1000
0000
0001
0000
,  // measure 89
1000
0001
0010
0100
0010
0100
1000
0100
,  // measure 90
1000
0001
0100
0001
0100
0010
1000
0010
,  // measure 91
1000
0010
0100
0010
0100
0001
1000
0001
,  // measure 92
1000
0100
0010
0100
0010
0001
1000
1000
,  // measure 93
0010
0010
0001
0001
0010
0010
1000
1000
,  // measure 94
0100
0100
0010
0010
0001
0001
0100
0100
,  // measure 95
1000
1000
0100
0100
0001
0001
1001
0000
,  // measure 96
0000
0000
1000
0100
0010
0100
1000
0010
,  // measure 97
0100
0001
1000
0010
0100
0010
1000
0100
,  // measure 98
0010
0001
1000
0100
0010
0100
1000
0010
,  // measure 99
0100
0001
1000
0010
0100
0010
1000
0100
,  // measure 100
0110
0000
0001
0100
1000
0100
0001
0010
,  // measure 101
0100
1000
0001
0010
1000
0010
0001
0100
,  // measure 102
0010
1000
0100
1000
0010
0100
0001
0010
,  // measure 103
0001
0100
0001
0010
0100
0010
0002
0000
,  // measure 104
1003
0000
0001
0000
1000
0000
0001
0000
0000
0010
0000
0000
0100
0000
0000
0010
0000
0000
0001
0000
0000
0100
0000
0000
,  // measure 105
0010
1000
0001
0100
0010
0100
0001
0010
,  // measure 106
0100
1000
0001
0010
0100
0010
0001
0100
,  // measure 107
0010
1000
0001
0100
0010
0100
0001
0010
,  // measure 108
0110
0000
1000
0010
0001
0010
1000
0100
,  // measure 109
0010
0001
1000
0100
0001
0100
1000
0010
,  // measure 110
0100
0010
0110
1001
0110
1001
0001
1000
,  // measure 111
1000
0010
1000
1000
0200
0000
0310
0000
,  // measure 112
0100
0000
0100
0000
0000
1000
0010
0000
,  // measure 113
0000
0010
0100
0100
0000
0001
0000
0000
,  // measure 114
1000
0000
0001
0010
0010
0001
0001
0100
,  // measure 115
1000
0100
0001
0100
0010
1000
0000
0000
,  // measure 116
0001
0000
0001
0000
0000
1000
0100
0000
,  // measure 117
0000
0100
0010
0010
0000
0001
0000
0000
,  // measure 118
1000
0000
0001
0100
0100
0001
0001
0010
,  // measure 119
0100
0010
0001
0000
0100
0100
1010
0000
,  // measure 120
1000
0000
1000
0000
0000
0001
0001
0100
,  // measure 121
1000
0100
0001
0100
0010
1000
0000
0100
,  // measure 122
1000
0010
1000
1000
0000
0001
0001
0010
,  // measure 123
0100
1000
0001
0001
0200
0000
0300
0000
,  // measure 124
0001
0001
0010
0010
0000
0100
1000
0010
,  // measure 125
0100
0010
1000
1000
0000
0001
1000
0100
,  // measure 126
0010
0001
1000
0000
1000
0001
2000
0000
,  // measure 127
3001
0100
0010
0000
1000
0100
0010
0100
,  // measure 128
1000
0000
0001
0100
0010
1000
0100
0010
,  // measure 129
0001
0000
2000
0000
3001
0100
1000
0100
,  // measure 130
0001
0000
0010
0100
1000
0010
0100
0001
,  // measure 131
1000
0000
0110
0000
0001
0100
0010
0100
,  // measure 132
0001
0000
1000
0100
1000
0010
1000
0001
,  // measure 133
1000
0000
0200
0000
1300
0010
0001
0010
,  // measure 134
1000
0000
0010
0100
0001
0010
0001
0100
,  // measure 135
0010
1000
1000
0000
0001
0010
0100
0010
,  // measure 136
0001
0000
1000
0010
0100
0001
0010
0100
,  // measure 137
1000
0000
0002
0000
1003
0010
0001
0010
,  // measure 138
1000
0000
0100
0010
0001
0100
0010
1000
,  // measure 139
0001
0000
0110
0000
1000
0010
0100
0010
,  // measure 140
1000
0000
0001
0010
0001
0100
0001
1000
,  // measure 141
0001
0000
0020
0000
0031
0001
0010
0100
,  // measure 142
1000
1000
0001
0100
0010
0100
0100
0001
,  // measure 143
0010
0100
0100
0010
0022
0000
0033
0000
;

//---------------dance-single - ----------------
#NOTES:
     dance-single:
     :
     Easy:
     4:
     0.345568,0.613276,0.401029,0.093858,0.000000,567.000000,473.000000,94.000000,22.000000,0.000000,0.000000,0.345568,0.613276,0.401029,0.093858,0.000000,567.000000,473.000000,94.000000,22.000000,0.000000,0.000000:
// measure 0
0000
0000
0000
0000
,  // measure 1
1001
0001
0001
0001
,  // measure 2
0100
0100
0100
0100
,  // measure 3
0010
0010
0010
0010
,  // measure 4
1000
1000
1000
1000
,  // measure 5
0011
0010
0100
0010
,  // measure 6
0100
1000
0100
1000
,  // measure 7
0002
0010
0010
0010
,  // measure 8
1000
1000
1003
0000
,  // measure 9
1001
0000
0001
0000
,  // measure 10
0010
0100
0010
0000
,  // measure 11
0001
0000
1000
0000
,  // measure 12
0010
0100
0010
0000
,  // measure 13
1000
0000
0001
0000
,  // measure 14
1000
0010
1000
0000
,  // measure 15
0001
0000
1000
0001
,  // measure 16
0100
0010
1000
0000
,  // measure 17
2002
0000
0000
0000
,  // measure 18
0000
0000
0000
0000
,  // measure 19
0000
0000
3003
0000
,  // measure 20
0001
0000
0100
0000
,  // measure 21
1000
0000
0100
0000
,  // measure 22
0001
0000
0010
0000
,  // measure 23
1000
0000
0010
0000
,  // measure 24
0001
0000
1000
0000
,  // measure 25
0001
1000
0001
1000
,  // measure 26
0100
0010
0100
0010
,  // measure 27
0001
1000
0001
1000
,  // measure 28
0010
0100
0010
0100
,  // measure 29
0001
1000
0001
1000
0001
1000
0001
1000
,  // measure 30
0001
1000
0001
1000
0001
1000
0001
1000
,  // measure 31
0002
0000
0000
0000
,  // measure 32
0013
0000
0000
0000
,  // measure 33
1001
0001
0100
0010
,  // measure 34
1000
0100
0010
0001
,  // measure 35
1000
0001
0010
0100
,  // measure 36
1000
0010
0100
0001
,  // measure 37
0110
1000
0100
1000
,  // measure 38
0010
0100
0001
0010
,  // measure 39
0001
0100
0010
1000
,  // measure 40
0002
0000
0203
0300
,  // measure 41
0001
0001
0100
0100
,  // measure 42
0001
0001
0010
0010
,  // measure 43
0100
0100
1000
1000
,  // measure 44
0010
0010
1000
1000
,  // measure 45
0100
0100
0010
0010
,  // measure 46
0001
0001
1000
1000
,  // measure 47
0010
0010
0100
0100
,  // measure 48
0002
0000
0000
0003
,  // measure 49
1001
0000
0001
0100
,  // measure 50
1000
0100
0001
0000
,  // measure 51
0010
0000
0100
1000
,  // measure 52
0010
1000
0100
0000
,  // measure 53
1000
0000
0001
0010
,  // measure 54
0100
0010
0001
0000
,  // measure 55
1000
0000
0010
0100
,  // measure 56
0001
0100
0010
0000
,  // measure 57
1010
1000
0100
0010
,  // measure 58
0001
1000
0001
0000
,  // measure 59
1000
0001
1000
0010
,  // measure 60
0100
0001
1000
0100
,  // measure 61
0000
0010
0001
0100
,  // measure 62
0001
0010
0001
0000
,  // measure 63
1000
1000
0001
0001
,  // measure 64
0100
0100
0110
2000
,  // measure 65
0000
0100
0000
0000
3001
0000
0002
0000
,  // measure 66
0000
0010
0000
0000
1003
0000
2000
0000
,  // measure 67
0000
0100
0000
0000
3001
0000
0002
0000
,  // measure 68
0000
0010
0000
0000
0103
0000
0020
0000
,  // measure 69
0000
1000
0000
0000
0130
0000
0200
0000
,  // measure 70
0000
0001
0000
0000
0310
0000
0020
0000
,  // measure 71
0000
1000
0000
0000
0130
0000
0200
0000
,  // measure 72
0000
0001
0300
0000
0000
0000
1001
0000
,  // measure 73
0001
0010
0100
0010
,  // measure 74
0001
1000
0001
1000
,  // measure 75
0010
0100
0010
1000
,  // measure 76
0001
1000
1001
1000
,  // measure 77
0100
0010
0100
1000
,  // measure 78
0001
1000
0001
0100
,  // measure 79
0000
0010
0000
1000
,  // measure 80
0000
0100
0010
0022
,  // measure 81
0000
0000
0000
0000
,  // measure 82
0000
0000
0000
0000
,  // measure 83
0000
0033
0000
0001
,  // measure 84
0000
0010
0000
1000
,  // measure 85
0000
0010
0000
0001
,  // measure 86
0000
0100
0000
1000
,  // measure 87
0000
0100
0000
0001
,  // measure 88
0000
1000
0000
0001
,  // measure 89
1000
0001
1000
0010
,  // measure 90
0100
0010
0100
0001
,  // measure 91
1000
0001
1000
0100
,  // measure 92
0010
0000
0100
0000
0010
0000
0001
1000
,  // measure 93
0001
1000
0001
1000
0001
1000
0001
1000
,  // measure 94
0001
1000
0001
1000
0001
1000
0002
0000
,  // measure 95
0000
0000
0000
0103
,  // measure 96
0000
1010
1010
0110
,  // measure 97
0110
0101
0101
1001
,  // measure 98
1001
1100
1100
0110
,  // measure 99
0110
0011
0011
1001
,  // measure 100
0110
1001
0101
0110
,  // measure 101
1010
1001
1100
0110
,  // measure 102
0011
1001
1010
0110
,  // measure 103
0101
0000
0001
1000
0001
1000
0002
0000
,  // measure 104
0003
0000
0000
0011
0000
0011
0000
0110
,  // measure 105
0000
0110
0000
1100
0000
1100
0000
1001
,  // measure 106
0000
1001
0000
0101
0000
0101
0000
0110
,  // measure 107
0000
0110
0000
1010
0000
1010
0000
1001
,  // measure 108
0000
0000
1000
1000
0000
1100
0000
0110
,  // measure 109
0000
0011
0000
1001
0000
0101
0000
0110
,  // measure 110
0000
0000
1001
1001
1001
1001
0020
0000
,  // measure 111
0000
0000
0030
1001
,  // measure 112
0000
1000
0010
0001
,  // measure 113
0010
1000
0000
0100
,  // measure 114
0000
0010
0001
0100
,  // measure 115
0001
0010
0000
0001
,  // measure 116
0000
1000
0100
0010
,  // measure 117
0100
1000
0000
0001
,  // measure 118
0000
0100
0010
1000
,  // measure 119
0010
0100
0000
0101
,  // measure 120
0001
0010
0100
1000
,  // measure 121
0001
1000
0000
0001
,  // measure 122
1000
0001
0100
0010
,  // measure 123
1000
0001
0010
0000
,  // measure 124
0100
1000
0010
1000
,  // measure 125
0100
1000
0000
0001
,  // measure 126
0001
1000
1000
0010
,  // measure 127
0010
0000
1001
0000
1100
0000
0000
1100
,  // measure 128
0000
0000
0011
0000
0101
0000
0000
0101
,  // measure 129
0000
0000
1001
0000
1010
0000
0000
1010
,  // measure 130
0000
0000
0101
0000
0011
0000
0000
0011
,  // measure 131
0000
0000
0110
0000
1001
0000
0000
1001
,  // measure 132
0000
0000
0011
0000
0110
0000
0000
0110
,  // measure 133
0000
0000
1100
0000
1001
0000
0000
1001
,  // measure 134
0000
0000
0101
0000
0110
0000
0000
0110
,  // measure 135
0000
0001
0001
0000
1001
0000
1000
0000
,  // measure 136
0010
0100
0010
1000
,  // measure 137
0001
1000
0001
0010
,  // measure 138
0100
0010
0001
1000
,  // measure 139
0001
1001
0001
0100
,  // measure 140
0010
0100
0001
1000
,  // measure 141
0001
1000
0100
0000
,  // measure 142
0010
0000
0001
0000
,  // measure 143
0100
0010
2020
3030
;
