#VERSION:0.83;
#TITLE:B4U glorious style;
#SUBTITLE:;
#ARTIST:NAOKI;
#TITLETRANSLIT:;
#SUBTITLETRANSLIT:;
#ARTISTTRANSLIT:;
#GENRE:;
#CREDIT:;
#MUSIC:[Double Trouble] - B4U glorious style.ogg;
#BANNER:B4U glorious style.png;
#BACKGROUND:B4U glorious style-bg.png;
#CDTITLE:cdtitle.png;
#SAMPLESTART:13.951;
#SAMPLELENGTH:15.000;
#SELECTABLE:YES;
#OFFSET:0.000;
#BPMS:0.000=152.664
,4.000=155.092
;
#STOPS:;
#SPEEDS:0.000=1.000=0.000=0;
#SCROLLS:0.000=1.000;
#TICKCOUNTS:0.000=4;
#TIMESIGNATURES:0.000=4=4;
#LABELS:0.000=Song Start;
#COMBOS:0.000=1;
#DISPLAYBPM:155.000;
#ORIGIN:;
#PREVIEWVID:;
#JACKET:B4U glorious style-jacket.png;
#CDIMAGE:;
#DISCIMAGE:;
#BGCHANGES:;
#FGCHANGES:;

//--------------- dance-single - ----------------
#NOTEDATA:;
#STEPSTYPE:dance-single;
#DESCRIPTION:;
#DIFFICULTY:Easy;
#METER:4;
#RADARVALUES:0.32371,0.378592,0.148937,0.106384,0,426,398,28,20,0,0,0,0,0,0.32371,0.378592,0.148937,0.106384,0,426,398,28,20,0,0,0,0,0;
#DISPLAYBPM:155.000;
#CHARTNAME:;
#CHARTSTYLE:;
#CREDIT:TonyAkita;
#NOTES:
0000
0000
0000
0000
,
0000
0000
0000
0000
,
0000
0000
0000
0000
,
0001
0001
1000
1000
,
0001
0001
1000
1000
,
0001
0100
0001
0010
,
0001
0100
0001
0010
,
0001
1000
0100
1000
,
0010
1000
0100
1000
,
2002
0000
3003
0000
,
0001
1000
0010
0100
,
0220
0000
0330
0000
,
1000
0100
0010
0001
,
2002
0000
3003
0000
,
0220
0000
0330
0000
,
2002
0000
3003
0000
,
0220
0000
0330
0000
,
0001
0100
0001
0010
,
0100
0000
1000
1000
1000
0000
0000
0000
,
0010
0100
0001
0010
,
0001
0000
0010
0010
0010
0000
0000
0000
,
0100
1000
0001
0100
,
0010
0000
1000
1000
1000
0000
0000
0000
,
0100
1000
0001
0010
,
0100
0000
1000
1000
1000
0000
0000
0000
,
0020
0000
0000
0030
,
0100
0001
1000
0100
,
1000
0001
0100
0001
,
1000
0010
1000
0001
,
0010
0001
1000
0010
,
1000
0001
1000
0100
,
1000
0001
0100
0001
,
1000
0001
0100
0001
,
1000
0100
1000
0001
,
1000
0001
0100
0010
,
1000
0000
0100
0100
0100
0000
1000
0000
,
0001
0010
0100
1000
,
0010
0000
0100
0100
0100
0000
0001
0000
,
0010
0001
1000
0100
,
1000
0000
0001
0001
0001
0000
0010
0000
,
0100
1000
0001
0010
,
0100
0000
1000
1000
1000
0000
0001
0000
,
0100
0001
1000
0000
,
0100
1000
0001
0000
,
0010
0001
0100
0010
,
1000
0001
0100
0000
,
0110
0000
0001
0100
,
1000
0100
0001
0000
,
1001
0000
0001
0100
,
0001
0010
0100
0000
,
1001
0010
0010
0000
,
1001
1000
0001
0100
,
0110
0010
0010
0000
,
0110
1000
0100
0010
,
1001
0100
0100
0000
,
1001
0001
1000
0100
,
0110
0010
0010
0000
,
1001
0001
0010
0001
,
2000
0000
3000
0000
,
0002
0000
0003
0000
,
1000
0000
0001
0000
,
1000
0001
1000
0001
,
1000
0100
1000
0001
,
0010
0001
1000
0010
,
0001
0010
1000
0100
,
0001
0100
0010
0001
,
1000
1000
0010
0010
,
1000
0001
0100
0010
,
1000
0100
0010
0001
,
0100
1000
0100
0001
,
1000
0100
1000
0001
,
0100
0001
0100
1000
,
0100
0001
0010
1000
,
0010
0001
1000
0001
,
0200
0000
0000
0300
,
0001
1000
0010
0010
,
0100
0000
0001
0000
,
1000
0100
0010
0001
,
0100
0000
0010
0000
,
1000
0001
1000
0010
,
1000
0000
1000
0000
,
0100
1000
0001
0010
,
0001
0001
0001
0000
,
1001
0001
1000
0000
,
0100
1000
0001
0100
,
1001
1000
0001
0000
,
1000
0010
1000
0100
,
1001
0001
0001
0000
,
0001
0010
1000
0010
,
1001
1000
1000
0000
,
1000
0001
0100
0001
,
0022
0000
0000
0000
,
0000
0000
0033
0000
,
0002
0000
0000
0000
,
2000
0000
0000
3003
,
0001
0100
0001
0010
,
0001
1000
0010
0100
,
0010
1000
0001
0100
,
0001
0010
0100
1000
,
0010
0010
0010
0010
,
0010
0010
0010
0010
,
1000
0001
0100
0000
,
0001
0010
0100
0010
,
0001
0000
1001
0000
,
1000
0000
1001
0000
,
0001
1000
0001
1000
,
0001
1000
0001
1000
,
0100
1000
0001
0100
,
0001
0000
1000
0000
0001
0001
0000
0000
,
0110
1000
0001
1000
,
0010
0010
0010
0000
0100
0000
0001
0000
,
1001
1000
0010
0100
,
0001
0001
0001
0000
1000
0000
0010
0000
,
1001
0001
0100
0010
,
1000
1000
1000
0000
0100
0000
1000
0000
,
1001
0001
0100
0001
,
0010
0010
0010
0000
0100
0000
1000
0000
,
0001
0000
0000
0010
0000
0010
0000
0000
,
0001
0000
1000
0000
0000
1001
0000
0000
;

//--------------- dance-single - ----------------
#NOTEDATA:;
#STEPSTYPE:dance-single;
#DESCRIPTION:;
#DIFFICULTY:Medium;
#METER:6;
#RADARVALUES:0.482525,0.50479,0.287236,0.053192,0.074468,635,581,54,10,0,0,0,0,0,0.482525,0.50479,0.287236,0.053192,0.074468,635,581,54,10,0,0,0,0,0;
#DISPLAYBPM:155.000;
#CHARTNAME:;
#CHARTSTYLE:;
#CREDIT:TonyAkita;
#NOTES:
0000
0000
0000
0000
,
0000
0000
0000
0000
,
0000
0000
0000
0000
0000
0000
0000
1000
,
0000
0001
0100
0000
0010
1000
0000
0001
,
0000
0010
0100
0000
1000
0001
0000
0000
,
0010
0001
0100
0000
0010
1000
0000
0001
,
0000
1000
0100
0000
0010
0001
0000
1000
,
0000
0010
0100
0000
0001
1000
0000
0001
,
0000
0010
0100
0000
1000
0001
1000
0001
,
0000
0000
0100
0000
0000
0010
0000
0000
1000
0000
0000
0100
0000
0000
0010
0000
,
0001
1000
0100
0000
,
0000
0000
0010
0000
0000
0001
0000
0000
1000
0000
0000
0100
0000
0000
1000
0000
,
0001
0100
0010
1000
,
0001
0000
0010
0000
0000
0100
0000
0000
1000
0000
0000
0001
0000
0000
1000
0000
,
0000
0000
0001
0000
0000
0010
0000
0000
1000
0000
0000
0010
0000
0000
0001
0000
,
0000
0000
0100
0000
0000
0010
0000
0000
1000
0000
0000
0001
0000
0000
1000
0000
,
0000
0000
0001
0000
0000
0100
0000
0000
1000
0000
0000
0100
0000
0000
0010
0000
,
1000
0010
0000
1000
0001
0000
0100
0001
,
0000
1000
0100
0010
0000
0100
0000
0010
,
0001
0100
0000
0010
0100
0000
0010
1000
,
0000
0001
0010
0000
0100
1000
0010
0000
,
1000
0001
0000
1000
0100
0000
0010
0001
,
0000
0010
0100
1000
0000
0010
0000
0100
,
0001
0010
0000
0100
0010
0000
0100
1000
,
0000
0001
0100
0000
0010
1000
0010
0000
,
2000
0000
0000
3000
,
0000
0001
0000
1000
0000
0100
0000
1000
,
0000
0001
0000
0010
0000
0100
0000
1000
,
0000
0100
0000
0001
0000
0100
0000
1000
,
0000
0100
0000
0010
0000
0001
0100
0010
,
0000
1000
0000
0010
0000
1000
0000
0001
,
0000
0010
0000
0100
0000
1000
0000
0001
,
0000
0100
0000
1000
0000
0100
0000
0010
,
0110
0000
1001
0000
0001
1000
0001
0000
,
1000
0010
0000
1000
0001
0000
0100
0001
,
0000
1000
0001
0100
0000
0001
0000
1000
,
0100
0001
0100
0010
0000
0000
0001
0100
,
0000
0010
1000
0000
0001
1000
0001
0000
,
1000
0010
0000
0100
0001
0000
0100
1000
,
0000
0100
0001
0010
0000
0001
0000
1000
,
0001
0100
0000
1000
0100
0000
0001
0100
,
0000
1000
0100
0000
0001
1000
0001
0000
,
0011
0000
1000
0000
0001
1000
0010
0000
,
1010
0000
0001
0000
0100
0001
1000
0000
,
1001
0000
1000
0000
0100
0010
0001
0000
,
0011
0000
0001
0000
1000
0001
0100
0000
,
0101
1001
1010
1000
,
0001
1000
0100
0000
0010
0001
1000
0000
,
1001
1010
0101
0001
,
1000
0001
0100
0000
0001
1000
0100
0000
,
1001
1000
0001
0010
,
0001
0010
0100
1000
0010
0000
0100
0000
,
0101
1000
0001
0010
,
0001
0010
0100
1000
0010
0100
0001
0000
,
0101
1000
0010
0100
,
0001
0010
0100
1000
0010
0000
0100
0000
,
0101
1000
0100
0010
,
0001
1000
0010
0100
0001
1000
0100
0000
,
0020
0000
0001
0000
0000
0001
0000
0000
0001
0000
0000
0001
0000
0000
0031
0000
,
0002
0000
1000
0000
0000
1000
0000
0000
1000
0000
0000
1000
0000
0000
1000
0003
,
2000
0000
0010
0000
0000
0010
0000
0000
0010
0000
0000
0010
0000
0000
3010
0000
,
0020
0000
0100
0000
0000
0100
0000
0000
0100
0000
0000
0100
0000
0000
0130
0000
,
0100
0000
0001
0000
0000
1000
0000
0000
0010
0000
0000
1000
0000
0000
0010
0000
,
0100
0000
0001
0000
0000
0010
0000
0000
0100
0000
0000
1000
0000
0000
0001
0000
,
1000
0000
0100
0000
0000
0001
0000
0000
0100
0000
0000
1000
0000
0000
0100
0000
,
0010
0000
0001
0000
0000
0100
0000
0000
0010
0000
0000
1000
0000
0000
0001
0000
,
0010
0100
0000
1100
0000
0101
0000
1000
,
0100
0010
0000
0011
0000
1001
0000
0001
,
1000
0100
0000
1001
0000
0110
0000
0001
,
0100
1000
0000
0101
0000
1010
0000
1000
,
0001
0100
0000
0101
0000
1100
0000
0001
,
0010
0100
0000
1100
0000
1001
0000
1000
,
0001
0100
0000
1001
0000
0110
0000
1000
,
0100
0001
0000
1100
0000
0011
0000
0001
,
0200
0000
0000
0300
,
0010
1000
0001
1000
0100
0010
0001
0000
,
0010
0100
1000
0001
,
0100
0001
1000
0100
1000
0001
0100
0000
,
0001
1000
0100
1000
,
0001
0100
0010
1000
0010
0100
0001
0000
,
0010
0100
1000
0001
,
0010
0001
1000
0010
1000
0001
0010
0000
,
0110
0000
1001
0000
1000
0001
1000
0000
,
1001
1000
0100
0010
,
0100
1000
0001
0100
0010
0000
1000
0000
,
1100
0001
1000
0001
,
0010
0100
1000
0001
0100
0001
1000
0000
,
1001
0001
0100
0010
,
1000
0100
0010
0100
1000
0000
0001
0000
,
0101
1000
0001
1000
,
0010
0100
0001
0010
0100
1000
0010
0000
,
0200
0000
0000
0000
,
0000
0000
0000
0000
,
0002
0000
0300
0000
,
0200
0000
0000
0303
,
0001
0010
0000
0001
0100
0000
0010
1000
,
0000
0001
0100
0001
0000
1000
0000
0001
,
1000
0100
0000
0001
0100
0000
0010
1000
,
0000
0010
0001
0000
1000
0100
0010
0000
,
0002
1000
0000
0100
0000
1000
0000
0010
,
0000
1000
0000
0100
0000
1000
1000
1003
,
1000
1001
0000
0000
0001
0000
1000
0000
,
0001
0010
0100
0010
0001
0100
0010
0000
,
1001
0100
1001
0010
,
1001
0100
1001
0010
,
1001
1100
1001
0001
,
1001
0101
1001
1000
,
0001
1000
0001
1000
0001
1000
0001
1000
,
0001
1000
0001
1000
0001
0000
0000
0000
,
1001
0001
0100
0010
,
1000
0100
0010
0100
1000
0001
0100
0000
,
1001
1000
0001
1000
,
0100
0010
0001
1000
0010
0100
0001
0000
,
1001
0001
1000
0010
,
1000
0001
0100
0001
0010
0100
1000
0000
,
1001
0001
0100
0001
,
1000
0100
1000
0001
0100
0010
1000
0000
,
0001
1000
0000
0001
0100
0010
1000
0000
,
0001
1000
0010
0100
0000
1001
0000
0000
;

//--------------- dance-single - TonyAkita ----------------
#NOTEDATA:;
#STEPSTYPE:dance-single;
#DESCRIPTION:TonyAkita;
#DIFFICULTY:Hard;
#METER:9;
#RADARVALUES:0.676295,0.630987,0.351066,0.132979,0.393619,890,824,66,25,0,0,0,0,0,0.676295,0.630987,0.351066,0.132979,0.393619,890,824,66,25,0,0,0,0,0;
#DISPLAYBPM:155.000;
#CHARTNAME:TonyAkita;
#CHARTSTYLE:;
#CREDIT:TonyAkita;
#NOTES:
0000
0000
0000
0000
,
0000
0000
0000
0000
,
0000
0000
0000
0000
0000
0000
0000
0010
,
1000
0010
1000
0001
0010
0100
0000
0010
,
0001
0010
0001
1000
0010
0100
0000
0000
,
0001
0100
0001
1000
0100
0001
0000
0100
,
1000
0100
1000
0001
0010
1000
0000
0010
,
0001
0010
0001
1000
0010
0001
0000
0010
,
1000
0010
1000
0001
0100
1000
0000
0000
,
0200
0000
0001
0000
0000
1000
0000
0000
0001
0000
0000
1000
0000
0000
0301
0000
,
1000
0000
1000
0010
0000
0000
1000
0000
0000
1000
0001
0000
0010
0000
0100
0000
,
0020
0000
0001
0000
0000
0100
0000
0000
0001
0000
0000
0100
0000
0000
0031
0000
,
1000
0000
1000
0100
0000
0000
1000
0000
0000
1000
0001
0000
1000
0000
0001
0000
,
0011
0000
0000
1001
0000
0000
0001
0000
0000
0010
0001
0000
1000
0000
0010
0000
,
1010
0000
0000
1001
0000
0000
1000
0000
0000
0010
1000
0000
0001
0000
0100
0000
,
0101
0000
0000
1001
0000
0000
0001
0000
0000
0100
0001
0000
1000
0000
0100
0000
,
1100
0000
0000
1001
0000
0000
1000
0000
0000
0100
1000
0000
0001
0000
1000
0000
,
0001
0000
0010
0100
0000
0000
1000
0000
0010
0100
0000
0000
0001
0000
1000
0100
,
0000
0010
0001
0100
0010
1000
0100
0010
,
0001
0000
0100
0010
0000
0000
1000
0000
0100
0010
0000
0000
0001
0000
0010
0100
,
0000
0000
1000
0000
0010
0100
0000
0000
0001
0000
0010
0000
0100
1000
0100
0000
,
0010
0000
0001
1000
0000
0000
0100
0000
1000
0001
0000
0000
0010
0000
0001
0100
,
0000
0010
1000
0001
0010
0100
1000
0010
,
0100
0000
0001
1000
0000
0000
0010
0000
1000
0001
0000
0000
0100
0000
0001
0000
,
1000
0000
0100
0000
0010
0000
0001
0000
0100
0000
0010
0000
1000
0010
1000
0000
,
0020
0000
0000
1000
0000
0000
1030
0000
0001
0000
1000
0000
0001
0000
0100
0000
,
0000
0101
0000
1001
0000
1000
0100
0001
,
0000
1100
0000
1001
0000
0001
0010
1000
,
0000
0011
0000
1001
0000
1000
0010
0001
,
0000
1010
0000
0001
0010
0100
1000
0010
,
0000
1010
0000
1100
0000
0010
0001
0100
,
0000
1010
0000
0101
0000
0010
1000
0100
,
0000
0011
0000
1100
0000
0010
0001
0100
,
0010
1000
0010
1000
0001
1000
0001
1000
,
0001
0000
0010
0100
0000
0000
1000
0000
0010
0100
0000
0000
0001
0000
1000
0100
,
0000
0010
0001
0100
0010
1000
0100
0010
,
0001
0000
0100
0010
0000
0000
1000
0000
0100
0010
0000
0000
0001
0000
0010
0100
,
0000
0000
1000
0000
0010
0100
0000
0000
0001
0000
0010
0000
0100
1000
0100
0000
,
0010
0000
0001
1000
0000
0000
0100
0000
1000
0001
0000
0000
0010
0000
0001
0100
,
0000
0010
1000
0100
0010
0001
1000
0010
,
0100
0000
0001
1000
0000
0000
0010
0000
1000
0001
0000
0000
0100
0000
0001
0000
,
0010
0000
0100
0000
1000
0000
0010
0000
0100
0000
0001
0000
0010
0001
0010
0000
,
0001
0000
1000
0000
0010
0000
0100
0000
0001
0000
1000
0010
0000
0000
0000
0000
,
1000
0000
0001
0000
0010
0000
0100
1000
0000
0100
1000
0000
0010
0000
0000
0000
,
1000
0000
0001
0000
0010
0000
0100
0000
1000
0000
0001
0010
0000
0000
0000
0000
,
0001
0000
1000
0000
0010
0000
0100
0001
0000
0100
0001
0000
0010
0000
0001
0000
,
1000
0000
0000
1000
0000
0000
0010
1000
0010
0000
0000
0100
0000
0000
0100
0000
,
0001
0000
0000
0001
0000
0000
0010
0001
0010
0000
0000
0100
0000
0000
0100
0000
,
0001
0100
1000
0100
0010
0001
0010
1000
,
0010
0001
0010
0001
1000
0001
1000
0000
,
0002
0000
0000
0010
0000
0013
0000
0000
0001
0000
1000
0000
0100
0000
0010
0000
,
0011
0000
0000
0000
0101
0000
0000
0000
0011
0000
0000
0001
1000
0000
0010
0000
,
0200
0000
0000
0001
0000
0301
0000
0000
0001
0000
1000
0000
0010
0000
0100
0000
,
0001
0100
0001
0000
0100
0000
0001
0000
1000
0000
0001
0000
0010
0000
0100
0000
,
2000
0000
0000
0010
0000
3010
0000
0000
1000
0000
0001
0000
0100
0000
0010
0000
,
1010
0000
0000
0000
1100
0000
0000
0000
1010
0000
0000
1000
0001
0000
0010
0000
,
0200
0000
0000
1000
0000
1300
0000
0000
1000
0000
0001
0000
0100
0000
0010
0000
,
1000
0010
1000
0000
0001
0000
1000
0000
0100
0000
0010
0000
0001
0000
0010
0000
,
0200
0000
1000
0000
0000
1000
0000
0000
2300
0000
0000
0010
0000
0000
3010
0000
,
0200
0000
0001
0000
0000
0001
0000
0000
0302
0000
0000
0010
0000
0000
0013
0000
,
0001
1001
1000
1010
,
0001
0000
0000
0000
0011
0000
0000
0000
0001
1000
0000
0001
1000
0000
0010
0000
,
1000
0000
0001
0000
0100
0010
0000
0000
1000
0000
0001
0010
0000
0000
0100
0000
,
1000
0000
0001
0000
0100
0010
0000
0000
1000
0000
0001
0010
0000
0000
0100
0000
,
1000
0000
0001
0000
0010
0100
0000
0000
1000
0000
0001
0100
0000
0000
0010
0000
,
1000
0000
0001
0000
0010
0100
0000
0000
1000
0000
0001
0000
1000
0000
0010
0000
,
1010
0000
0000
1001
0000
0000
1000
0000
0000
0010
1000
0000
0001
0000
0100
0000
,
0101
0000
0000
1001
0000
0000
0001
0000
0000
0100
0001
0000
1000
0000
0100
0000
,
1100
0000
0000
1001
0000
0000
1000
0000
0000
0100
1000
0000
0001
0000
0010
0000
,
0011
0000
0000
1001
0000
0000
0001
0000
0000
0010
0001
0000
1000
0000
0010
0000
,
1010
0000
0000
0110
0000
0000
0001
0000
0000
0100
0010
0000
1000
0000
0001
0000
,
0011
0000
0000
0110
0000
0000
1000
0000
0000
0100
0010
0000
0001
0000
1000
0000
,
1010
0000
0000
1001
0000
0000
1000
0000
0000
0001
1000
0000
0001
0000
0010
0000
,
0011
0000
0000
1001
0000
0000
0001
0000
0000
1000
0001
0000
1000
0000
0010
0000
,
0020
0000
0000
1030
0000
1000
0001
1000
0000
0000
0002
0000
0100
0000
0103
0000
,
0100
0001
0100
0010
0100
0001
1000
0000
,
0010
1000
0010
0001
0010
1000
0001
0000
,
1000
0000
0100
0000
0010
0000
0001
0000
1000
0000
0010
0100
0000
0000
0000
0000
,
0001
0000
0010
0000
0100
0000
1000
0000
0001
0000
0100
0010
0000
0000
1000
0000
,
0001
0000
0000
0001
0000
0000
0010
0100
0010
0000
0000
0010
0000
0000
0001
0000
,
1000
0000
0000
1000
0000
0000
0010
0100
0010
0000
0000
0010
0000
0000
0010
0000
,
1000
0010
0001
0010
1000
0100
0001
0100
,
1000
0100
1000
0100
1000
0001
1000
0000
,
0002
0000
0000
0010
0000
0013
0000
0000
0001
0000
1000
0000
0100
0000
0010
0000
,
0011
0000
0000
0000
0101
0000
0000
0000
0011
0000
0000
0001
1000
0000
0010
0000
,
0200
0000
0000
0001
0000
0301
0000
0000
0001
0000
1000
0000
0010
0000
0100
0000
,
0001
0100
0001
0000
0100
0000
0001
0000
1000
0000
0100
0000
0010
0000
0001
0000
,
2000
0000
0000
0010
0000
3010
0000
0000
1000
0000
0001
0000
0100
0000
0010
0000
,
1010
0000
0000
0000
1100
0000
0000
0000
1010
0000
0000
1000
0001
0000
0010
0000
,
0200
0000
0000
1000
0000
1300
0000
0000
1000
0000
0001
0000
0100
0000
0010
0000
,
1000
0010
1000
0000
0001
0000
1000
0000
0100
0000
0010
0000
0001
0000
0010
0000
,
0200
0000
0000
0001
0000
0000
0301
0000
0000
0000
0100
0000
1000
0000
0100
0000
,
2000
0000
0000
0010
0000
0000
3010
0000
0000
0000
1000
0000
0100
0000
1000
0000
,
0200
0000
0000
0001
0000
0000
0301
0000
0000
0000
0100
0000
1000
0000
0100
0000
,
2000
0000
0000
0010
0000
0000
3010
0000
0000
0000
1000
0000
0001
0000
1000
0000
,
0001
0000
0010
0100
0000
0000
1000
0000
0010
0100
0000
0000
0001
0000
1000
0100
,
0000
0010
0001
1000
0010
0100
0001
0010
,
0100
0000
1000
0001
0000
0000
0010
0000
0001
1000
0000
0000
0100
0000
1000
0000
,
0010
0100
0001
0010
0001
1000
0100
0010
,
0001
0011
0000
1001
0000
0001
0100
1000
,
0000
0101
0000
1001
0000
1000
0100
0001
,
0100
1000
0000
0001
0000
1000
0000
0001
,
0010
0100
1000
0001
0100
0010
1000
0001
,
1000
0000
0000
0000
0100
0000
0000
0000
0020
0000
0000
0001
0000
0000
0031
0000
,
0100
0000
0000
0000
0010
0000
0000
0000
2000
0000
0000
0010
0000
0000
3010
0000
,
0100
0000
0000
0001
0100
0000
0000
0010
1000
0000
0000
0001
0100
0000
0000
0001
,
0010
0000
0000
0100
1000
0000
0000
0001
0010
0000
0000
0100
1000
0000
0000
0010
,
1000
0001
1000
0001
1000
0001
1000
0001
,
0010
0100
0010
0100
0020
0200
0000
0330
,
1001
0000
0000
1000
0001
0000
0010
0000
1000
0000
0010
0000
0001
0000
1000
0000
,
1010
0000
0000
0000
1100
0000
0000
0000
1010
0000
0000
0000
0001
1000
0001
1000
,
0100
0000
0010
0001
1000
0010
0100
0000
,
0001
0100
0001
0000
1000
0000
0001
0000
0010
0000
0100
0000
1000
0000
0010
0000
,
1010
0000
0000
1000
0001
0000
0100
0000
1000
0000
0100
0000
0001
0000
1000
0000
,
1100
0000
0000
0000
1010
0000
0000
0000
1100
0000
0000
0000
0001
1000
0001
1000
,
0010
0000
0100
1000
0001
0100
0010
0000
,
1000
0010
1000
0000
0001
0000
1000
0000
0100
0000
0010
0000
0001
0000
1000
0000
,
0001
0001
0000
1000
0010
1000
0010
0000
,
1000
0001
1000
1001
0000
0110
0000
0000
;

//--------------- dance-single - Akita AND Nature ----------------
#NOTEDATA:;
#STEPSTYPE:dance-single;
#DESCRIPTION:Akita AND Nature;
#DIFFICULTY:Challenge;
#METER:10;
#RADARVALUES:0.794837,0.725636,0.154256,0.074468,0.787238,1046,1017,29,14,0,0,0,0,0,0.794837,0.725636,0.154256,0.074468,0.787238,1046,1017,29,14,0,0,0,0,0;
#DISPLAYBPM:155.000;
#CHARTNAME:Akita AND Nature;
#CHARTSTYLE:;
#CREDIT:Akita AND Nature;
#NOTES:
0000
0000
0000
0000
,
0000
0000
0000
0000
,
0000
0000
0000
0000
0000
0000
0000
1000
,
0010
1000
0010
1000
0001
0100
0000
0001
,
0010
0001
0010
0001
1000
0100
0000
0000
,
1000
0010
1000
0001
0010
0100
0000
0010
,
0001
0010
0001
1000
0010
0100
0000
0010
,
1000
0010
1000
0001
0010
0100
0000
0010
,
0001
0010
0001
1000
0100
0010
0000
0000
,
0200
0000
1000
0000
0000
1000
0000
0000
2300
0000
0000
0010
0000
0000
3010
0000
,
1010
0000
0000
1001
0000
0000
0011
0000
0000
1001
0000
0000
1000
0000
0100
0000
,
0020
0000
0001
0000
0000
0001
0000
0000
0032
0000
0000
0100
0000
0000
0103
0000
,
0101
0000
0000
1001
0000
0000
1100
0000
0000
1001
0000
0000
0001
0000
0100
0000
,
0010
0000
1000
0000
0001
0000
1000
0010
0000
1000
0010
0000
0100
0000
0001
0000
,
0010
0000
0001
0000
0100
0000
0001
0010
0000
0001
0010
0000
0100
0000
1000
0000
,
0010
0000
1000
0000
0100
0000
1000
0010
0000
1000
0010
0000
1000
0000
0001
0000
,
0010
0000
0100
0000
1000
0000
0001
1000
0000
0001
1000
0000
0010
0000
0100
0000
,
0001
0100
0001
0100
0000
0000
0010
1000
0010
1000
0000
0000
0001
0000
1000
0000
,
0001
0000
0010
0000
0001
0000
0010
0000
0100
1000
0010
0000
0100
0000
0001
0000
,
0010
0001
0010
0001
0000
0000
1000
0010
1000
0010
0000
0000
0100
0001
0100
0001
,
0000
0000
1000
0100
1000
0100
0000
0000
0010
0000
0001
0000
1000
0010
0100
0000
,
0010
1000
0010
1000
0000
0000
0001
0100
0001
0100
0000
0000
0001
0000
1000
0000
,
0001
0000
0010
0000
0001
0000
0010
0000
0100
1000
0010
0000
0100
0000
0001
0000
,
0010
0001
0010
0001
0000
0000
1000
0010
1000
0010
0000
0000
0100
0000
0001
0000
,
1000
0000
0010
0000
0100
0000
0001
1000
0000
1000
0001
0000
0010
0000
0100
0000
,
0020
0000
0000
0001
0000
0000
0031
0000
1000
0000
0001
0000
1000
0000
0001
0000
,
1000
0000
0100
0000
0010
0000
0001
0100
0001
0000
0100
0000
0010
0000
1000
0100
,
1000
0000
0010
0000
0100
0000
0001
1000
0001
0000
1000
0000
0100
0000
0010
0100
,
0010
0000
0001
0000
1000
0000
0001
0100
0001
0000
1000
0000
0010
0000
1000
0100
,
1000
0001
0010
0001
0100
0010
1000
0100
,
0010
0000
0001
0000
1000
0000
0001
0100
0001
0000
1000
0000
0010
0000
1000
0010
,
1000
0000
0001
0000
0010
0000
0001
0010
0001
0000
1000
0000
0010
0000
1000
0001
,
1000
0000
0001
0000
0010
0000
0001
0100
0001
0000
0100
0000
0010
0000
1000
0100
,
1000
0000
1001
0000
1000
0100
0001
0100
,
1000
0100
1000
0100
0000
0000
0010
0001
0010
0001
0000
0000
1000
0000
0001
0000
,
0100
0000
0001
0000
1000
0000
0010
0000
0100
0001
0010
0000
0100
0000
1000
0000
,
0100
0010
0100
0010
0000
0000
0001
0010
0001
0010
0000
0000
0100
1000
0100
1000
,
0000
0000
0001
1000
0001
1000
0000
0000
0010
0000
1000
0000
0001
0010
0100
0000
,
1000
0100
1000
0100
0000
0000
0010
0001
0010
0001
0000
0000
1000
0000
0001
0000
,
0100
0000
0001
0000
1000
0000
0010
0000
0100
0001
0010
0000
0100
0000
1000
0000
,
0001
0010
0001
0010
0000
0000
0100
1000
0100
1000
0000
0000
0001
0000
1000
0000
,
0001
0000
0010
0000
0100
0000
1000
0001
0000
0001
1000
0000
0010
0000
0100
0000
,
0001
0000
0010
0001
0000
1000
0100
0000
1000
0000
0001
0100
0000
0000
0000
0000
,
0010
1000
0000
0001
0010
0000
0001
1000
0000
0100
0010
0000
0001
0000
0000
0000
,
1000
0000
0001
0100
0000
0010
1000
0010
1000
0000
0100
0000
0010
0000
0001
0000
,
1000
0000
0001
0100
0001
0000
1000
0000
0100
0000
0010
0000
0100
0000
1000
0000
,
1001
0000
0000
1000
0000
0000
0020
0000
1000
0000
0000
0100
0000
0000
1030
0010
,
1000
0001
1000
0100
0010
0000
0001
0000
0100
0000
0000
1001
0000
0000
0000
0000
,
0001
0010
0100
1000
0001
1000
0010
0100
,
0110
0000
1001
0000
0100
0100
1001
0000
,
0001
1000
0000
0001
0000
1000
0001
0100
0000
0010
0000
1000
0001
0000
0010
0000
,
0100
0000
1000
0000
0100
0000
0001
0000
0100
0000
1000
0000
0001
1000
0001
1000
,
0100
0010
0000
0001
0000
1000
0001
0100
0000
0010
0000
1000
0001
0000
1000
0000
,
0001
0000
0010
0000
0100
0000
1000
0000
0001
0000
0100
0000
0010
1000
0010
1000
,
0001
1000
0000
0001
0000
1000
0001
0100
0000
0010
0000
1000
0001
0000
0010
0000
,
0100
0000
1000
0000
0100
0000
0001
0000
0100
0000
1000
0000
0001
1000
0001
1000
,
0010
0100
0000
0001
0000
1000
0001
0010
0000
0100
0000
1000
0001
0000
1000
0000
,
0100
0010
0001
1000
1001
1001
0000
0000
,
1000
0000
0001
0000
1000
0100
0000
0100
0001
0000
0001
0100
0000
0100
1000
0000
,
0001
0000
1000
0000
0001
0100
0000
0100
1000
0000
1000
0100
0000
0100
0001
0000
,
1000
0000
0001
0000
1000
0010
0000
0010
0001
0000
0001
0010
0000
0010
1000
0000
,
0001
0000
1000
0000
0001
0010
0000
0010
1000
0000
1000
0010
0000
0010
0001
0000
,
1000
0000
0010
0000
1000
0100
0000
0100
0010
0000
0010
0100
0000
0100
1000
0000
,
0001
0000
0010
0000
0001
0100
0000
0100
0010
0000
0010
0100
0000
0100
0001
0000
,
1000
0000
0100
0000
1000
0010
0000
0010
0100
0000
0100
0010
0000
0010
1000
0000
,
0001
0000
0100
0000
0001
0010
0000
0010
0100
0000
0100
0010
0000
0010
0001
0000
,
1000
0000
0001
0000
1000
0100
0010
0000
0100
1000
0001
0000
0100
0000
0001
0000
,
1000
0000
0010
0000
1000
0001
0010
0000
0001
1000
0100
0000
0010
0000
0100
0000
,
1000
0000
0001
0000
0100
0001
1000
0000
0010
1000
0100
0000
0010
0000
0001
0000
,
1000
0001
0000
0010
0000
0100
0000
1000
,
0001
0000
1000
0000
0010
1000
0100
0000
0010
0001
1000
0000
0001
0000
0100
0000
,
0010
0000
1000
0000
0100
0010
0001
0000
1000
0100
0010
0000
0100
0000
1000
0000
,
0001
0000
0100
0000
0010
1000
0001
0000
0100
0001
1000
0000
0100
0000
1000
0000
,
0001
0010
0000
0001
0000
1000
0000
0010
,
1000
0001
0000
0100
0000
0010
0100
0010
0000
1000
0001
0000
1000
0100
1000
0100
,
0010
0000
0001
0010
0100
1000
0001
0000
1000
0000
0001
0000
0100
0000
0010
0000
,
1000
0001
0100
0000
0010
0000
1000
0100
0010
0000
0001
0000
1000
0000
0010
0000
,
0000
0000
0100
0001
0010
0000
0100
0000
1000
0000
0001
0100
0000
0000
0010
1000
,
0001
0000
1000
0100
0010
0000
0100
1000
0001
0000
0010
0001
0000
0000
1000
0001
,
0100
0000
0010
1000
0000
0000
0001
0010
0100
0000
1000
0001
0000
0000
0100
0000
,
0001
0000
0010
0001
0000
1000
0100
0000
1000
0000
0001
0100
0000
0000
0001
0000
,
0010
0000
0100
0000
1000
0000
0010
0000
0100
0000
0001
1000
0000
0000
0100
0000
,
0010
0000
0001
1000
0000
0000
0001
0100
0010
0000
0100
0000
1001
0000
0000
0000
,
1000
0001
0000
1000
0000
0001
1000
0010
0000
0100
0000
0001
1000
0000
0010
0000
,
0100
0000
0001
0000
0100
0000
1000
0000
0100
0000
0001
0000
1000
0001
1000
0001
,
0010
0100
0000
1000
0000
0001
1000
0010
0000
0100
0000
0001
1000
0000
0001
0000
,
0010
0000
0100
0000
1000
0000
0001
0000
0100
0000
0010
0000
1000
0010
1000
0010
,
1000
0001
0000
1000
0000
0001
1000
0010
0000
0100
0000
0001
1000
0000
0100
0000
,
0010
0000
0001
0000
0010
0000
1000
0000
0010
0000
0001
0000
1000
0001
1000
0001
,
0100
0010
0000
1000
0000
0001
1000
0100
0000
0010
0000
0001
1000
0000
0001
0000
,
0100
0010
1000
0001
1001
1001
0000
0000
,
0002
0000
0000
0010
0000
0000
0023
0000
0000
1030
0000
0000
0010
0000
0001
0000
,
2000
0000
0000
0010
0000
0000
3020
0000
0000
0031
0000
0000
0010
0000
1000
0000
,
0002
0000
0000
1000
0000
0000
2003
0000
0000
3100
0000
0000
0010
0000
0001
0000
,
2000
0000
0000
0001
0000
0000
3002
0000
0000
0103
0000
0000
0010
0000
1000
0000
,
0010
1000
0010
1000
0000
0000
0001
0100
0001
0100
0000
0000
0001
0000
1000
0000
,
0010
0000
1000
0000
0001
0000
0100
0000
0010
1000
0100
0000
0010
0000
0001
0000
,
1000
0001
1000
0001
0000
0000
0010
0100
0010
0100
0000
0000
1000
0000
0001
0000
,
0100
0000
0010
0000
1000
0000
0001
1000
0000
1000
0001
0000
0010
0000
0100
0000
,
1000
0100
0001
0100
1000
0100
0001
0100
,
1000
0100
0001
0100
1000
0100
0100
0010
,
0001
0010
0100
0000
1001
0000
0110
0001
,
1000
0010
1000
0010
0100
0000
0001
0000
1000
0000
0100
0000
0010
0000
0010
0000
,
0010
0000
0000
0001
0000
0000
0100
0000
1001
0000
0000
1000
0000
0100
0000
1000
,
0010
0000
0000
1000
0000
0000
0100
0000
1001
0000
0000
0001
0000
0100
0000
0001
,
0010
0000
0000
0010
1000
0000
0000
1000
0010
0000
0000
0010
0001
0000
0000
0001
,
0100
0000
0000
0100
1000
0000
0000
1000
0100
0000
0000
0100
0001
0000
0000
0001
,
1000
0100
0010
0001
1000
0010
0100
0001
,
1000
0000
0100
0000
0010
0000
0001
0000
1000
0001
1000
0001
0000
0000
0000
0000
,
1000
0010
0000
0100
0000
0001
0010
0100
0000
1000
0000
0001
0100
0000
0010
0000
,
0100
0000
1000
0000
0100
0000
0001
0000
0100
0000
1000
0000
0100
0001
0100
0001
,
1000
0100
0000
0010
0000
0001
1000
0001
0000
0100
0000
0010
1000
0000
0001
0000
,
1000
0000
0100
0000
0010
0000
0001
0000
0100
0000
0010
0000
1000
0001
1000
0001
,
0010
0100
0000
1000
0000
0001
0100
0010
0000
1000
0000
0100
0010
0000
0001
0000
,
0010
0000
1000
0000
0010
0000
0001
0000
0010
0000
1000
0000
0010
0001
0010
0001
,
1000
0100
0000
1000
0000
0001
0100
0010
0000
0100
0000
0001
1000
0000
0100
0000
,
0010
0001
0100
0010
1001
1001
0000
0000
,
1000
1100
0000
0001
0100
0010
1010
0000
,
1000
0001
0010
0110
0000
1001
0000
0000
;

//--------------- dance-double - forcednature ----------------
#NOTEDATA:;
#STEPSTYPE:dance-double;
#DESCRIPTION:forcednature;
#DIFFICULTY:Easy;
#METER:4;
#RADARVALUES:0.32067,0.378592,0.12766,0.106384,0,422,398,24,20,0,0,0,0,0,0.32067,0.378592,0.12766,0.106384,0,422,398,24,20,0,0,0,0,0;
#DISPLAYBPM:155.000;
#CHARTNAME:forcednature;
#CHARTSTYLE:;
#CREDIT:forcednature;
#NOTES:
00000000
00000000
00000000
00000000
,
00000000
00000000
00000000
00000000
,
00000000
00000000
00000000
00000000
,
00001000
00001000
00010000
00010000
,
00001000
00001000
00010000
00010000
,
00001000
01000000
00001000
00100000
,
00001000
01000000
00001000
00100000
,
00001000
00010000
00000010
00010000
,
00000100
00010000
00000010
00010000
,
00022000
00000000
00033000
00000000
,
00001000
01000000
00010000
10000000
,
20020000
00000000
30030000
00000000
,
10000000
01000000
00100000
00010000
,
20020000
00000000
30030000
00000000
,
00022000
00000000
00033000
00000000
,
00002002
00000000
00003003
00000000
,
00022000
00000000
00033000
00000000
,
00001000
01000000
00010000
00100000
,
01000000
00000000
10000000
10000000
10000000
00000000
00000000
00000000
,
00100000
01000000
00010000
00100000
,
00001000
00000000
00010000
00010000
00010000
00000000
00000000
00000000
,
00000100
00001000
00000001
00000100
,
00000010
00000000
00001000
00001000
00001000
00000000
00000000
00000000
,
00000100
00010000
00001000
00100000
,
01000000
00000000
10000000
10000000
10000000
00000000
00000000
00000000
,
00200000
00000000
00000000
00300000
,
01000000
00001000
00010000
00000100
,
00010000
00001000
01000000
00001000
,
00010000
00000010
00010000
00001000
,
00100000
00001000
00010000
00000010
,
00001000
00000001
00001000
00000100
,
00010000
00001000
01000000
00010000
,
10000000
00010000
01000000
00001000
,
00010000
00000100
00001000
00000001
,
00001000
00000001
00000100
00000010
,
00010000
00000000
00001000
00001000
00001000
00000000
01000000
00000000
,
00010000
00100000
01000000
10000000
,
00100000
00000000
01000000
01000000
01000000
00000000
00010000
00000000
,
00100000
00001000
00010000
00000100
,
00001000
00000000
00000001
00000001
00000001
00000000
00000010
00000000
,
00000100
00010000
00001000
00100000
,
01000000
00000000
10000000
10000000
10000000
00000000
00010000
00000000
,
01000000
00001000
00010000
00000000
,
00000100
00010000
00001000
00000000
,
00100000
00001000
00010000
00000010
,
00001000
00000001
00000100
00000000
,
00000110
00000000
00000001
00000100
,
00001000
00000100
00000001
00000000
,
00011000
00000000
00001000
01000000
,
00001000
00100000
01000000
00000000
,
10010000
00100000
00100000
00000000
,
10000000
00010000
01000000
00001000
,
00011000
00000010
00000010
00000000
,
00000100
00000001
00000010
00000100
,
00001001
00000010
00000010
00000000
,
00001000
00000010
00010000
00001000
,
00011000
00100000
00100000
00000000
,
00010000
01000000
00010000
00100000
,
02000000
00000000
03000000
00000000
,
00000200
00000000
00000300
00000000
,
01000000
00000000
00000100
00000000
,
00010000
00001000
00010000
00001000
,
00010000
01000000
00010000
00001000
,
00100000
00010000
10000000
00100000
,
00010000
00100000
10000000
01000000
,
00010000
01000000
00100000
00001000
,
00010000
00010000
00000010
00000010
,
00001000
00000001
00000100
00000010
,
00001000
00000100
00000010
00000001
,
00000100
00001000
00000100
00000001
,
00001000
00000100
00010000
00001000
,
01000000
00010000
01000000
10000000
,
01000000
00010000
00100000
10000000
,
00100000
00010000
10000000
00010000
,
02000000
00000000
00000000
03000000
,
00010000
10000000
00100000
00100000
,
01000000
00000000
00001000
00000000
,
00010000
00000100
00000010
00000001
,
00000100
00000000
00000010
00000000
,
00001000
00000001
00001000
00000010
,
00001000
00000000
00001000
00000000
,
00000100
00010000
00001000
00100000
,
00010000
00010000
00010000
00000000
,
00011000
00001000
00010000
00000000
,
00000100
00001000
00000001
00000100
,
00001001
00001000
00000001
00000000
,
00001000
00000010
00010000
00001000
,
00011000
01000000
01000000
00000000
,
00010000
00100000
10000000
00100000
,
10010000
00100000
00100000
00000000
,
10000000
00010000
01000000
00001000
,
00022000
00000000
00000000
00000000
,
00000000
00000000
00033000
00000000
,
00020000
00000000
00000000
00000000
,
00002000
00000000
00000000
00033000
,
00001000
01000000
00001000
00100000
,
00010000
10000000
00100000
01000000
,
00001000
00010000
00000100
00001000
,
00000001
00000100
00000010
00001000
,
00000100
00000100
00000100
00000100
,
00000100
00000100
00000100
00000100
,
00010000
00001000
01000000
00000000
,
00001000
00010000
00100000
00010000
,
00001000
00000000
10010000
00000000
,
00010000
00000000
00001001
00000000
,
00010000
00001000
00010000
00001000
,
00010000
00001000
00010000
00001000
,
01000000
00001000
00010000
00000100
,
00010000
00000000
00001000
00000000
00010000
00010000
00000000
00000000
,
00011000
00001000
01000000
00010000
,
00100000
00100000
00100000
00000000
01000000
00000000
10000000
00000000
,
10010000
10000000
00100000
01000000
,
00001000
00001000
00001000
00000000
00010000
00000000
00000010
00000000
,
00001001
00000001
00000100
00000010
,
00001000
00001000
00001000
00000000
00000100
00000000
00010000
00000000
,
00011000
00001000
01000000
00010000
,
00100000
00100000
00100000
00000000
01000000
00000000
10000000
00000000
,
00010000
00000000
00000000
00100000
00000000
00100000
00000000
00000000
,
00001000
00000000
00001000
00000000
00000000
00011000
00000000
00000000
;

//--------------- dance-double - forcednature ----------------
#NOTEDATA:;
#STEPSTYPE:dance-double;
#DESCRIPTION:forcednature;
#DIFFICULTY:Medium;
#METER:7;
#RADARVALUES:0.482525,0.50479,0.287236,0.053192,0.074468,635,581,54,10,0,0,0,0,0,0.482525,0.50479,0.287236,0.053192,0.074468,635,581,54,10,0,0,0,0,0;
#DISPLAYBPM:155.000;
#CHARTNAME:forcednature;
#CHARTSTYLE:;
#CREDIT:forcednature;
#NOTES:
00000000
00000000
00000000
00000000
,
00000000
00000000
00000000
00000000
,
00000000
00000000
00000000
00000000
00000000
00000000
00000000
00010000
,
00000000
00000100
00001000
00000000
00000010
00000100
00000000
00000001
,
00000000
00000010
00000100
00000000
00010000
00001000
00000000
00000000
,
00100000
00001000
01000000
00000000
00010000
00100000
00000000
01000000
,
00000000
10000000
00010000
00000000
01000000
00001000
00000000
00010000
,
00000000
00000100
00000010
00000000
00000001
00000100
00000000
00001000
,
00000000
00000100
00000010
00000000
00001000
00000001
00001000
00000001
,
00000000
00000000
00000100
00000000
00000000
00000010
00000000
00000000
00010000
00000000
00000000
00001000
00000000
00000000
01000000
00000000
,
00010000
10000000
01000000
00000000
,
00000000
00000000
00100000
00000000
00000000
00001000
00000000
00000000
00010000
00000000
00000000
00000100
00000000
00000000
00001000
00000000
,
00000001
00000100
00000010
00001000
,
00000001
00000000
00000010
00000000
00000000
00000100
00000000
00000000
00010000
00000000
00000000
00001000
00000000
00000000
01000000
00000000
,
00000000
00000000
00010000
00000000
00000000
00100000
00000000
00000000
10000000
00000000
00000000
00100000
00000000
00000000
00010000
00000000
,
00000000
00000000
01000000
00000000
00000000
00001000
00000000
00000000
00010000
00000000
00000000
00000100
00000000
00000000
00000010
00000000
,
00000000
00000000
00000001
00000000
00000000
00000100
00000000
00000000
00001000
00000000
00000000
00000100
00000000
00000000
00000010
00000000
,
00001000
00000100
00000000
00010000
00001000
00000000
01000000
00010000
,
00000000
00100000
01000000
10000000
00000000
00100000
00000000
01000000
,
00010000
00100000
00000000
00001000
00010000
00000000
00000010
00001000
,
00000000
00000001
00000010
00000000
00000100
00001000
00000010
00000000
,
00000100
00000001
00000000
00000010
00000100
00000000
00010000
00001000
,
00000000
01000000
00010000
10000000
00000000
01000000
00000000
00100000
,
00001000
01000000
00000000
00001000
00010000
00000000
00000001
00000010
,
00000000
00001000
00000010
00000000
00000100
00001000
00000100
00000000
,
00020000
00000000
00000000
00030000
,
00000000
00001000
00000000
01000000
00000000
00010000
00000000
10000000
,
00000000
01000000
00000000
00010000
00000000
00001000
00000000
00000010
,
00000000
00000001
00000000
00000100
00000000
00000010
00000000
00010000
,
00000000
00001000
00000000
00100000
00000000
01000000
00000000
10000000
,
00100000
01000000
00000000
00010000
00000000
00100000
00000000
00001000
,
00000000
00010000
00000000
00000100
00000000
00000010
00000000
00001000
,
00000000
00000010
00000000
00000001
00000000
00000100
00000000
00000010
,
00000110
00000000
00001001
00000000
00000001
00001000
00000001
00000000
,
00001000
00000010
00000000
00010000
00001000
00000000
00010000
01000000
,
00000000
10000000
00010000
01000000
00000000
00100000
00000000
10000000
,
01000000
00010000
00000000
01000000
00100000
00000000
00010000
01000000
,
00000000
00001000
00010000
00000000
00000100
00001000
00000100
00000000
,
00000010
00000001
00000000
00000100
00001000
00000000
00000100
00000001
,
00000000
00001000
00000100
00000010
00000000
00000100
00000000
00010000
,
00001000
01000000
00000000
00010000
00100000
00000000
10000000
00100000
,
00000000
00010000
01000000
00000000
00001000
00010000
00001000
00000000
,
00011000
00000000
00000100
00000000
00001000
00000001
00000100
00000000
,
00001001
00000000
00001000
00000000
00000010
00010000
00001000
00000000
,
00011000
00000000
00001000
00000000
00100000
01000000
10000000
00000000
,
10010000
00000000
10000000
00000000
00010000
01000000
00001000
00000000
,
01001000
00011000
00010100
00000010
,
00001000
00000001
00000010
00000000
00000100
00001000
00000001
00000000
,
00000101
00001001
00001100
00000100
,
00010000
00001000
01000000
00000000
00001000
00010000
00000100
00000000
,
00010100
00010000
00001000
00100000
,
00010000
00100000
01000000
10000000
00010000
00000000
01000000
00000000
,
01001000
00010000
00000100
00001000
,
00000001
00000100
00000010
00001000
00000100
00000010
00000001
00000000
,
00001001
00000001
00000100
00000010
,
00010000
00001000
01000000
00100000
10000000
00000000
01000000
00000000
,
01100000
00100000
00010000
01000000
,
00001000
00010000
00000100
00001000
00000001
00000100
00000010
00000000
,
00002000
00000000
00000100
00000000
00000000
00000100
00000000
00000000
00000100
00000000
00000000
00000100
00000000
00000000
00003100
00000000
,
00000200
00000000
00010000
00000000
00000000
00010000
00000000
00000000
00010000
00000000
00000000
00010000
00000000
00000000
00010300
00000000
,
00020000
00000000
00001000
00000000
00000000
00001000
00000000
00000000
00001000
00000000
00000000
00001000
00000000
00000000
00031000
00000000
,
00002000
00000000
01000000
00000000
00000000
01000000
00000000
00000000
01000000
00000000
00000000
01000000
00000000
00000000
01003000
00000000
,
00001000
00000000
00100000
00000000
00000000
00010000
00000000
00000000
10000000
00000000
00000000
00100000
00000000
00000000
01000000
00000000
,
00010000
00000000
00100000
00000000
00000000
00001000
00000000
00000000
00010000
00000000
00000000
00000100
00000000
00000000
00001000
00000000
,
00000001
00000000
00000100
00000000
00000000
00000010
00000000
00000000
00001000
00000000
00000000
00000100
00000000
00000000
00000010
00000000
,
00000001
00000000
00000100
00000000
00000000
00000001
00000000
00000000
00001000
00000000
00000000
00000100
00000000
00000000
00010000
00000000
,
00001000
01000000
00000000
01010000
00000000
11000000
00000000
10000000
,
00100000
01000000
00000000
01010000
00000000
00011000
00000000
00010000
,
00000100
00001000
00000000
00001001
00000000
00000110
00000000
00001000
,
00000100
00000001
00000000
00000101
00000000
00001100
00000000
00000001
,
00000100
00000010
00000000
00010010
00000000
00011000
00000000
00001000
,
00100000
01000000
00000000
01100000
00000000
10010000
00000000
10000000
,
01000000
00100000
00000000
00110000
00000000
00101000
00000000
00001000
,
00010000
00000010
00000000
00001010
00000000
00000101
00000000
00000001
,
00000200
00000000
00000000
00000300
,
00000010
00001000
00000001
00001000
00000100
00000010
00000001
00000000
,
00000100
00000010
00010000
00001000
,
01000000
00010000
10000000
01000000
10000000
00010000
01000000
00000000
,
00001000
00010000
00000100
00001000
,
00000001
00000100
00000010
00001000
00000010
00000100
00000001
00000000
,
00000010
00000100
00010000
00001000
,
00100000
00010000
10000000
00100000
10000000
00010000
00100000
00000000
,
01100000
00000000
10010000
00000000
10000000
00010000
10000000
00000000
,
10010000
01000000
00001000
00010000
,
00000100
00001000
00000001
00000100
00000010
00000000
00001000
00000000
,
00001100
00000100
00010000
00001000
,
00100000
01000000
10000000
00010000
01000000
00001000
00010000
00000000
,
00001001
00000001
00000100
00000010
,
00001000
00000100
00000010
00000100
00010000
00000000
00001000
00000000
,
01001000
01000000
00010000
10000000
,
00100000
01000000
00001000
00100000
00010000
10000000
00100000
00000000
,
02000000
00000000
00000000
00000000
,
00000000
00000000
00000000
00000000
,
00002000
00000000
03000000
00000000
,
00000200
00000000
00000000
00003300
,
00000001
00000100
00000000
00000001
00000010
00000000
00000100
00010000
,
00000000
00000010
00001000
00000010
00000000
00010000
00000000
00001000
,
01000000
00010000
00000000
10000000
01000000
00000000
00100000
10000000
,
00000000
00100000
00010000
00000000
01000000
00001000
00100000
00000000
,
00002000
00010000
00000000
01000000
00000000
00010000
00000000
00100000
,
00000000
00010000
00000000
01000000
00000000
00010000
00010000
00013000
,
00010000
00011000
00000000
00000000
00001000
00000000
01000000
00000000
,
00010000
00100000
01000000
00100000
00010000
01000000
00001000
00000000
,
00011000
00000100
00011000
01000000
,
00011000
00000010
00011000
00100000
,
00011000
01001000
00011000
00001000
,
00011000
00010100
00011000
00010000
,
00001000
00010000
00001000
00010000
00001000
00010000
00001000
00010000
,
00001000
00010000
00001000
00010000
00001000
00000000
00000000
00000000
,
00011000
00001000
01000000
00010000
,
10000000
01000000
00100000
01000000
10000000
00010000
01000000
00000000
,
00011000
00000100
00001000
00000001
,
00000100
00000010
00001000
00000001
00000010
00000100
00001000
00000000
,
00001001
00000001
00001000
00000010
,
00010000
00001000
01000000
00010000
00100000
01000000
10000000
00000000
,
10010000
00010000
01000000
00001000
,
00010000
00000100
00001000
00000001
00000100
00000010
00001000
00000000
,
00000100
00010000
00000000
00001000
01000000
00010000
00100000
00000000
,
00001000
00010000
00000010
00000100
00000000
00001001
00000000
00000000
;

//--------------- dance-double - forcednature ----------------
#NOTEDATA:;
#STEPSTYPE:dance-double;
#DESCRIPTION:forcednature;
#DIFFICULTY:Hard;
#METER:9;
#RADARVALUES:0.654259,0.694086,0.329789,0.058511,0.404257,861,799,62,11,0,0,0,0,0,0.654259,0.694086,0.329789,0.058511,0.404257,861,799,62,11,0,0,0,0,0;
#DISPLAYBPM:155.000;
#CHARTNAME:forcednature;
#CHARTSTYLE:;
#CREDIT:forcednature;
#NOTES:
00000000
00000000
00000000
00000000
,
00000000
00000000
00000000
00000000
,
00000000
00000000
00000000
00000000
00000000
00000000
00000000
00001000
,
00000000
01000000
00010000
00000000
10000000
01000000
00000000
00100000
,
00000000
00001000
00010000
00000000
00000010
00001000
00000000
00000001
,
00000100
00000001
00000010
00000001
00000100
00000001
00001000
00000100
,
00010000
00001000
00100000
00010000
01000000
00001000
00100000
00010000
,
10000000
00100000
01000000
00001000
00100000
01000000
10000000
00010000
,
01000000
00000000
00001000
00000000
00010000
00000000
00000100
00000000
00001000
00000001
00001000
00000001
00001000
00000001
00001000
00000001
,
00001000
00000000
00000100
00000000
00000000
00010000
00000000
00000000
00001000
00000000
00000000
01000000
00000000
00000000
00010000
00000000
,
10000000
00000000
00000000
10000000
00000000
00000000
00010000
00000000
00000000
00010000
00000000
00000000
10000000
00000000
00010000
00000000
,
10000000
00000000
00010000
00000000
00000000
01000000
00000000
00000000
00001000
00000000
00000000
00010000
00000000
00000000
00000100
00000000
,
00001000
00000000
00000000
00001000
00000000
00000000
00000001
00000000
00000000
00000001
00000000
00000000
00001000
00000000
00001000
00000000
,
00001001
00000000
00000001
00000000
00000000
00000100
00000000
00000000
00001000
00000000
00000000
00010000
00000000
00000000
01000000
00000000
,
10010000
00000000
10000000
00000000
00000000
01000000
00000000
00000000
00010000
00000000
00000000
00001000
00000000
00000000
00000100
00000000
,
00001001
00000000
00000001
00000000
00000000
00000100
00000000
00000000
00001000
00000000
00000000
00010000
00000000
00000000
01000000
00000000
,
10010000
00000000
10000000
00000000
00000000
01000000
00000000
00000000
00010000
00000000
00000000
00001000
00000000
00000000
00000100
00000000
,
00000001
00000000
00000010
00000100
00000000
00000000
00010000
00000000
00000010
00001000
00000000
00000000
00000100
00000000
00010000
00001000
,
00000000
01000000
00010000
00100000
01000000
10000000
00010000
01000000
,
00001000
00000000
00010000
00000100
00000000
00000000
00001000
00000000
00000001
00000100
00000000
00000000
00000010
00000000
00001000
00000100
,
00000000
00000000
00010000
00000000
00001000
00100000
00000000
00000000
00010000
00000000
01000000
00000000
00100000
00000000
10000000
00000000
,
01000000
00000000
00100000
00010000
00000000
00000000
10000000
00000000
00010000
01000000
00000000
00000000
00001000
00000000
00010000
00000100
,
00000000
00001000
00000001
00000100
00000010
00001000
00000001
00000010
,
00000100
00000000
00001000
00000001
00000000
00000000
00001000
00000000
00000100
00010000
00000000
00000000
00001000
00000000
01000000
00010000
,
01000000
00010000
01000000
00000000
00100000
00000000
10000000
00000000
01000000
00000000
00100000
00000000
00010000
00000000
01000000
00000000
,
00001000
00010000
00000000
00000100
00000000
00010000
00001000
00000000
01000000
00000000
00001000
00000000
00010000
00001000
00010000
00000000
,
00001000
00010000
01000000
10000000
00100000
00010000
00001000
00100000
,
00010000
10000000
00100000
10000000
01000000
00010000
01000000
10000000
,
00010000
01000000
00001000
00010000
00001000
00000010
00000001
00000100
,
00001000
00010000
01000000
10000000
00100000
01000000
00001000
00010000
,
01000000
00010000
00001000
00000100
00000001
00000010
00001000
00010000
,
00100000
10000000
00100000
00010000
00001000
00010000
01000000
10000000
,
01000000
00010000
00001000
00000100
00000001
00000010
00001000
00010000
,
00010100
00000000
00000011
00000000
00000001
00000100
00000010
00010000
,
00001000
00000000
00100000
01000000
00000000
00000000
10000000
00000000
00010000
01000000
00000000
00000000
00001000
00000000
00010000
00000010
,
00000000
00000100
00000001
00000010
00000100
00001000
00000001
00000100
,
00000010
00000000
00010000
00001000
00000000
00000000
01000000
00000000
00010000
00100000
00000000
00000000
01000000
00000000
10000000
00010000
,
00000000
00000000
01000000
00000000
00001000
00010000
00000000
00000000
00000100
00000000
00001000
00000000
00000001
00000000
00000100
00000000
,
00000010
00000000
00010000
00001000
00000000
00000000
00100000
00000000
00010000
01000000
00000000
00000000
00100000
00000000
10000000
01000000
,
00000000
00100000
00010000
01000000
00001000
00010000
00000010
00001000
,
00000001
00000000
00000010
00000001
00000000
00000000
00000100
00000000
00000010
00001000
00000000
00000000
00000100
00000000
00010000
00001000
,
00010000
00100000
00010000
00001000
00000010
00001000
00010000
00001000
,
00011000
01001000
01010000
00110000
,
00010000
00100000
10000000
00100000
00010000
01000000
00001000
00000000
,
00011000
00010100
00001100
00001001
,
00000001
00000100
00001000
00000100
00000001
00000010
00000100
00000000
,
00000110
00000000
00000000
00000000
00001000
00000000
00000100
00000000
00020000
00000000
00000000
01000000
00000000
00000000
00031000
00000000
,
00011000
00000000
00100000
00001000
00010000
00000100
00001000
00000000
,
00001000
00000000
00000010
00000000
00010000
00000000
00001000
00000000
00200000
00000000
00000000
10000000
00000000
00000000
00310000
00000000
,
00110000
00000000
00011000
00000000
00000010
00000010
00001001
00000000
,
00000001
00001000
00000000
00000100
00000000
00010000
00000000
00001000
00000000
01000000
00000000
00000000
00010000
00000000
10000000
00000000
,
11000000
00000000
00110000
00000000
00001100
00000000
00000010
00000010
,
00000001
00000010
00000000
00000100
00000000
00010000
00000000
00001000
00000000
01000000
00000000
00100000
10000000
00000000
00000000
00000000
,
00010000
10000000
01000000
00100000
00001000
01000000
00001000
00010000
,
00100000
01000000
00000000
00010000
00000000
10000000
00000000
00010000
00000000
00100000
00000000
00000000
00001000
00000000
00010000
00000000
,
00011000
00000000
00000110
00000000
00011000
00000000
01000000
01000000
,
00010000
10000000
00000000
00010000
00000000
01000000
00000000
00001000
00000000
00100000
00000000
00001000
00010000
00000000
00000000
00000000
,
00001000
00010000
01000000
00010000
00001000
00000100
00001000
00010000
,
00002000
00000000
00010000
00000000
00000000
01000000
00000000
00000000
00010000
00000000
00000000
00100000
00000000
00000000
00013000
00000000
,
00020000
00000000
00001000
00000000
00000000
00000100
00000000
00000000
00001000
00000000
00000000
00000010
00000000
00000000
00031000
00000000
,
00002000
00000000
00010000
00000000
00000000
00100000
00000000
00000000
00010000
00000000
00000000
01000000
00000000
00000000
00013000
00000000
,
00020000
00000000
00001000
00000000
00000000
00000010
00000000
00000000
00001000
00000000
00000000
00000100
00000000
00000000
00031000
00000000
,
00010000
00000000
01000000
00000000
00000000
10000000
00000000
00000000
00010000
00000000
00000000
01000000
00000000
00000000
00001000
00000000
,
00010000
00000000
00000100
00000000
00000000
00001000
00000000
00000000
00000100
00000000
00000000
00000001
00000000
00000000
00000100
00000000
,
00001000
00000000
00000010
00000000
00000000
00000100
00000000
00000000
00001000
00000000
00000000
00010000
00000000
00000000
01000000
00000000
,
10000000
00000000
00100000
00000000
00000000
00010000
00000000
00000000
00001000
00000000
00000000
00100000
00000000
00000000
01000000
00000000
,
10000000
00010000
10000000
01000000
00010000
00001000
00000100
00000001
,
00001000
00000001
00000010
00001000
00000010
00000001
00000100
00000010
,
00010000
00001000
00010000
01000000
00010000
00001000
00100000
00010000
,
00100000
10000000
00100000
00010000
01000000
10000000
01000000
00010000
,
00001000
00000010
00000001
00000010
00001000
00000001
00000010
00001000
,
00010000
01000000
10000000
00010000
01000000
00100000
10000000
01000000
,
00010000
00001000
00010000
00100000
10000000
00100000
00010000
00001000
,
00000010
00000100
00000001
00000100
00001000
00000001
00000010
00000100
,
00001000
00000010
00000000
00000100
00000000
00000010
00001000
00000001
00000000
00001000
00000100
00000000
00010000
00001000
00010000
00001000
,
00010000
00000010
00001000
00000010
00000001
00000010
00001000
00000100
,
00001100
00011000
01010000
10010000
,
10000000
00100000
00010000
00100000
10000000
01000000
00010000
00000000
,
00011000
00000101
00001001
00001100
,
00000010
00000000
00001000
00000000
00000100
00000000
00010000
00000000
00002000
00000000
00000000
00000010
00000000
00000000
00013000
00000000
,
00001000
00011000
01010000
10010000
,
10000000
00000000
01000000
00000000
00010000
00000000
00001000
00000000
02000000
00000000
00000000
00100000
00000000
00000000
13000000
00000000
,
01000000
00010000
10000000
01000000
00010000
00001000
00000100
00000000
,
00000001
00000010
00000000
00000100
00000000
00010000
00000000
00001000
00000000
01000000
00000000
00000000
00010000
00000000
10000000
00000000
,
11000000
00000000
00110000
00000000
00001100
00000000
00000010
00000010
,
00000001
00000010
00000000
00000100
00000000
00010000
00000000
00001000
00000000
01000000
00000000
00100000
10000000
00000000
00000000
00000000
,
00010000
10000000
01000000
00100000
00001000
01000000
00001000
00010000
,
00100000
01000000
00000000
00010000
00000000
10000000
00000000
00010000
00000000
00100000
00000000
00000000
00001000
00000000
00010000
00000000
,
00011000
00000000
00000110
00000000
00011000
00000000
01000000
01000000
,
00010000
10000000
00000000
00010000
00000000
01000000
00000000
00001000
00000000
00100000
00000000
00001000
00010000
00000000
00000000
00000000
,
00001000
00010000
01000000
00010000
00001000
00000100
00001000
00010000
,
00002000
00000000
00000000
00000000
,
00000000
00000000
00000000
00000000
00000000
00000000
00000000
00020000
,
00000000
00000000
00000000
00000000
00000000
00003000
00000000
00000200
,
00000000
00000000
00000000
00000000
00000000
00000000
00000000
00030300
,
00000100
00000000
00001000
00000001
00000000
00000000
00000100
00000000
00000001
00001000
00000000
00000000
00000010
00000000
00010000
00001000
,
00000000
00100000
00010000
10000000
00100000
01000000
00001000
00010000
,
00001000
00000000
00100000
00010000
00000000
00000000
01000000
00000000
00100000
10000000
00000000
00000000
01000000
00000000
00100000
00010000
,
00100000
00001000
00010000
00000010
00001000
00000001
00000010
00000100
,
00001000
00001100
00000000
00010100
00000000
00011000
00000000
01001000
,
00000000
01010000
00000000
10010000
00000000
00100000
00100000
00100000
,
10010000
01000000
00100000
00000000
10010000
00000000
01100000
00000000
,
10000000
01000000
00010000
00001000
00000010
00000001
00001000
00000000
,
00001001
00000000
00000100
00000000
00000001
00000100
00001000
00000000
,
10010000
00000000
01000000
00000000
10000000
01000000
00010000
00000000
,
00001100
00000101
00000011
00001010
,
00011000
01010000
11000000
10100000
,
10000000
00010000
01000000
00100000
10000000
00010000
01000000
00001000
,
00010000
00000000
00000100
00000000
00001000
00000000
00000001
00000000
00000100
00000010
00000100
00000010
00000000
00000000
00000000
00000000
,
00001000
00000010
00000000
00010000
00000000
00001000
00000000
01000000
00000000
00010000
00000000
00000000
10000000
00000000
01000000
00000000
,
10000000
00100000
00010000
00001000
00000100
00000001
00001000
00000001
,
00000100
00000001
00000000
00001000
00000000
00000100
00000000
00010000
00000000
00000010
00000000
00000100
00000001
00000000
00000000
00000000
,
00001000
00000100
00000010
00010000
00100000
00001000
01000000
00100000
,
10000000
01000000
00000000
00100000
00000000
00010000
00000000
01000000
00000000
00001000
00000000
00000000
00010000
00000000
00000010
00000000
,
00000100
00000001
00000010
00000100
00001000
00010000
00100000
10000000
,
00100000
00010000
00000000
01000000
00000000
00001000
00000000
00010000
00000000
00000010
00000000
00001000
00000001
00000000
00000000
00000000
,
00001000
00000100
00000001
00000100
00010000
00001000
01000000
10000000
,
01000000
00010000
00000000
00001000
00000010
00000001
00000010
00000000
,
00001000
00000100
00010000
01000000
00000000
10010000
00000000
00000000
;

//--------------- dance-double - forcednature ----------------
#NOTEDATA:;
#STEPSTYPE:dance-double;
#DESCRIPTION:forcednature;
#DIFFICULTY:Challenge;
#METER:10;
#RADARVALUES:0.737086,0.765978,0.430853,0.101064,0.90426,970,889,81,19,0,0,0,0,0,0.737086,0.765978,0.430853,0.101064,0.90426,970,889,81,19,0,0,0,0,0;
#DISPLAYBPM:155.000;
#CHARTNAME:forcednature;
#CHARTSTYLE:;
#CREDIT:forcednature;
#NOTES:
00000000
00000000
00000000
00000000
,
00000000
00000000
00000000
00000000
,
00000000
00000000
00000000
00000000
,
00010000
00010000
00010000
00010000
,
00001000
00001000
00001000
00001000
,
00010000
00100000
10000000
00100000
00010000
00001000
00000000
01000000
,
00000000
00001000
00000100
00000010
00001000
00000001
00000000
00000010
,
00000000
00001000
00010000
01000000
10000000
00010000
00000000
00100000
,
00000000
00000000
00001000
00000000
00000010
00000000
00000001
00000000
00000010
00000001
00001000
00000100
00000010
00000100
00001000
00000001
,
00000010
00000000
00000001
00000000
00001000
00000010
00000000
00010000
00001000
00000000
01000000
00010000
00000000
10000000
00100000
00000000
,
02000000
00000000
03000000
00020000
00000000
00030000
20000000
00000000
30000000
02000000
00000000
03000000
00200000
00000000
00302000
00000000
,
00013000
00000000
00000010
00000000
00001000
00000001
00000000
00000100
00000010
00000000
00001000
00000100
00000000
00000010
00000001
00000000
,
00002000
00000000
00003000
00000002
00000000
00000003
00000020
00000000
00000030
00000200
00000000
00000300
00010000
00001000
00010000
00001000
,
01000000
00000000
00010000
00000000
00100000
01000000
00000000
00100000
00010000
00000000
01000000
00001000
00000000
00010000
00000100
00000000
,
00001000
00000000
00000010
00000000
00000100
00000001
00000000
00000010
00000100
00000000
00001000
00000001
00000000
00001000
00000010
00000000
,
00010000
00000000
00001000
00000000
01000000
00010000
00000000
10000000
00010000
00000000
10000000
00100000
00000000
10000000
01000000
00000000
,
00010000
00000000
00001000
00000000
00000010
00000001
00000000
00000100
00000001
00000000
00001000
00000001
00000000
00000100
00000010
00000000
,
00001000
00000100
00000010
00000001
00000000
00000000
00000100
00000010
00001000
00000001
00000000
00000000
00001000
00000010
00010000
00001000
,
00000000
00000000
01000000
00010000
10000000
00000000
00100000
00000000
10000000
01000000
00100000
01000000
10000000
00010000
00100000
00001000
,
01000000
00100000
10000000
00010000
00000000
00000000
01000000
00001000
00010000
00000100
00000000
00000000
00001000
00000010
00000100
00000001
,
00000000
00000000
00001000
00000100
00000010
00000001
00000000
00000000
00001000
00000001
00000100
00000001
00001000
00000001
00000010
00000100
,
00001000
00000010
00010000
00001000
00000000
00000000
01000000
00010000
00100000
00010000
00000000
00000000
10000000
00100000
10000000
00010000
,
00000000
00000000
00100000
00010000
01000000
00000000
00001000
00000000
00010000
00000010
00001000
00000001
00000100
00000010
00001000
00000100
,
00000010
00000001
00000100
00000010
00000000
00000000
00001000
00000100
00010000
00001000
00000000
00000000
01000000
00010000
10000000
00100000
,
10000000
00010000
01000000
00001000
00010000
00000000
00000100
00001000
00000001
00000100
00000001
00000100
00000001
00000100
00000001
00000100
,
00000001
00000000
00000000
00001000
00000000
00000000
00000000
00000000
00000000
00000100
00000000
00000000
00000000
00000000
00000000
00010000
00000000
00000000
00001000
00000000
00000000
00000000
00000000
00000000
01000000
00000000
00000000
00000000
00000000
00000000
01000000
00000000
00000000
00000000
00000000
00000000
00010000
00000000
10000000
00000000
00010000
00000000
10000000
00000000
00000000
00010000
00000000
00000000
,
10000000
11000000
00000000
01010000
00000000
00011000
00000000
00001100
,
00000000
00000101
00000000
00000011
00000000
00001001
00000000
00000101
,
00000000
00001100
00000000
00011000
00000000
01001000
00000000
01010000
,
00000000
00110000
00000000
10100000
00000000
11000000
00000000
01010000
,
00000000
00011000
00000000
00001010
00000000
00000011
00000000
00000110
,
00000000
00011000
00000000
01100000
00000000
10010000
00000000
01010000
,
00000000
00011000
00000000
00001100
00000000
00001001
00000000
00000100
,
00000110
00000000
00001001
00000000
00000001
00001000
00000001
00001000
,
00000100
00010000
00001000
01000000
00000000
00000000
00010000
10000000
01000000
00100000
00000000
00000000
00010000
01000000
00100000
10000000
,
00000000
00000000
01000000
00100000
00010000
00000000
01000000
00000000
00001000
00010000
00000100
00001000
00000001
00001000
00000010
00000100
,
00000001
00001000
00000100
00000010
00000000
00000000
00000001
00000010
00000100
00001000
00000000
00000000
00000010
00001000
00000100
00010000
,
00000000
00000000
00001000
01000000
00010000
00100000
00000000
00000000
00010000
10000000
00100000
10000000
01000000
00100000
00010000
01000000
,
00001000
00010000
00000100
00001000
00000000
00000000
00000001
00001000
00000010
00001000
00000000
00000000
00000001
00000100
00000001
00001000
,
00000000
00000000
00000100
00001000
00000100
00000000
00010000
00000000
00001000
00100000
00010000
10000000
00010000
10000000
01000000
00100000
,
00010000
01000000
00100000
10000000
00000000
00000000
00010000
00100000
01000000
10000000
00000000
00000000
00010000
01000000
00001000
00010000
,
00000100
00001000
00000001
00000100
00000000
00000010
00001000
00000010
00010000
00001000
00010000
00001000
00010000
00001000
00010000
00001000
,
00010000
00000000
01000000
10000000
00000000
00010000
01000000
00000000
00001000
00000000
00010000
00000100
00000000
00000000
00000000
00000000
,
00001000
00000001
00000000
00000100
00000010
00000000
00001000
00000100
00000000
00010000
00001000
00000000
00011000
00000000
00000000
00000000
,
10000000
00000000
00010000
00100000
00000000
00001000
00010000
00000010
00000100
00000000
00000100
00000000
00000001
00000000
00001000
00000000
,
00000010
00000000
00010000
00001000
01000000
00000000
00010000
00000000
00100000
00000000
00100000
00000000
01000000
00000000
10000000
00000000
,
00010000
00000000
00000000
01010000
00000000
00000000
02000000
03000000
00002000
00003000
00000000
00022000
00033000
00000000
00020000
00031000
,
00010000
00000100
00001000
00000001
00000100
00000000
00000010
00000000
00001000
00000000
00000000
00001001
00000000
00000000
00000000
00000000
,
00000001
00000010
00000100
00001000
00010000
00100000
01000000
10000000
,
11000000
00000000
10100000
00000000
00010000
01000000
00001000
00010000
,
00000100
00001000
00000000
00000001
00000000
00001000
00000000
00000010
00000000
00010000
00000000
00001000
01000000
00000000
00010000
00000000
,
10000000
01000000
00100000
00010000
00000000
01000000
00001000
00010000
00000100
00001000
00000001
00000100
00000010
00000000
00001000
00000000
,
00000001
00000010
00000000
00000100
00000000
00010000
00000000
00000100
00000000
00001000
00000000
00000010
00001000
00000000
00000001
00000000
,
00000100
00000001
00001000
00000010
00010000
00000000
00001000
00000000
01000000
00000000
00010000
00000000
10000000
00000000
01000000
00000000
,
00100000
00010000
00000000
01000000
00000000
00001000
00000000
00010000
00000000
00000100
00000000
00001000
00000001
00000000
00000100
00000000
,
00000010
00010000
00001000
00100000
00000000
00010000
10000000
01000000
00100000
00010000
00100000
01000000
10000000
00000000
00010000
00000000
,
01000000
00001000
00000000
00010000
00000000
00000100
00000000
00001000
00000000
00000001
00000000
00000100
00000010
00000000
00000000
00000000
,
00001000
00000001
00001000
00000001
00001000
00000000
00000010
00010000
00000010
00010000
00000010
00000000
00010000
00001000
00010000
00001000
,
00010000
00000000
00001000
00000000
01000000
00010000
00000000
00010000
00100000
00000000
00100000
00001000
00000000
00001000
00010000
00000000
,
00000010
00000000
00001000
00000000
00000001
00000010
00000000
00000010
00000100
00000000
00000100
00010000
00000000
00010000
00001000
00000000
,
01000000
00000000
00010000
00000000
10000000
01000000
00000000
01000000
00100000
00000000
00100000
00010000
00000000
00010000
01000000
00000000
,
00001000
00000000
00010000
00000000
00000010
00001000
00000000
00001000
00000001
00000000
00000001
00000010
00000000
00000010
00000100
00000000
,
00001000
00000000
00000100
00000000
00010000
00001000
00000000
00001000
01000000
00000000
01000000
00010000
00000000
00010000
10000000
00000000
,
01000000
00000000
00100000
00000000
01000000
10000000
00000000
10000000
00100000
00000000
00100000
01000000
00000000
01000000
00001000
00000000
,
00010000
00000000
00000010
00000000
00001000
00000001
00000000
00000001
00001000
00000000
00001000
00000100
00000000
00000100
00010000
00000000
,
00001000
00000000
01000000
00000000
00010000
10000000
00000000
10000000
00010000
00000000
00010000
01000000
00000000
01000000
00001000
00000000
,
00010000
00011000
00000000
00001010
00000000
00000011
00000000
00000101
,
00000000
00001001
00000000
00001100
00000000
00010100
00000000
00011000
,
00000000
10010000
00000000
01100000
00000000
11000000
00000000
01010000
,
00000000
00001100
00000000
00000101
00000000
00001001
00000000
00000110
,
00000010
00001010
00000000
00001100
00000000
00011000
00000000
01001000
,
00000000
00110000
00000000
11000000
00000000
01010000
00000000
00001100
,
00000000
00000101
00000000
00000011
00000000
00001010
00000000
00110000
,
00000000
10100000
00000000
01010000
00000000
00011000
00000000
00001100
,
00001000
00000001
00000000
00000100
00000000
00000010
00010000
00001000
00000000
01000000
00010000
00000000
10000000
00010000
10000000
00010000
,
01000000
00000000
00001000
00010000
00000100
00001000
00000001
00000000
00000100
00000000
00000010
00000000
00001000
00000000
00000100
00000000
,
00010000
00001000
01000000
00000000
00010000
00000000
00100000
01000000
10000000
00000000
00010000
00000000
01000000
00000000
02002000
03003000
,
00000000
00000000
01000000
00001000
00010000
00000000
00000100
00000000
00000010
00000000
00000000
00000101
00000000
00000000
00000001
00001000
,
00000100
00000000
00000010
00000001
00000100
00000000
00000001
00001000
00000100
00000000
00000000
00011000
00000000
00000000
01000000
00010000
,
00100000
00000000
01000000
10000000
00000000
00000000
00010000
01000000
00001000
00000000
00010000
00000100
00000000
00000000
00001000
00000000
,
00000010
00000000
00000100
00000001
00000000
00000010
00000100
00000000
00001000
00000000
00000001
00001000
00000000
00000000
00000010
00000000
,
00000100
00000000
00001000
00000000
00010000
00000000
01000000
00000000
10000000
00000000
00010000
01000000
00000000
00000000
00001000
00000000
,
00010000
00000000
00000100
00001000
00000000
00000000
00000001
00000100
00000001
00000000
00001000
00000000
00001010
00000000
00000000
00000000
,
00000001
00001000
00000000
00000100
00000000
00010000
00000000
00001000
00000000
01000000
00000000
00010000
10000000
00000000
01000000
00000000
,
00100000
00010000
10000000
01000000
00000000
10000000
00010000
01000000
00001000
00010000
00000010
00001000
00000001
00000000
00000100
00000000
,
00000010
00001000
00000000
00000001
00000000
00000010
00000000
00000100
00000000
00001000
00000000
00000001
00000100
00000000
00000000
00000000
,
00000010
00010000
00001000
01000000
00010000
00000000
00100000
00000000
01000000
00000000
10000000
00000000
00010000
00000000
01000000
00000000
,
00001000
00010000
00000000
00001000
00000000
01000000
00000000
00010000
00000000
10000000
00000000
01000000
00100000
00000000
00001000
00000000
,
00010000
00000010
00001000
00000001
00000000
00001000
00000010
00001000
00000100
00010000
00001000
01000000
00010000
00000000
10000000
00000000
,
01000000
00100000
00000000
01000000
00000000
10000000
00000000
00010000
00000000
01000000
00000000
00001000
00010000
00000000
00000000
00000000
,
00000100
00001000
00000100
00001000
00000100
00000000
01000000
00010000
01000000
00010000
01000000
00000000
00001000
00010000
00001000
00010000
,
00002000
00000000
00000000
01000000
00000000
00000000
00010000
00000000
00000000
00100000
00000000
00000000
00010000
00000000
00010000
00000000
,
00010000
00000000
00000000
01000000
00000000
00000000
00010000
00000000
00000000
00100000
00000000
00000000
00010000
00000000
00013000
00000000
,
00020000
00000000
00000000
00000010
00000000
00000000
00001000
00000000
00000000
00000100
00000000
00000000
00001000
00000000
00001000
00000000
,
00001000
00000000
00000000
00000010
00000000
00000000
00001000
00000000
00000000
00000100
00000000
00000000
00001000
00000000
00031000
00000000
,
00010000
00001000
01000000
00010000
00000000
00000000
10000000
01000000
00100000
01000000
00000000
00000000
10000000
00010000
01000000
00001000
,
00000000
00000000
00010000
00000010
00001000
00000000
00000001
00000000
00000100
00000001
00001000
00000100
00010000
00001000
01000000
00010000
,
10000000
01000000
00100000
00010000
00000000
00000000
01000000
00001000
00010000
00000100
00000000
00000000
00001000
00000001
00001000
00000010
,
00010000
00001000
00100000
00010000
00000000
10000000
01000000
00100000
01000000
10000000
00010000
01000000
00001000
00010000
00000010
00001000
,
00000001
00000011
00000000
00001100
00000000
00110000
00000000
11000000
,
00000000
10100000
00000000
01010000
00000000
00000001
00000010
00000100
,
00001000
00000110
00001001
00000000
00011000
00000000
00001001
00000001
,
00001000
00000100
00001000
00000100
00001000
00000000
00000010
00000000
00010000
00000000
00001000
00000000
00100000
00000000
00010000
00000000
,
10000000
00000000
00000000
01000000
00000000
00000000
00010000
00000000
00001000
00000000
00000000
00000100
00000000
00000001
00000000
00000010
,
00001000
00000000
00000000
00010000
00000000
00000000
01000000
00000000
10000000
00000000
00000000
00100000
00000000
00010000
00000000
00001000
,
00000100
00000000
00000000
00000100
00000001
00000000
00000000
00000001
00000010
00000000
00000000
00000010
00001000
00000000
00000000
00001000
,
00010000
00000000
00000000
00010000
01000000
00000000
00000000
01000000
10000000
00000000
00000000
10000000
00100000
00000000
00000000
00100000
,
00010000
00100000
10000000
01000000
00001000
00010000
00000010
00000001
,
00000100
00000000
00010000
00000000
00001000
00000000
00100000
00000000
10000000
00010000
10000000
00010000
00000000
00000000
00000000
00000000
,
10000000
00100000
00000000
01000000
00000000
00010000
00000000
00100000
00000000
00001000
00000000
00010000
00000010
00000000
00001000
00000000
,
00000001
00000010
00000001
00000010
00000000
00000100
00010000
00001000
01000000
00010000
10000000
00100000
10000000
00000000
01000000
00000000
,
00100000
00010000
00000000
01000000
00000000
00001000
00000000
00010000
00000000
00000100
00000000
00001000
00000001
00000000
00000100
00000000
,
00000010
00001000
00000010
00001000
00000010
00000000
00000100
00000000
00000001
00000000
00000010
00000000
00000100
00000000
00010000
00000000
,
00001000
00000000
00000000
01000000
00000000
00010000
00000000
10000000
00000000
01000000
00000000
00100000
00010000
00000000
01000000
00000000
,
00001000
00010000
00000100
00001000
00000000
00000001
00000100
00000001
00001000
00000010
00010000
00001000
00100000
00000000
01000000
00000000
,
10000000
00010000
00000000
01000000
00000000
00001000
00000000
00010000
00000000
00000010
00000000
00001000
00000001
00000000
00000000
00000000
,
00000100
00000010
00000100
00000010
00000100
00000000
00000001
00000100
00000001
00000100
00000001
00000000
00001000
00000100
00001000
00000100
,
00001000
00000001
00000000
00000100
00010000
01000000
10000000
00000000
,
01000000
00001000
00000100
00000001
00000000
00001001
00000000
00000000
;
