#TITLE:Uptown Funk ft. Bruno Mars;
#SUBTITLE:;
#ARTIST:Mark Ronson;
#TITLETRANSLIT:;
#SUBTITLETRANSLIT:;
#ARTISTTRANSLIT:;
#GENRE:;
#CREDIT:;
#BANNER:;
#BACKGROUND:;
#LYRICSPATH:;
#CDTITLE:;
#MUSIC:[Directions] - Uptown Funk.ogg;
#OFFSET:-0.138208;
#SAMPLESTART:64.819023;
#SAMPLELENGTH:15.000000;
#SELECTABLE:YES;
#BPMS:0.000000=115.000000
;
#STOPS:
;
#BGCHANGES:;
#KEYSOUNDS:;
#ATTACKS:;

//---------------dance-single - ----------------
#NOTES:
     dance-single:
     :
     Hard:
     6:
     0.369266,0.426383,0.237871,0.198225,0.083255,326.000000,296.000000,30.000000,25.000000,0.000000,0.000000,0.369266,0.426383,0.237871,0.198225,0.083255,326.000000,296.000000,30.000000,25.000000,0.000000,0.000000:
0000
0000
0000
0000
,
0000
0000
0000
0000
,
0000
0000
0000
0000
,
0000
0000
0000
0000
,
0000
0000
0000
0000
,
0000
0000
0000
0000
,
0000
0000
0000
0000
,
2002
0000
0000
0000
0000
0000
0000
0000
3000
0000
0000
0000
0013
0100
0000
0000
,
0010
0010
0001
0001
,
1000
1000
0010
0110
,
1000
1000
0001
0001
,
0010
0010
0100
0110
,
0002
0103
2000
3100
,
0002
0000
0013
0000
2000
0000
3010
0001
,
1000
1100
0001
0011
,
0100
0000
0110
0000
1000
0001
0010
0000
,
0200
0000
0300
1000
0001
0000
0101
0000
,
1000
0100
0010
0000
0001
1000
0010
0000
,
0200
0000
0300
0010
1000
0000
1001
0000
,
0001
0010
0100
0000
1000
0001
0100
0000
,
0020
0000
0030
1000
0001
0000
0011
0000
,
1000
0100
0001
0000
0001
0100
1000
0000
,
0002
0000
0003
0100
0010
0000
1010
0000
,
0001
0100
1000
0000
1000
0100
0001
0000
,
0020
0000
0001
0000
0031
1000
0020
0000
,
1030
0000
1000
0000
1000
0100
0020
0000
,
0130
0000
0100
0000
0100
1000
0020
0000
,
0130
0000
0100
0000
0100
0001
2000
0000
,
3010
0010
1000
1000
0001
0001
0010
0010
,
0001
0001
0100
0100
0010
0010
1000
1000
,
0100
1000
0001
0010
0100
1000
0010
0100
,
2002
0000
0000
0000
0000
0000
0000
0000
0003
0000
0000
0000
3100
0010
0000
0000
,
1001
0000
0100
0000
1000
0000
0001
0010
,
0001
0000
0000
0001
0000
0000
1000
0000
0010
0000
0000
0010
0000
0000
0100
0000
,
1001
0000
0000
0000
1000
0000
0000
0000
0100
0000
0000
0100
1000
0000
0000
0000
,
0001
0000
0010
0001
0000
0010
0001
0000
2000
0000
0010
0000
0010
0000
3010
0000
,
0100
0000
1010
0000
0001
0000
0010
0100
,
1000
0000
0000
1000
0000
0000
0001
0000
0010
0000
0000
0010
0000
0000
0100
0000
,
1001
0000
0000
0000
1000
0000
0000
0000
0001
0000
0000
0100
0001
0000
0000
0000
,
1000
0000
0001
0100
0000
0001
0100
0000
0020
0000
1000
0000
1000
0000
1030
0000
,
0100
0000
0011
0000
2000
0001
0001
3001
,
1000
0000
0011
0000
0002
1000
1000
1003
,
0010
0000
1100
0000
2000
0001
0001
3001
,
0011
0000
0000
0000
1100
0000
0000
0000
1010
0000
0000
0000
1000
0001
0000
0000
,
0010
0000
1100
0000
0001
1000
0100
0000
,
1000
0001
0010
0100
1000
0000
0110
0000
,
1000
0000
0101
0000
1000
0001
0010
0000
,
0001
0100
0010
1000
0002
0000
1003
0000
,
1000
0000
0110
0000
0001
1000
0100
0000
,
1000
0010
0001
0010
1000
0000
0001
0010
,
0100
0000
0011
0000
1000
0010
0001
0000
,
0010
0000
0010
0000
0100
0000
0100
0000
0001
0000
0001
0000
1000
0200
0000
0000
,
0310
0000
0110
0000
1000
0010
0001
0000
,
0010
1000
0001
0100
0010
0000
1000
0100
,
0010
0000
0110
0000
0001
0100
1000
0000
,
0100
0000
0100
0000
0001
0000
0001
0000
1000
0100
0010
0002
0000
0000
1003
0000
,
0010
0000
0110
0000
0001
0010
1000
0000
,
0010
0001
0100
0010
1000
0000
0100
0010
,
0001
0000
1000
0000
0001
1000
0100
0000
,
1000
0010
1000
0010
0000
0100
0000
0010
0100
0010
0000
0000
1001
0000
0000
0000
;

//---------------dance-single - ----------------
#NOTES:
     dance-single:
     :
     Challenge:
     9:
     0.565226,0.615887,0.364735,0.190296,0.543138,499.000000,453.000000,46.000000,24.000000,0.000000,0.000000,0.565226,0.615887,0.364735,0.190296,0.543138,499.000000,453.000000,46.000000,24.000000,0.000000,0.000000:
0000
0000
0000
0000
,
0000
0000
0000
0000
,
0000
0000
0000
0000
,
0000
0000
0000
0000
,
0001
0000
0000
0001
0000
0000
0000
0000
1000
0000
0000
1000
0000
0000
0000
0000
,
0010
0000
0000
0010
0000
0000
0200
0000
0000
0000
0301
0000
1000
0000
0000
0000
,
0001
0000
0000
0001
0000
0000
0000
0000
0010
0000
0000
0010
0000
0000
0000
0000
,
0200
0000
0000
0000
0000
0000
0000
0000
0000
0000
0000
0000
1300
0001
0000
0000
,
0100
0000
0000
0110
0000
0000
1000
0000
0100
0000
0000
0110
0000
0000
0001
0000
,
0100
0000
0000
0110
0000
0010
1000
0000
0100
0000
0000
0110
0000
0000
0000
0000
,
0001
0000
0000
0101
0000
0001
1000
0000
0010
0000
0000
1010
0000
0000
1000
0000
,
0001
0000
0000
0011
0000
0000
0010
0000
0100
0000
1000
0001
0000
1000
0000
0000
,
0020
0000
0000
1030
0001
0000
0000
0000
0020
0000
0000
0031
1000
0000
0000
0000
,
0010
0100
0010
0100
0000
0100
0001
0000
1000
0100
0000
0000
0110
0000
0001
0000
,
1000
0000
0000
1010
0000
0000
0100
0000
0001
0000
0010
0001
0000
0000
0001
0010
,
0100
0000
1000
0001
0000
1000
0001
0000
0100
0010
0200
0000
0301
1000
0100
0000
,
0020
0000
0000
0000
0001
0000
0100
0000
0130
0000
0000
0000
0110
0000
1000
0001
,
0200
0000
0000
0310
0000
0010
1000
0000
0001
1000
0000
0100
0000
0100
0010
0000
,
0200
0000
0000
0000
0010
0000
1000
0000
1300
0000
0000
0000
1010
0000
0100
0001
,
1000
0000
1000
0100
0000
0100
0010
0000
0001
1000
0000
0010
0000
0010
0100
0000
,
0020
0000
1000
0100
0130
0000
0110
0000
,
0001
0010
0000
0001
0000
0001
0010
0000
0100
1000
0000
0100
0000
0100
1000
0000
,
0002
0000
0000
0000
0010
0000
1000
0000
1003
0000
0000
0000
0110
0000
1000
0001
,
0100
0000
0000
0110
0000
0000
0010
0000
1000
0000
0001
0010
0100
0000
0000
0000
,
1000
0000
1000
0000
1000
0100
0220
0330
,
0001
0000
0001
0000
0001
0100
0220
0330
,
0010
0000
0010
0000
0010
0100
2002
3003
,
1000
0000
1000
0000
0100
0000
0100
0000
0010
0001
0010
0001
2000
0000
0000
3001
,
0100
0110
0001
0011
1000
1100
0001
0101
,
0010
0110
1000
1100
0001
0011
1000
1010
,
0100
0101
0010
1100
0001
0110
1000
0110
,
2002
0000
0000
0000
0000
0000
0000
0000
3003
0000
0000
0000
0001
0100
0000
0000
,
0001
0010
0100
0010
0000
0000
0001
0010
0100
0010
0000
0000
0001
0100
0010
1000
,
0000
0000
0101
0000
0000
0000
1000
0000
0100
0000
0000
0000
1000
0100
0010
0001
,
2000
0000
0000
0000
3001
0000
0000
0000
0100
0000
0000
0100
0001
0000
0000
0000
,
1000
0000
0001
0010
0000
0001
0010
0000
0100
0000
1000
0001
1000
0001
1000
0001
,
1000
0010
0100
0010
0000
0000
1000
0010
0100
0010
0000
0000
1000
0100
0010
0001
,
0000
0000
1100
0000
0000
0000
0001
0000
0010
0000
0000
0000
0001
0100
0010
1000
,
0002
0000
0000
0000
0013
0000
0000
0000
0001
0000
0000
0001
0100
0000
0000
0000
,
0010
0000
1000
0001
0000
1000
0001
0000
0010
0000
0001
0100
0001
0100
0001
0100
,
0010
0000
0000
0000
0101
0000
0000
0000
1000
0000
0001
0010
0001
0010
0001
0010
,
0100
0000
0000
0000
0011
0000
0000
0000
1000
0000
0001
0100
0001
0100
0001
0100
,
0010
0000
0000
0000
1001
0000
0000
0000
0001
0000
1000
0100
1000
0100
1000
0100
,
0010
0000
0110
0000
0001
0000
1100
0000
1000
0000
0101
0000
0010
0100
0000
0000
,
0001
0000
0010
0000
1000
0000
0010
0000
0001
0000
0010
0100
0000
1000
0100
0000
,
1000
0000
0010
0000
0001
0000
0010
0100
0000
0010
1000
0000
0001
0010
0100
1000
,
0010
0000
0001
0000
0010
0000
1000
0000
0010
0000
0100
0010
0000
0001
0010
0000
,
1000
0000
0100
0000
0010
0000
0001
1000
0001
0100
0010
2000
0000
0000
3001
0000
,
1000
0000
0100
0000
0001
0000
0100
0000
1000
0000
0100
0010
0000
0001
0010
0000
,
0001
0000
0100
0000
1000
0000
0100
0010
0000
0100
0001
0000
1000
0100
0010
0001
,
0100
0000
1000
0000
0100
0000
0001
0000
0100
0000
0010
0100
0000
1000
0100
0000
,
0110
0000
1010
0000
1001
0000
0011
0000
0110
0000
1100
0000
1000
0002
0000
0000
,
1003
0000
0100
0000
0001
0000
0100
0000
1000
0000
0100
0010
0000
0001
0100
0000
,
1000
0000
0100
0000
0001
0000
0100
0010
0000
1000
0010
0000
0100
0001
0010
0100
,
1000
0000
0010
0000
0001
0000
0010
0000
1000
0000
0010
0100
0000
0001
0010
0000
,
0001
0000
0001
0000
1000
0000
1000
0000
0001
0010
0100
1000
0010
0100
0010
0100
,
0001
0000
0100
0000
1000
0000
0100
0000
0001
0000
0100
0010
0000
1000
0001
0000
,
1000
0000
0100
0000
0001
0000
0100
1000
0000
0001
0010
0000
0100
1000
0010
0100
,
0001
0000
0100
0000
1000
0000
0100
0000
0001
0000
0100
0010
2000
0000
3001
0000
,
0010
0100
0010
0100
0000
0110
0000
0100
1000
0010
0000
0000
1001
0000
0000
0000
;

//---------------dance-double - ----------------
#NOTES:
     dance-double:
     :
     Hard:
     6:
     0.355673,0.426383,0.198225,0.134793,0.067397,314.000000,289.000000,25.000000,17.000000,0.000000,0.000000,0.355673,0.426383,0.198225,0.134793,0.067397,314.000000,289.000000,25.000000,17.000000,0.000000,0.000000:
00000000
00000000
00000000
00000000
,
00000000
00000000
00000000
00000000
,
00000000
00000000
00000000
00000000
,
00000000
00000000
00000000
00000000
,
00000000
00000000
00000000
00000000
,
00000000
00000000
00000000
00000000
,
00000000
00000000
00000000
00000000
,
20020000
00000000
00000000
00000000
00000000
00000000
00000000
00000000
30030000
00000000
00000000
00000000
00010000
10000000
00000000
00000000
,
01000000
01000000
00010000
00010000
,
00001000
00000000
00001000
00000000
00000010
00000000
00000010
00000001
,
00000100
00000100
00001000
00001000
,
00010000
00010000
00100000
00100000
,
20000000
31000000
00200000
00310000
,
00002000
00003100
00000020
00000031
,
00000100
00000110
00000010
00010010
,
00010000
00011000
00001000
01001000
,
02000000
00000000
03000000
00100000
10000000
00000000
10010000
00000000
,
10000000
01000000
00010000
00000000
00001000
00000100
00000001
00000000
,
00000020
00000000
00000030
00000001
00001000
00000000
00000101
00000000
,
00000001
00000100
00001000
00000000
00010000
01000000
10000000
00000000
,
00200000
00000000
00300000
10000000
00010000
00000000
10010000
00000000
,
10000000
00100000
00010000
00000000
00001000
00000010
00000001
00000000
,
00000200
00000000
00000300
00000010
00000100
00000000
00001001
00000000
,
00000001
00000010
00001000
00000000
00010000
00100000
10000000
00000000
,
00100000
01000000
00001000
00021000
,
00030100
00000010
00001000
00012000
,
01003000
00100000
00010000
00021000
,
00030010
00000100
00001000
00012000
,
00103000
00010000
00100000
00010000
10000000
01000000
10000000
01000000
,
00010000
00001000
00010000
00001000
00000100
00000001
00000100
00000001
,
00000010
00000100
00010000
00001000
01000000
00010000
10000000
01000000
,
02200000
00000000
03300000
10010000
,
10000000
00000000
01000000
00000000
00100000
00000000
00001000
00010000
,
00000100
00000000
00000000
00000100
00000000
00000000
00000010
00000000
00000001
00000000
00000000
00000001
00000000
00000000
00001000
00000000
,
00000110
00000000
00000000
00000000
00000100
00000000
00000000
00000000
00000010
00000000
00000000
00000010
00000100
00000000
00000000
00000000
,
00000001
00000000
00000010
00000001
00000000
00000010
00000001
00000000
00000100
00000000
00001000
00000000
00010000
00000000
01000000
00000000
,
10000000
00000000
00010000
00000000
00100000
00000000
01000000
00010000
,
00001000
00000000
00000000
00001000
00000000
00000000
00010000
00000000
00100000
00000000
00000000
00100000
00000000
00000000
10000000
00000000
,
10010000
00000000
00000000
00000000
00010000
00000000
00000000
00000000
00100000
00000000
00000000
00100000
00001000
00000000
00000000
00000000
,
00010000
00000000
00001000
00010000
00000000
00001000
00010000
00000000
00000100
00000000
00000010
00000000
00000001
00000000
00000100
00000000
,
00001000
00000000
00011000
00000000
00010000
01000000
10000000
00100000
,
00010000
00000000
00011000
00000000
00001000
00000100
00000001
00000010
,
00001000
00000000
00011000
00000000
00010000
01000000
10000000
00100000
,
01100000
00101000
00011000
00000110
,
00000001
00000000
00000100
00000000
00001000
00010000
01000000
00000000
,
00100000
00010000
00001000
00000100
00000010
00000000
00000001
00000100
,
00001000
00000000
00010000
00000000
00001000
00000100
00000010
00000000
,
00001000
00000100
00010000
00001000
02000000
00000000
03100000
00000000
,
10000000
00000000
01000000
00000000
00010000
00001000
00000100
00000000
,
00000010
00001000
00010000
01000000
00100000
00000000
10000000
01000000
,
00010000
00000000
00001000
00000000
00010000
01000000
00100000
00000000
,
00010000
00000000
01000000
00000000
00001000
00000000
00010000
00000000
00000100
00000000
00000010
00000000
00000001
00001000
00000000
00000000
,
00000010
00000000
00000100
00000000
00001000
00010000
01000000
00000000
,
00010000
00001000
00000100
00001000
00010000
00000000
00100000
00100000
,
01000000
00000000
00100000
00000000
00010000
00001000
00000100
00000000
,
00001000
00010000
01000000
00010000
00001000
00000010
00000001
00000100
,
00000010
00000000
00010000
00000000
00001000
01000000
00100000
00000000
,
00010000
00001000
01000000
00010000
00100000
00000000
01000000
00010000
,
00001000
00000000
00000100
00000000
00000001
00000010
00000100
00000000
,
00001000
00000100
00001000
00000100
00000000
00010000
00000000
00001000
00010000
00001000
00000000
00000000
00011000
00000000
00000000
00000000
;

//---------------dance-double - ----------------
#NOTES:
     dance-double:
     :
     Challenge:
     9:
     0.518784,0.615887,0.103077,0.150651,0.463848,458.000000,445.000000,13.000000,19.000000,0.000000,0.000000,0.518784,0.615887,0.103077,0.150651,0.463848,458.000000,445.000000,13.000000,19.000000,0.000000,0.000000:
// measure 0
00000000
00000000
00000000
00000000
,  // measure 1
00000000
00000000
00000000
00000000
,  // measure 2
00000000
00000000
00000000
00000000
,  // measure 3
00000000
00000000
00000000
00000000
,  // measure 4
00000000
00000000
00000000
00000000
,  // measure 5
00000000
00000000
00000000
00000000
,  // measure 6
00000000
00000000
00000000
00000000
,  // measure 7
20000000
00000000
00000000
00000000
00000000
00000000
00000000
00000000
00000000
00000000
00000000
00000000
31000000
00100000
00000000
00000000
,  // measure 8
00010000
00000000
00000000
00010000
00100000
00000000
01000000
00000000
00010000
00000000
00000000
00010000
00001000
00000000
00000100
00000000
,  // measure 9
00000010
00000000
00000000
00000010
00001000
00000000
00000100
00000000
00000010
00000000
00000000
00000010
00000001
00000000
00000000
00000000
,  // measure 10
00001000
00000000
00000000
00001000
00000010
00000000
00000100
00000000
00001000
00000000
00000000
00001000
00010000
00000000
01000000
00000000
,  // measure 11
00100000
00000000
00000000
00100000
00010000
00000000
01000000
00000000
00100000
00000000
00000000
00100000
10000000
00000000
00000000
00000000
,  // measure 12
00200000
00000000
00000000
00310000
00001000
00000000
00000000
00000000
00000200
00000000
00000000
00001300
00010000
00000000
00000000
00000000
,  // measure 13
02000000
00000000
00000000
03010000
00001000
00000000
00000000
00000000
00000020
00000000
00000000
00001030
00010000
00000000
00000000
00000000
,  // measure 14
01000000
00000000
00000000
11000000
00000000
00000000
10000000
00000000
00100000
00000000
10000000
00010000
00000000
00000000
10000000
01000000
,  // measure 15
00100000
00000000
00010000
00100000
00000000
00100000
00010000
00000000
01000000
00100000
00010000
00000000
00001000
00000000
00010000
00000000
,  // measure 16
00020000
00000000
00000000
00000000
00000000
00000000
01030000
00000000
10000000
00000000
00000000
00000000
10010000
00000000
00010000
10000000
,  // measure 17
01000000
00000000
10000000
00100000
00000000
01000000
00010000
00000000
00100000
00001000
00000000
00010000
00000000
00000100
00010000
00000000
,  // measure 18
00002000
00000000
00000000
00000000
00000000
00000000
00003010
00000000
00000001
00000000
00000000
00000000
00001001
00000000
00000001
00001000
,  // measure 19
00000100
00000000
00010000
00000010
00000000
00001000
00000100
00000000
00010000
00001000
00000000
00100000
00000000
00100000
00001000
00000000
,  // measure 20
00020000
00000000
00000000
00130000
10000000
00000000
01100000
00000000
,  // measure 21
10000000
01000000
00000000
00010000
00000000
01000000
10000000
00000000
00100000
00010000
00000000
00001000
00000000
00001000
00010000
00000000
,  // measure 22
00002000
00000000
00000000
00000000
00000000
00000000
00003010
00000000
00000001
00000000
00000000
00000000
00000110
00000000
00000001
00000100
,  // measure 23
00000010
00000000
00001000
00000010
00000000
00000100
00000010
00000000
00001000
00000000
00000100
00010000
00001000
00000000
00000000
00000000
,  // measure 24
00010000
01000000
10000000
00100000
00010000
00001000
00000020
00000000
,  // measure 25
00001030
00000010
00000001
00000100
00001000
00010000
00200000
00000000
,  // measure 26
00310000
00100000
10000000
01000000
00010000
00001000
00000020
00000000
,  // measure 27
00001030
00000010
00000001
00000100
00001000
00010000
00200000
00000000
,  // measure 28
10300000
01000000
00100000
00001000
00010000
00000100
00000010
00000001
,  // measure 29
00000001
00000100
00000010
00010000
00001000
01000000
00100000
10000000
,  // measure 30
01000000
00010000
00001000
00000100
00001000
00010000
01000000
00100000
,  // measure 31
00022000
00000000
00000000
00000000
00000000
00000000
00000000
00000000
00000000
00000000
00033000
00000000
00001000
00010000
00000000
00000000
,  // measure 32
00000100
00001000
00000100
00001000
00000000
00000000
00000100
00000010
00000100
00000010
00000000
00000000
00000001
00001000
00000001
00001000
,  // measure 33
00000000
00000000
00001001
00000000
00000000
00000000
00000001
00000000
00000100
00000000
00000000
00000000
00001000
00010000
00001000
00010000
,  // measure 34
02000000
00000000
00000000
00000000
03010000
00000000
00000000
00000000
00001000
00000000
00000000
00001000
01000000
00000000
00000000
00000000
,  // measure 35
00100000
00000000
10000000
00010000
00000000
00010000
10000000
00000000
00100000
00000000
10000000
01000000
10000000
01000000
10000000
01000000
,  // measure 36
00100000
00010000
00100000
00010000
00000000
00000000
00100000
01000000
00100000
01000000
00000000
00000000
10000000
00010000
10000000
00010000
,  // measure 37
00000000
00000000
10010000
00000000
00000000
00000000
10000000
00000000
00100000
00000000
00000000
00000000
00010000
00001000
00010000
00001000
,  // measure 38
00000020
00000000
00000000
00000000
00001030
00000000
00000000
00000000
00010000
00000000
00000000
00010000
00000010
00000000
00000000
00000000
,  // measure 39
00000100
00000000
00000001
00001000
00000000
00001000
00000001
00000000
00000100
00000000
00000001
00000010
00000001
00000010
00000001
00000010
,  // measure 40
00000100
00000000
00010000
00000010
00000000
00000010
00000100
00000000
00001000
00000000
00010000
00001000
00010000
00001000
00010000
00001000
,  // measure 41
00010000
00000000
01000000
00100000
00000000
00100000
00001000
00000000
00010000
00000000
00001000
00010000
00001000
00010000
00001000
00010000
,  // measure 42
00001000
00000000
00000010
00000100
00000000
00000100
00010000
00000000
00001000
00000000
00010000
00001000
00010000
00001000
00010000
00001000
,  // measure 43
00011000
01010000
00011000
00001100
,  // measure 44
00000001
00000000
00000010
00000000
00001000
00000000
00000010
00000000
00000100
00000000
00010000
00001000
00010000
00000000
00001000
00000000
,  // measure 45
01000000
00000000
00100000
00000000
00010000
00000000
00100000
01000000
00100000
00000000
10000000
00000000
01000000
00100000
01000000
00100000
,  // measure 46
00010000
00000000
00001000
00000000
00000100
00000000
00001000
00000000
00010000
00000000
00001000
00000100
00001000
00000000
00000100
00000000
,  // measure 47
00000010
00000000
00000001
00000000
00000100
00000000
00001000
00000000
00010000
00001000
01000000
00200000
00000000
00000000
10300000
00000000
,  // measure 48
10000000
00000000
01000000
00000000
00010000
00000000
01000000
00000000
00100000
00000000
00001000
00010000
00001000
00000000
00010000
00000000
,  // measure 49
00000010
00000000
00000100
00000000
00001000
00000000
00000100
00000010
00000100
00000000
00000001
00000000
00000010
00000100
00000010
00000100
,  // measure 50
00001000
00000000
00010000
00000000
00100000
00000000
00010000
00000000
00001000
00000000
00010000
00100000
00010000
00000000
00100000
00000000
,  // measure 51
01000000
00000000
10000000
00000000
00100000
00000000
00010000
00000000
00001000
00000000
00000100
00000000
00000001
00000020
00000000
00000000
,  // measure 52
00001030
00000000
00000010
00000000
00000001
00000000
00000100
00000000
00001000
00000000
00010000
00100000
01000000
00000000
00010000
00000000
,  // measure 53
10000000
00000000
01000000
00000000
00100000
00000000
00010000
00001000
00000100
00000000
00000010
00000000
00000100
00010000
00001000
00100000
,  // measure 54
01000000
00000000
10000000
00000000
00100000
00000000
00010000
00000000
00100000
00000000
01000000
00010000
00100000
00000000
01000000
00000000
,  // measure 55
00010000
00000000
00010000
00000000
00001000
00000000
00001000
00000000
01000000
00100000
10000000
01000000
00100000
01000000
00100000
01000000
,  // measure 56
00010000
00000000
01000000
00000000
10000000
00000000
00100000
00000000
00010000
00000000
00001000
00000100
00000010
00000000
00001000
00000000
,  // measure 57
00000001
00000000
00000010
00000000
00000100
00000000
00001000
00010000
00100000
00000000
01000000
00000000
00100000
00001000
00010000
00000100
,  // measure 58
00000010
00000000
00000001
00000000
00000100
00000000
00001000
00000000
00000100
00000000
00000010
00001000
00000100
00000000
00010000
00000000
,  // measure 59
00001000
00010000
01000000
10000000
00000000
00010000
00000000
10000000
01000000
00010000
00000000
00000000
00011000
00000000
00000000
00000000
;
