#TITLE:Upside Down;
#SUBTITLE:;
#ARTIST:Paloma Faith;
#TITLETRANSLIT:;
#SUBTITLETRANSLIT:;
#ARTISTTRANSLIT:;
#GENRE:;
#CREDIT:;
#BANNER:[Directions] - Upside Down-bn.png;
#BACKGROUND:[Directions] - Upside Down-bg.png;
#LYRICSPATH:;
#CDTITLE:;
#MUSIC:[Directions] - Upside Down.ogg;
#OFFSET:0.660000;
#SAMPLESTART:42.976997;
#SAMPLELENGTH:15.000000;
#SELECTABLE:YES;
#BPMS:0.000000=88.000000
,49.000000=44.000000
,57.000000=176.000000
,121.000000=88.000000
,151.000000=44.000000
,152.000000=176.000000
;
#STOPS:
;
#BGCHANGES:;
#KEYSOUNDS:;
#ATTACKS:;

//---------------dance-single - ----------------
#NOTES:
     dance-single:
     :
     Challenge:
     10:
     0.755242,1.689012,0.171986,0.246762,1.312326,707.000000,684.000000,23.000000,33.000000,0.000000,0.000000,0.755242,1.689012,0.171986,0.246762,1.312326,707.000000,684.000000,23.000000,33.000000,0.000000,0.000000:
0000
0000
0000
0000
0000
0000
0001
0000
0000
0010
0000
0000
0100
0010
1000
0100
0000
0010
1000
0000
0000
0100
0000
0000
,
0010
0100
0001
0010
0000
0100
0010
0000
0000
1000
0000
0000
0001
1000
0100
0001
0000
1000
0100
0000
0000
0001
0000
0000
,
1000
0001
0010
1000
0000
0001
0001
0000
0000
0100
0000
0000
0010
0100
1000
0010
0000
0100
1000
0000
0000
0010
0000
0000
,
0100
0010
0001
0100
0000
0010
0100
0000
0000
1000
0000
0000
0001
1000
0010
0001
0000
1000
0010
0000
0000
0000
0000
0000
,
0000
0000
0000
0000
0000
0000
0100
0000
0000
0010
0000
0000
0001
0000
0000
0100
0000
1000
0000
0000
0010
0000
0000
0001
,
0000
0000
0000
0100
0000
1000
0011
0000
0000
1100
0000
0011
0000
0000
0101
0000
0000
1010
0000
0000
1000
0100
0000
0010
,
0001
0000
0010
0100
0010
0100
0010
0000
0000
0100
0000
0000
0100
0000
0000
1000
0000
0100
0000
0000
0010
0000
0000
0001
,
0000
0000
0010
0001
0000
0001
0100
0000
0000
1000
0000
0100
0000
0000
0010
0000
0000
0001
0000
0000
0100
1000
0000
1000
,
0100
0000
0010
0001
0010
0100
0020
0000
0000
0031
0000
0000
0200
0000
0000
1300
0000
0000
2000
0000
0000
3010
0000
0000
,
0002
0000
0000
0103
0000
0000
0200
0000
0000
0301
0000
0000
0020
0000
0000
1030
0000
0100
0000
0000
0100
0001
0000
0100
,
0001
0000
0010
1000
0001
0100
0002
0000
0000
0103
0000
0000
2000
0000
0000
3010
0000
0000
0020
0000
0000
0031
0000
0000
,
0200
0000
0000
1300
0000
0000
2000
0000
0000
3100
0000
0000
0002
0000
0000
0013
0000
1000
0000
0000
1000
0100
0000
1000
,
0100
0000
0000
0000
0001
0000
0010
0000
0100
0000
1000
0000
1000
0000
0010
0001
0000
0000
1000
0000
0100
0001
0000
0010
1000
0100
0010
0100
0000
0100
1000
0000
0010
0001
0000
0110
0100
0000
1000
0010
0000
0000
0100
0000
0001
0010
0000
1000
,
0100
0001
1000
0001
0000
0001
0100
0000
1000
0010
0000
1001
0100
0010
0100
0010
0000
0000
0001
1000
0001
1000
0000
0000
0100
0001
0100
0001
0000
0000
0010
1000
0010
1000
0000
0100
0010
0000
0001
0100
0000
1000
0100
0000
0010
0001
0000
0100
,
1000
0000
0000
1000
0000
0000
1000
0000
0000
1000
0000
0100
1000
0000
0000
0000
0000
0000
0000
0000
1000
0000
0000
0000
0010
0000
0000
0000
0000
0000
0000
0000
0010
0000
0000
0000
0001
0000
0000
0000
0000
0000
0000
0000
0001
0000
0000
0000
,
0100
0000
0100
0001
0000
0001
0010
0000
0010
1000
0100
1000
,
0100
0000
0010
1000
0000
1000
0100
0000
0100
0001
0000
0001
,
0010
0000
0010
0001
0000
0001
0100
0000
0100
1000
0010
1000
,
0010
0000
0100
0010
0000
0010
1000
0000
1000
0100
0000
0100
,
0001
0000
0001
0100
0000
0100
1000
0000
1000
0010
0001
0010
,
0001
0000
1000
0010
0000
0010
0001
0000
0001
0100
0000
0100
,
1000
0000
1000
0100
0000
0100
0001
0000
0001
0010
1000
0010
,
1000
0000
0001
0100
0000
0100
1000
0000
1000
0010
0000
0010
,
0001
0000
0001
0010
0000
0010
1000
0000
1000
0100
0001
0100
,
0001
0000
1000
0100
0000
0100
0001
0000
0001
0010
0000
0010
,
1000
0000
1000
0010
0000
0010
0001
0000
0001
0100
1000
0100
,
1000
0000
0001
1000
0000
1000
0100
0000
0100
0001
0000
0001
,
0010
0000
0010
0001
0000
0001
0100
0000
0100
1000
0010
1000
,
0010
0000
0100
1000
0000
1000
0010
0000
0010
0001
0000
0001
,
0100
0000
0100
0001
0000
0000
0001
0000
0000
0001
0010
0001
,
0010
0000
0000
0000
0000
0000
0000
0000
0001
0000
0000
0000
0200
0000
0000
0000
0000
0000
0000
0000
0000
0300
0000
0000
0200
0000
0000
0000
0000
0000
0300
0000
0000
0000
0100
0000
0000
0000
0000
0000
0010
0000
1000
0000
0000
0000
0010
0000
,
1000
0000
0000
0000
0010
0000
1000
0000
0000
0000
0000
0000
0002
0000
0000
0000
0000
0000
0000
0000
0000
0003
0000
0000
0002
0000
0000
0000
0000
0000
0003
0000
0000
0000
0001
0000
0000
0000
0000
0000
1000
0000
0100
0000
0000
0000
1000
0000
,
0100
0000
0000
0000
1000
0000
0100
0000
0000
0000
0000
0000
0002
0000
0000
0000
0000
0000
1000
0000
0000
0003
0000
0000
0002
0000
0000
0000
0000
0000
1003
0000
0000
0000
0001
0000
0000
0000
0000
0000
1000
0000
0100
0000
0000
0000
1000
0000
,
0100
0000
1000
0100
0000
0000
0010
0000
0001
0100
0000
1000
0100
0000
0001
0100
0000
1000
0101
0000
1010
0000
0000
0101
,
0000
0000
0100
0010
0000
0001
1200
0000
0000
0310
0000
0000
0201
0000
0000
0310
0000
1200
0000
0000
0301
0100
0000
0001
,
0100
0000
0001
0100
0000
0001
1020
0000
0000
0130
0000
0000
0021
0000
0000
0130
0000
1020
0000
0000
0031
0010
0000
0001
,
0010
0000
0001
0010
0000
0010
0102
0000
0000
1003
0000
0000
0012
0000
0000
1003
0000
0102
0000
0000
0013
0001
0000
0010
,
0001
0000
0000
0000
0010
0000
0001
0000
0000
0000
0010
0000
2100
0000
0000
0000
0000
0000
3001
0000
0000
0000
0000
0000
2010
0000
0000
0000
0000
0000
3001
0000
0000
0000
2100
0000
0000
0000
3020
1000
0000
0000
1000
0000
0000
1030
0000
1000
,
0100
0000
0100
0001
0000
0001
0010
0000
0010
1000
0000
1000
,
0010
0000
0010
0001
0000
0001
0100
1000
0100
1000
0000
0001
,
0100
0000
0100
1000
0000
1000
0010
0000
0010
0001
0000
0001
,
0010
0000
0010
1000
0000
1000
0100
0001
0100
0001
0000
1000
,
0001
0000
0001
0100
0000
0100
1000
0000
1000
0010
0000
0010
,
1000
0000
1000
0100
0000
0100
0001
0010
0001
0010
0000
0100
,
0001
0000
0001
0010
0000
0010
1000
0000
1000
0100
0000
0100
,
1000
0000
1000
0010
0000
0010
0001
0100
0001
0100
0000
0010
,
1000
0000
1000
0100
0000
0100
0001
0000
0001
0010
0000
0010
,
0001
0000
0001
0100
0000
0100
1000
0010
1000
0010
0000
0100
,
1000
0000
1000
0010
0000
0010
0001
0000
0001
0100
0000
0100
,
0001
0000
0001
0010
0000
0010
1000
0100
1000
0100
0000
0010
,
0100
0000
0100
1000
0000
1000
0010
0000
0010
0001
0000
0001
,
0010
0000
0010
1000
0000
1000
0100
0001
0100
0001
0000
1000
,
0100
0000
0100
0001
0000
0001
0010
0000
0010
1000
0000
1000
,
0010
0000
0000
0010
0000
0000
0010
0001
0010
0001
0000
0010
,
0001
0000
0001
0100
0000
0100
1000
0000
1000
0010
0000
0010
,
1000
0000
1000
0100
0000
0100
0001
0010
0001
0010
0000
0100
,
0001
0000
0001
0010
0000
0010
1000
0000
1000
0100
0000
0100
,
1000
0000
1000
0010
0000
0010
0001
0100
0001
0100
0000
0010
,
0100
0000
0100
0001
0000
0001
0010
0000
0010
1000
0000
1000
,
0010
0000
0010
0001
0000
0001
0100
1000
0100
1000
0000
0001
,
0100
0000
0100
1000
0000
1000
0010
0000
0010
0001
0000
0001
,
0010
0000
0010
1000
0000
1000
0100
0001
0100
0001
0000
1000
,
0010
0000
0010
0001
0000
0001
0100
0000
0100
1000
0000
1000
,
0100
0000
0100
0001
0000
0001
0010
1000
0010
1000
0000
0001
,
0010
0000
0010
1000
0000
1000
0100
0000
0100
0001
0000
0001
,
0100
0000
0100
1000
0000
1000
0010
0001
0010
0001
0000
1000
,
0001
0000
0001
0010
0000
0010
1000
0000
1000
0100
0000
0100
,
1000
0000
1000
0010
0000
0010
0001
0100
0001
0100
0000
0010
,
0001
0000
0001
0100
0000
0100
1000
0000
1000
0010
0000
0010
,
2002
0000
3003
0000
;

//---------------dance-single - ----------------
#NOTES:
     dance-single:
     :
     Hard:
     9:
     0.695421,1.481134,0.157030,0.246762,1.129124,651.000000,630.000000,21.000000,33.000000,0.000000,0.000000,0.695421,1.481134,0.157030,0.246762,1.129124,651.000000,630.000000,21.000000,33.000000,0.000000,0.000000:
0000
0000
0000
0000
0000
0000
0100
0000
0000
0001
0000
0000
1000
0000
0010
1000
0000
0001
0010
0000
0000
1000
0000
0000
,
0001
0000
0100
0001
0000
1000
0001
0000
0000
0010
0000
0000
0100
0000
1000
0100
0000
0010
1000
0000
0000
0100
0000
0000
,
0010
0000
0001
0010
0000
0100
0100
0000
0000
1000
0000
0000
0001
0000
0010
0001
0000
1000
0010
0000
0000
0001
0000
0000
,
1000
0000
0100
1000
0000
0001
1000
0000
0000
0010
0000
0000
0100
0000
0001
0100
0000
0010
0001
0000
0000
0000
0000
0000
,
0000
0000
0000
0000
0000
0000
1000
0000
0000
0001
0000
0000
0100
0000
0000
1000
0000
0010
0000
0000
0001
0000
0000
0100
,
0000
0000
0000
1000
0000
0010
0101
0000
0000
1010
0000
0101
0000
0000
1100
0000
0000
0011
0000
0000
0010
1000
0000
0001
,
0100
0000
0001
1000
0000
1000
0001
0000
0000
1000
0000
0000
1000
0000
0000
0010
0000
1000
0000
0000
0001
0000
0000
0100
,
0000
0000
0001
0100
0000
0100
1000
0000
0000
0010
0000
1000
0000
0000
0001
0000
0000
0100
0000
0000
1000
0010
0000
0010
,
1000
0000
0001
0100
0000
1000
0002
0000
0000
0103
0000
0000
2000
0000
0000
3010
0000
0000
0020
0000
0000
0031
0000
0000
,
0200
0000
0000
1300
0000
0000
2000
0000
0000
3100
0000
0000
0002
0000
0000
0013
0000
1000
0000
0000
1000
0100
0000
1000
,
0100
0000
0001
0010
0000
1000
0200
0000
0000
1300
0000
0000
0020
0000
0000
0031
0000
0000
0002
0000
0000
0103
0000
0000
,
2000
0000
0000
3010
0000
0000
0020
0000
0000
1030
0000
0000
0200
0000
0000
0301
0000
0010
0000
0000
0010
1000
0000
0010
,
1000
0000
0000
0000
0100
0000
0001
0000
0000
0000
0010
0000
0010
0000
0001
0100
0000
0000
0010
0000
1000
0100
0000
0001
0010
0000
0001
1000
0000
1000
0010
0000
0001
0100
0000
1001
1000
0000
0010
0001
0000
0000
1000
0000
0100
0001
0000
0010
,
1000
0000
0010
0100
0000
0100
1000
0000
0010
0001
0000
0000
1000
0001
1000
0001
0000
0000
0100
0010
0100
0010
0000
0000
1000
0100
1000
0100
0000
0000
0001
0010
0001
0010
0000
0000
0001
0000
0000
1000
0000
0000
1000
0000
0000
0100
0000
1000
,
0010
0000
0000
0010
0000
0000
0010
0000
0000
0010
0000
1000
0010
0000
0000
0000
0000
0000
0000
0000
0010
0000
0000
0000
0001
0000
0000
0000
0000
0000
0000
0000
0001
0000
0000
0000
0100
0000
0000
0000
0000
0000
0000
0000
0100
0000
0000
0000
,
1000
0000
1000
0100
0000
0100
0001
0000
0001
0010
0000
0010
,
1000
0000
0001
0010
0000
0010
1000
0000
1000
0100
0000
0100
,
0001
0000
0001
0100
0000
0100
1000
0000
1000
0010
0000
0010
,
0001
0000
1000
0001
0000
0001
0010
0000
0010
1000
0000
1000
,
0100
0000
0100
1000
0000
1000
0010
0000
0010
0001
0000
0001
,
0100
0000
0010
0001
0000
0001
0100
0000
0100
1000
0000
1000
,
0010
0000
0010
1000
0000
1000
0100
0000
0100
0001
0000
0001
,
0010
0000
0100
1000
0000
1000
0010
0000
0010
0001
0000
0001
,
0100
0000
0100
0001
0000
0001
0010
0000
0010
1000
0000
1000
,
0100
0000
0010
1000
0000
1000
0100
0000
0100
0001
0000
0001
,
0010
0000
0010
0001
0000
0001
0100
0000
0100
1000
0000
1000
,
0010
0000
0100
0010
0000
0010
1000
0000
1000
0100
0000
0100
,
0001
0000
0001
0100
0000
0100
1000
0000
1000
0010
0000
0010
,
0001
0000
1000
0010
0000
0010
0001
0000
0001
0100
0000
0100
,
1000
0000
1000
0100
0000
0000
0100
0000
0000
0100
0001
0100
,
0001
0000
0000
0000
0000
0000
0000
0000
0100
0000
0000
0000
2000
0000
0000
0000
0000
0000
0000
0000
0000
3000
0000
0000
2000
0000
0000
0000
0000
0000
3000
0000
0000
0000
1000
0000
0000
0000
0000
0000
0001
0000
0010
0000
0000
0000
0001
0000
,
0010
0000
0000
0000
0001
0000
0010
0000
0000
0000
0001
0000
0200
0000
0000
0000
0000
0000
0000
0000
0000
0300
0000
0000
0200
0000
0000
0000
0000
0000
0300
0000
0000
0000
0100
0000
0000
0000
0000
0000
0010
0000
1000
0000
0000
0000
0010
0000
,
1000
0000
0000
0000
0010
0000
1000
0000
0000
0000
0000
0000
0200
0000
0000
0000
0000
0000
0010
0000
0000
0300
0000
0000
0200
0000
0000
0000
0000
0000
0310
0000
0000
0000
0100
0000
0000
0000
0000
0000
0010
0000
1000
0000
0000
0000
0010
0000
,
1000
0000
0010
1000
0000
0000
0001
0000
0100
1000
0000
0010
1000
0000
0100
1000
0000
0000
1100
0000
0000
0000
0000
0000
,
1100
0000
1000
0001
0000
0000
2010
0000
0000
3000
0000
0000
2100
0000
0000
3000
0000
2010
0000
0000
3000
0100
0000
0100
,
1000
0000
0100
1000
0000
0000
0012
0000
0000
0003
0000
0000
0102
0000
0000
0003
0000
0012
0000
0000
0003
0100
0000
0100
,
0001
0000
0100
0001
0000
0000
1200
0000
0000
0300
0000
0000
0201
0000
0000
0300
0000
1200
0000
0000
0300
0001
0000
0001
,
0100
0000
0000
0000
0001
0000
0100
0000
0000
0000
0000
0000
1020
0000
0000
0000
0000
0000
0130
0000
0000
0000
0000
0000
0021
0000
0000
0000
0000
0000
0130
0000
0000
0000
1020
0000
0000
0000
0032
0010
0000
0000
0010
0000
0000
0013
0000
0010
,
1000
0000
1000
0100
0000
0100
0001
0000
0001
0010
0000
0010
,
0001
0000
0001
0100
0000
0100
1000
0000
1000
0010
0000
0100
,
1000
0000
1000
0010
0000
0010
0001
0000
0001
0100
0000
0100
,
0001
0000
0001
0010
0000
0010
1000
0000
1000
0100
0000
0010
,
0100
0000
0100
1000
0000
1000
0010
0000
0010
0001
0000
0001
,
0010
0000
0010
1000
0000
1000
0100
0000
0100
0001
0000
1000
,
0100
0000
0100
0001
0000
0001
0010
0000
0010
1000
0000
1000
,
0010
0000
0010
0001
0000
0001
0100
0000
0100
1000
0000
0001
,
0010
0000
0010
1000
0000
1000
0100
0000
0100
0001
0000
0001
,
0100
0000
0100
1000
0000
1000
0010
0000
0010
0001
0000
1000
,
0010
0000
0010
0001
0000
0001
0100
0000
0100
1000
0000
1000
,
0100
0000
0100
0001
0000
0001
0010
0000
0010
1000
0000
0001
,
1000
0000
1000
0010
0000
0010
0001
0000
0001
0100
0000
0100
,
0001
0000
0001
0010
0000
0010
1000
0000
1000
0100
0000
0010
,
1000
0000
1000
0100
0000
0100
0001
0000
0001
0010
0000
0010
,
0001
0000
0000
0001
0000
0000
0001
0000
0001
0100
0000
0001
,
0100
0000
0100
1000
0000
1000
0010
0000
0010
0001
0000
0001
,
0010
0000
0010
1000
0000
1000
0100
0000
0100
0001
0000
1000
,
0100
0000
0100
0001
0000
0001
0010
0000
0010
1000
0000
1000
,
0010
0000
0010
0001
0000
0001
0100
0000
0100
1000
0000
0001
,
1000
0000
1000
0100
0000
0100
0001
0000
0001
0010
0000
0010
,
0001
0000
0001
0100
0000
0100
1000
0000
1000
0010
0000
0100
,
1000
0000
1000
0010
0000
0010
0001
0000
0001
0100
0000
0100
,
0001
0000
0001
0010
0000
0010
1000
0000
1000
0100
0000
0010
,
0001
0000
0001
0100
0000
0100
1000
0000
1000
0010
0000
0010
,
1000
0000
1000
0100
0000
0100
0001
0000
0001
0010
0000
0100
,
0001
0000
0001
0010
0000
0010
1000
0000
1000
0100
0000
0100
,
1000
0000
1000
0010
0000
0010
0001
0000
0001
0100
0000
0010
,
0100
0000
0100
0001
0000
0001
0010
0000
0010
1000
0000
1000
,
0010
0000
0010
0001
0000
0001
0100
0000
0100
1000
0000
0001
,
0100
0000
0100
1000
0000
1000
0010
0000
0010
0001
0000
0001
,
0220
0000
0330
0000
;

//---------------dance-single - ----------------
#NOTES:
     dance-single:
     :
     Medium:
     6:
     0.502070,1.169316,0.082254,0.239285,0.486047,470.000000,459.000000,11.000000,32.000000,0.000000,0.000000,0.502070,1.169316,0.082254,0.239285,0.486047,470.000000,459.000000,11.000000,32.000000,0.000000,0.000000:
// measure 0
0000
0000
0000
0000
0000
0000
0010
0000
0000
0001
0000
0000
1000
0000
0000
1000
0000
0001
0100
0000
0000
1000
0000
0000
,  // measure 1
0001
0000
0000
0001
0000
1000
0001
0000
0000
0100
0000
0000
0010
0000
0000
0010
0000
0100
1000
0000
0000
0010
0000
0000
,  // measure 2
0100
0000
0000
0100
0000
0010
0010
0000
0000
1000
0000
0000
0001
0000
0000
0001
0000
1000
0100
0000
0000
0001
0000
0000
,  // measure 3
1000
0000
0000
1000
0000
0001
1000
0000
0000
0100
0000
0000
0010
0000
0000
0010
0000
0100
0001
0000
0000
0000
0000
0000
,  // measure 4
0000
0000
0000
0000
0000
0000
1000
0000
0000
0001
0000
0000
0010
0000
0000
1000
0000
0100
0000
0000
0001
0000
0000
0010
,  // measure 5
0000
0000
0000
1000
0000
0100
0001
0000
0000
1000
0000
0000
0001
0000
0000
0000
0000
0101
0000
0000
0000
1000
0000
0000
,  // measure 6
0010
0000
0000
1000
0000
0000
0001
0000
0000
1000
0000
0000
1000
0000
0000
0100
0000
1000
0000
0000
0001
0000
0000
0010
,  // measure 7
0000
0000
0001
0010
0000
0000
1000
0000
0000
0100
0000
1000
0000
0000
0001
0000
0000
0010
0000
0000
1000
0100
0000
0000
,  // measure 8
1000
0010
0002
0013
2000
3100
0200
0301
,  // measure 9
0020
1030
2000
3010
0002
0103
1000
0010
,  // measure 10
0010
0000
0000
0100
0000
1000
0020
0000
0000
1030
0000
0000
0200
0000
0000
0301
0000
0000
0002
0000
0000
0013
0000
0000
,  // measure 11
2000
3100
0200
1300
0020
0031
0100
1000
,  // measure 12
1000
0000
0000
0000
0000
0000
0001
0000
0000
0000
0100
0000
0100
0000
0000
0010
0000
0000
0100
0000
0000
0010
0000
0001
0100
0000
0000
1000
0000
0000
0100
0000
0000
0010
0000
0001
1000
0000
0000
0001
0000
0000
1000
0000
0000
0001
0000
0000
,  // measure 13
1000
0000
0000
0010
0000
0000
1000
0000
0000
0001
0000
0000
1000
0001
1000
0001
0000
0000
0010
0100
0010
0100
0000
0000
1000
0010
1000
0010
0000
0000
0001
0100
0001
0100
0000
0000
0001
0000
0000
1000
0000
0000
1000
0000
0000
0010
0000
1000
,  // measure 14
0100
0000
0000
0100
0000
0000
0100
0000
0000
0100
0000
1000
0100
0000
0000
0000
0000
0000
0000
0000
0000
0000
0000
0000
0001
0000
0000
0000
0000
0000
0000
0000
0000
0000
0000
0000
0010
0000
0000
0000
0000
0000
0000
0000
0000
0000
0000
0000
,  // measure 15
1000
0000
1000
0010
0000
0010
0001
0000
0001
0100
0000
0000
,  // measure 16
1000
0100
1000
0010
,  // measure 17
0001
0000
0001
0010
0000
0010
1000
0000
1000
0100
0000
0000
,  // measure 18
0001
0001
0100
1000
,  // measure 19
0010
0000
0010
1000
0000
1000
0100
0000
0100
0001
0000
0000
,  // measure 20
0010
0001
0010
1000
,  // measure 21
0100
0000
0100
1000
0000
1000
0010
0000
0010
0001
0000
0000
,  // measure 22
0100
1000
0100
0001
,  // measure 23
0010
0000
0010
0001
0000
0001
0100
0000
0100
1000
0000
0000
,  // measure 24
0010
1000
0010
0001
,  // measure 25
0100
0000
0100
0001
0000
0001
0010
0000
0010
1000
0000
0000
,  // measure 26
0100
0100
1000
0010
,  // measure 27
0001
0000
0001
0010
0000
0010
1000
0000
1000
0100
0000
0000
,  // measure 28
0001
0100
0001
0010
,  // measure 29
1000
0000
1000
0010
0000
0000
0010
0000
0000
0010
0000
0000
,  // measure 30
0001
0000
0000
0000
0000
0000
0000
0000
0010
0000
0000
0000
2000
0000
0000
0000
0000
0000
0000
0000
0000
3000
0000
0000
2000
0000
0000
0000
0000
0000
3000
0000
0000
0000
1000
0000
0000
0000
0000
0000
0000
0000
0100
0000
0000
0000
0000
0000
,  // measure 31
0100
0000
0000
0000
0000
0000
0100
0000
0000
0000
0001
0000
0020
0000
0000
0000
0000
0000
0000
0000
0000
0030
0000
0000
0020
0000
0000
0000
0000
0000
0030
0000
0000
0000
0010
0000
0000
0000
0000
0000
0000
0000
1000
0000
0000
0000
0000
0000
,  // measure 32
1000
0000
0000
0000
0000
0000
1000
0000
0000
0000
0000
0000
0020
0000
0000
0000
0000
0000
0100
0000
0000
0030
0000
0000
0020
0000
0000
0000
0000
0000
0130
0000
0000
0000
0010
0000
0000
0000
0000
0000
0000
0000
1000
0000
0000
0000
0000
0000
,  // measure 33
1000
1000
0001
1000
1000
1000
1010
0000
,  // measure 34
1010
0000
0000
0001
0000
0000
2100
0000
0000
3000
0000
0000
2010
0000
0000
3000
0000
2100
0000
0000
3000
0010
0000
0000
,  // measure 35
1000
0000
0010
1000
0000
0000
0102
0000
0000
0003
0000
0000
0012
0000
0000
0003
0000
0102
0000
0000
0003
0010
0000
0000
,  // measure 36
0001
0000
0010
0001
0000
0000
0020
0000
0000
0030
0000
0000
2000
0000
0000
3000
0000
1020
0000
0000
0030
0001
0000
0000
,  // measure 37
0010
0000
0000
0000
0001
0000
0010
0000
0000
0000
0000
0000
0200
0000
0000
0000
0000
0000
0300
0000
0000
0000
0000
0000
0002
0000
0000
0000
0000
0000
0003
0000
0000
0000
2000
0000
0000
0000
3000
0100
0000
0000
0100
0000
0000
0100
0000
0000
,  // measure 38
1000
0000
0000
0010
0000
0000
0001
0000
0000
0100
0000
0100
,  // measure 39
0001
0000
0001
0010
0000
0010
1000
0000
0000
0100
0000
0000
,  // measure 40
1000
0000
0000
0100
0000
0000
0001
0000
0000
0010
0000
0010
,  // measure 41
0001
0000
0001
0100
0000
0100
1000
0000
0000
0010
0000
0000
,  // measure 42
0010
0000
0000
1000
0000
0000
0100
0000
0000
0001
0000
0001
,  // measure 43
0100
0000
0100
1000
0000
1000
0010
0000
0000
0001
0000
0000
,  // measure 44
0010
0000
0000
0001
0000
0000
0100
0000
0000
1000
0000
1000
,  // measure 45
0100
0000
0100
0001
0000
0001
0010
0000
0000
1000
0000
0000
,  // measure 46
0100
0000
0000
1000
0000
0000
0010
0000
0000
0001
0000
0001
,  // measure 47
0010
0000
0010
1000
0000
1000
0100
0000
0000
0001
0000
0000
,  // measure 48
0100
0000
0000
0001
0000
0000
0010
0000
0000
1000
0000
1000
,  // measure 49
0010
0000
0010
0001
0000
0001
0100
0000
0000
1000
0000
0000
,  // measure 50
1000
0000
0000
0100
0000
0000
0001
0000
0000
0010
0000
0010
,  // measure 51
0001
0000
0001
0100
0000
0100
1000
0000
0000
0010
0000
0000
,  // measure 52
1000
0000
0000
0010
0000
0000
0001
0000
0000
0100
0000
0100
,  // measure 53
0001
0000
0000
0001
0000
0000
0001
0000
0000
0010
0000
0001
,  // measure 54
0010
0000
0000
1000
0000
0000
0100
0000
0000
0001
0000
0001
,  // measure 55
0100
0000
0100
1000
0000
1000
0010
0000
0000
0001
0000
0000
,  // measure 56
0010
0000
0000
0001
0000
0000
0100
0000
0000
1000
0000
1000
,  // measure 57
0100
0000
0100
0001
0000
0001
0010
0000
0000
1000
0000
0000
,  // measure 58
1000
0000
0000
0010
0000
0000
0001
0000
0000
0100
0000
0100
,  // measure 59
0001
0000
0001
0010
0000
0010
1000
0000
0000
0100
0000
0000
,  // measure 60
1000
0000
0000
0100
0000
0000
0001
0000
0000
0010
0000
0010
,  // measure 61
0001
0000
0001
0100
0000
0100
1000
0000
0000
0010
0000
0000
,  // measure 62
0001
0000
0000
0010
0000
0000
1000
0000
0000
0100
0000
0100
,  // measure 63
1000
0000
1000
0010
0000
0010
0001
0000
0000
0100
0000
0000
,  // measure 64
0001
0000
0000
0100
0000
0000
1000
0000
0000
0010
0000
0010
,  // measure 65
1000
0000
1000
0100
0000
0100
0001
0000
0000
0010
0000
0000
,  // measure 66
0010
0000
0000
0001
0000
0000
0100
0000
0000
1000
0000
1000
,  // measure 67
0100
0000
0100
0001
0000
0001
0010
0000
0000
1000
0000
0000
,  // measure 68
0010
1000
0100
0001
,  // measure 69
0220
0000
0330
0000
;
