#VERSION:0.83;
#TITLE:Up!;
#SUBTITLE:(Blue Version);
#ARTIST:Shania Twain;
#TITLETRANSLIT:;
#SUBTITLETRANSLIT:;
#ARTISTTRANSLIT:;
#GENRE:;
#ORIGIN:;
#CREDIT:;
#BANNER:Up! (Blue Version)-bn.png;
#BACKGROUND:Up! (Blue Version)-bg.png;
#PREVIEWVID:;
#JACKET:Up! (Blue Version)-jacket.png;
#CDIMAGE:;
#DISCIMAGE:;
#LYRICSPATH:;
#CDTITLE:;
#MUSIC:Up! (Blue Version).ogg;
#OFFSET:0.952000;
#SAMPLESTART:44.762001;
#SAMPLELENGTH:20.000000;
#SELECTABLE:YES;
#DISPLAYBPM:126.000000;
#BPMS:0.000=126.000;
#STOPS:;
#DELAYS:;
#WARPS:;
#TIMESIGNATURES:0.000=4=4;
#TICKCOUNTS:0.000=4;
#COMBOS:0.000=1;
#SPEEDS:0.000=1.000=0.000=0;
#SCROLLS:0.000=1.000;
#FAKES:;
#LABELS:0.000=Song Start;
#BGCHANGES:;
#KEYSOUNDS:;
#ATTACKS:
;

//---------------dance-single - X Scale 13----------------
#NOTEDATA:;
#CHARTNAME:;
#STEPSTYPE:dance-single;
#DESCRIPTION:X Scale 13;
#CHARTSTYLE:;
#DIFFICULTY:Hard;
#METER:9;
#RADARVALUES:0.585422,0.606932,0.149016,0.033115,0.281476,495.000000,477.000000,18.000000,4.000000,0.000000,0.000000,0.000000,0.000000,0.000000,0.585422,0.606932,0.149016,0.033115,0.281476,495.000000,477.000000,18.000000,4.000000,0.000000,0.000000,0.000000,0.000000,0.000000;
#CREDIT:;
#DISPLAYBPM:126.000000;
#NOTES:
0000
0000
0000
0000
,
0000
0000
0000
0000
,
0000
0000
0000
0000
,
0000
0000
0000
0000
,
1000
0100
0010
0001
0100
0010
1000
0001
,
0010
0100
0010
0001
1000
0100
1000
0001
,
0010
0001
1000
0010
1000
0100
0001
0100
,
1000
0010
0100
0001
1000
0001
0100
0010
,
1000
0010
0100
0010
0100
0001
1000
0001
,
1000
0000
0100
0000
0010
0000
0001
0000
0100
0000
0010
0000
1000
0100
1000
0000
,
0001
0010
0100
1000
0001
0100
0010
1000
,
0000
0000
1000
0000
0100
0000
0010
0000
0001
0000
1000
0000
0001
0100
0001
0000
,
0100
0001
0010
0001
1000
0010
1000
0100
,
1000
0001
0000
1000
0001
0000
0000
0000
0100
0000
0010
0000
0100
0000
0010
0000
,
1000
0100
0000
1000
0100
0000
0010
0000
0001
0000
0100
0000
0001
0000
1000
0000
,
0010
0010
0100
0100
0001
0001
1000
1000
,
0100
1000
0010
0001
1000
0010
0100
0001
,
0010
0001
0001
0100
0010
1000
1000
0100
,
1000
0001
0100
0001
0100
0010
1000
0010
,
0000
0010
0100
0001
0010
1000
0100
1000
,
0001
1000
0010
0100
0010
1000
0001
0100
,
0001
0100
0000
0001
0100
0000
0000
0000
0010
0000
1000
0000
0010
0000
1000
0000
,
0010
0100
0000
0010
0100
0000
0001
0000
1000
0000
0001
0000
1000
0000
0100
0000
,
0010
0001
0010
0000
0001
1000
0001
0000
0100
0010
0100
0000
1000
0100
1000
0000
,
0010
0000
0011
0000
1100
0000
0001
1000
,
0001
1000
0100
1000
0010
0100
0001
0010
,
0001
0000
0110
0000
1001
0000
1000
0100
,
0010
0001
0100
0001
1000
0100
1000
0010
,
0100
0000
0101
0000
1010
0000
1000
0100
,
0001
0100
1000
0100
0010
0001
1000
0010
,
1000
1000
0001
0001
0100
0100
0010
0010
,
0100
0010
1000
0010
1000
0100
0001
0001
,
1000
0000
0010
0000
0100
0000
0001
0000
0001
0000
1000
0000
0010
0100
0010
0000
,
1000
0100
0001
0010
0100
0010
1000
0001
,
0000
0000
1000
0000
0010
0000
0001
0000
1000
0000
0001
0000
0100
0010
0100
0000
,
0001
0010
0100
0010
0100
1000
0001
1000
,
0010
1000
0000
1000
0100
0000
0010
0000
0001
0000
0100
0000
0001
0000
1000
0000
,
0010
1000
0100
1000
0100
0001
0010
0001
,
1000
0100
1000
0000
0001
0010
0001
0000
0100
0001
0100
0000
0010
1000
0010
0000
,
0100
0000
0101
0000
1100
0000
1000
0001
,
0010
0000
0001
0000
0100
0000
0001
0000
0010
0001
1000
0000
0100
0000
1000
0000
,
0010
0000
1010
0000
0011
0000
0001
0100
,
0010
0000
1000
0000
0100
0000
0010
0000
1000
0001
0100
0000
0001
0000
1000
0000
,
0010
0000
1001
0000
0110
0000
1000
0100
,
1000
0000
0001
0000
1000
0000
0100
0000
0010
0001
0100
0000
0010
0000
1000
0000
,
0001
0010
0001
0000
0100
0001
0100
0000
0010
1000
0010
0000
1000
0100
1000
0000
,
0020
0200
0000
0330
,
1001
0000
0000
1000
0100
0000
1000
0000
0010
0001
0010
0000
0100
0001
0100
0000
,
0010
0000
0000
1000
0100
0000
0010
0000
0001
0100
0001
0000
1000
0100
1000
0000
,
1100
0000
0000
1000
0010
0000
0100
0000
0001
1000
0001
0000
0100
0010
0100
0000
,
0001
0000
0000
0100
0010
0000
1000
0000
1000
0010
1000
0000
0001
0100
0001
0000
,
0011
0000
0000
0010
0100
0000
1000
0000
0001
0010
0001
0000
0100
1000
0100
0000
,
0010
0000
0000
0001
0100
0000
0010
0000
1000
0000
0100
0000
0100
1000
0001
0000
,
0010
0000
0000
0010
0001
0000
1000
0000
0100
0000
0000
0000
0100
1000
0001
1000
,
0100
0000
0110
0000
0000
0000
0010
0000
0001
1000
0001
1000
0001
1000
0001
1000
,
0010
0000
0000
1000
0100
0000
0000
0001
0100
0000
0000
0010
1000
0000
0001
0000
,
1000
0100
0010
0000
0001
0000
0000
0000
0001
0010
0100
0000
1000
0000
0000
0000
,
0010
0000
0100
0000
0010
0000
1000
0000
0001
0000
0000
0001
0000
0000
0100
0000
,
0010
1000
0001
0000
0101
0000
0000
0000
0100
0010
1000
0000
1010
0000
0000
0000
,
0010
0000
0000
0010
0100
0000
0000
0100
0001
0000
0000
0001
1000
0000
0000
1000
,
0001
0000
0000
0010
0100
0000
0000
1000
0010
0000
0100
0000
1000
0000
0001
0000
,
1000
1000
0100
0100
0010
0010
0001
0001
,
1000
0000
0000
0000
0000
0000
0000
0000
0001
0200
0020
0000
0000
0000
0000
0000
,
0000
0000
0000
0330
;

//---------------dance-single - X Scale 15----------------
#NOTEDATA:;
#CHARTNAME:;
#STEPSTYPE:dance-single;
#DESCRIPTION:X Scale 15;
#CHARTSTYLE:;
#DIFFICULTY:Challenge;
#METER:10;
#RADARVALUES:0.702506,0.738873,0.049672,0.132459,0.616763,594.000000,588.000000,6.000000,16.000000,0.000000,0.000000,0.000000,0.000000,0.000000,0.702506,0.738873,0.049672,0.132459,0.616763,594.000000,588.000000,6.000000,16.000000,0.000000,0.000000,0.000000,0.000000,0.000000;
#CREDIT:;
#DISPLAYBPM:126.000000;
#NOTES:
0000
0000
0000
0000
,
0000
0000
0000
0000
,
0000
0000
0000
0000
,
0000
0000
0000
0000
,
1000
0000
0001
0100
0001
0000
1000
0000
0010
0000
0100
0001
0100
0000
0010
0000
,
1000
0000
0010
0100
0010
0000
1000
0000
0001
0000
1000
0010
1000
0000
0001
0000
,
0100
0000
0001
0010
0001
0000
0100
0000
0010
0000
1000
0001
1000
0000
0010
0000
,
1000
0000
0001
0100
0001
0000
1000
0000
0100
0000
0010
0001
0010
0000
0100
0000
,
1000
0010
1000
0010
1000
0000
0100
0000
0001
0100
0001
0100
0001
0000
0010
0000
,
0100
0000
1000
0000
1000
0000
0001
0000
0100
0000
0100
0000
0010
1000
0010
0000
,
0001
0000
0100
0000
0010
0000
1000
0000
0100
1000
0001
0000
0100
0000
0010
0000
,
1000
0000
0001
0000
0001
0000
0010
0000
0100
0000
0100
0000
1000
0010
1000
0000
,
0001
0000
0100
0000
1000
0000
0010
0000
0100
0001
0100
0000
0010
0000
1000
0000
,
0001
0010
0100
1000
0010
0000
0100
0000
0001
0000
0001
0000
0001
1000
0100
0000
,
1000
0100
0010
0001
0100
0000
0010
0000
1000
0100
0010
0000
0001
0000
0001
0000
,
0001
0010
0001
1000
0100
0000
0100
0000
0010
0100
0010
0001
1000
0000
1000
0000
,
0001
1000
0001
0100
0010
0000
0010
0000
0100
0010
0100
0001
1000
0000
1000
0000
,
0001
0020
0032
0203
0320
2030
3002
2003
,
3200
1300
0001
0100
0010
0100
0010
1000
,
0001
0000
2000
0000
3200
0000
0320
0000
0032
0000
0103
0000
0010
1000
0010
0000
,
0100
0001
0010
0100
1000
0001
1000
0010
,
0100
0001
0100
0001
1000
0000
0010
0000
1000
0000
0100
0000
0010
0001
1000
0000
,
0100
1000
0010
0100
0001
0000
0010
0000
0001
1000
0001
0000
0100
0000
0010
0000
,
1000
0100
1000
0100
0010
0100
0010
0100
0010
0001
0010
0001
0100
0010
0100
0010
,
0001
0000
1000
0100
0010
0000
0001
1000
0010
0000
0100
0001
0100
0000
1000
0000
,
0001
0000
0010
0000
0100
0000
1000
0000
0010
1000
0100
0000
0010
0000
0001
0000
,
0100
0000
0001
1000
0010
0000
1000
0100
0010
0000
0100
0001
0010
0000
0100
0000
,
0010
0000
0001
0000
1000
0000
0100
0000
1000
0010
0100
0000
0001
0000
1000
0000
,
0010
0000
1000
0100
0010
0000
0001
0100
0010
0000
0100
0001
0100
0000
1000
0000
,
0010
0000
0001
0000
0100
0000
0001
0000
0010
0100
1000
0000
0001
0000
1000
0000
,
0001
0000
0010
0100
0010
0000
0001
0000
1000
0000
0100
0001
0100
0000
1000
0000
,
0010
0010
0100
0100
0001
0001
1000
1000
,
0100
0000
1000
0000
1000
0000
1000
0000
0010
0000
0010
0000
0100
0001
0100
0000
,
0001
1000
0010
1000
0100
0010
0001
0100
,
0010
0000
0100
0000
0100
0000
0100
0000
0001
0000
0001
0000
1000
0010
1000
0000
,
0001
0100
1000
0010
1000
0010
0001
0100
,
0001
0010
0001
0100
1000
0000
0010
0000
0100
0001
0100
0000
1000
0000
0010
0000
,
1000
0001
0100
0001
0010
0000
0100
0000
1000
0001
0100
0000
0010
0000
0100
0000
,
1000
0010
1000
0010
0100
0010
0100
0010
0100
0001
0100
0001
0010
0100
0010
0100
,
1000
0000
0001
1000
0010
0000
1000
0100
0010
0000
0100
1000
0100
0000
0001
0000
,
0010
0000
0001
0000
0100
0000
0001
0000
0010
1000
0100
0000
1000
0000
0010
0000
,
0100
0000
0001
0100
0010
0000
0100
0001
0010
0000
0010
0001
0010
0000
0100
0000
,
0010
0000
0100
0000
0001
0000
1000
0000
0100
0010
0001
0000
1000
0000
0001
0000
,
0100
0000
0001
0100
0010
0000
1000
0100
0010
0000
0001
0100
1000
0000
0010
0000
,
0100
0000
0010
0000
0001
0000
0100
0000
0010
0001
1000
0000
0100
0000
1000
0000
,
0001
0000
1000
0010
0100
0000
0001
0000
0010
0000
0100
1000
0010
0000
0100
0000
,
0002
0000
0000
0000
2003
0000
0000
0000
3010
0000
0000
0010
1000
0001
0100
0001
,
1000
0010
0000
0010
0100
0000
0001
0000
1000
0100
1000
0000
0001
0100
0001
0000
,
0010
0100
0000
0100
1000
0000
0010
0000
1000
0001
1000
0000
0001
0010
0001
0000
,
1000
0001
0000
1000
0100
0000
0010
0000
0001
1000
0001
0000
0100
0010
0100
0000
,
0010
1000
0000
1000
0001
0000
0010
0000
0100
1000
0100
0000
0100
0010
0001
0000
,
1000
0001
0000
0100
0010
0000
1000
0000
0001
0010
0001
0000
0100
0010
0100
0000
,
0001
0010
0000
0100
1000
0000
0010
0000
1000
0001
0100
0000
0010
0001
1000
0000
,
0100
1000
0000
1000
0001
0000
0100
0000
0010
0100
0000
0001
0010
0001
1000
0010
,
1000
0000
1100
0000
0001
0000
0101
0000
0100
0001
1000
0001
0010
0100
1000
0010
,
0100
0000
0000
0100
0010
0000
0000
0010
1000
0000
0000
1000
0001
0000
0100
0000
,
0010
0100
0010
0000
1001
0000
0000
0000
1000
0001
1000
0000
0110
0000
0000
0000
,
0001
0000
0100
0010
1000
0000
0010
0000
0100
0001
0000
0001
1000
0000
0100
0000
,
0010
0001
1000
0000
1010
0000
0000
0000
1000
0100
0010
0000
0011
0000
0000
0000
,
0001
0000
0000
0001
0010
0000
0000
0010
0100
0000
0000
0100
1000
0000
0000
1000
,
0010
0000
0000
0010
0100
0000
0000
0100
0001
0000
0000
0001
1000
0100
1000
0000
,
0010
1000
0000
1000
0100
0000
0010
0000
0001
0100
0000
0001
1000
0000
0001
0000
,
1000
0000
0000
0000
0000
0000
0000
0000
0001
0200
0020
0000
0000
0000
0000
0000
,
0000
0000
0000
0330
;

//---------------dance-single - X Scale 10----------------
#NOTEDATA:;
#CHARTNAME:;
#STEPSTYPE:dance-single;
#DESCRIPTION:X Scale 10;
#CHARTSTYLE:;
#DIFFICULTY:Medium;
#METER:7;
#RADARVALUES:0.415117,0.395825,0.198689,0.347705,0.008279,351.000000,327.000000,24.000000,42.000000,0.000000,0.000000,0.000000,0.000000,0.000000,0.415117,0.395825,0.198689,0.347705,0.008279,351.000000,327.000000,24.000000,42.000000,0.000000,0.000000,0.000000,0.000000,0.000000;
#CREDIT:;
#DISPLAYBPM:126.000000;
#NOTES:
0000
0000
0000
0000
,
0000
0000
0000
0000
,
0000
0000
0000
0000
,
0000
0000
0000
0000
,
1000
0000
0010
0100
0001
0000
0100
0010
,
1000
0000
0001
0100
0010
0000
1000
0100
,
0010
0000
0001
1000
0010
0000
0100
0001
,
1000
0000
0100
1000
0010
0000
0100
0001
,
0010
0000
1001
0000
0100
0001
1000
0001
,
0100
0000
0110
0000
0010
1000
0001
0000
,
0010
0000
1100
0000
0010
0100
0001
1000
,
0100
0000
0011
0000
0001
1000
0010
0000
,
0010
0000
0101
0000
1000
0001
0100
0001
,
1000
0000
1010
0000
0010
0100
0010
0100
,
0001
0000
0001
1000
0100
0000
1000
0001
,
1000
0100
1000
0000
0001
0100
0001
0000
,
0010
0000
0110
0000
1000
0100
0010
0001
,
0100
0000
0101
0000
0010
1000
0001
0000
,
1000
0000
1100
0000
0100
0010
0100
0010
,
0100
0000
1001
0000
1000
0010
0001
0000
,
0010
0000
0011
0000
0001
0100
1000
0100
,
0001
0000
1010
0000
1000
0100
1000
0100
,
0010
0000
0010
0001
0100
0000
0100
0010
,
1000
0100
1000
0000
0001
0100
0001
0000
,
0020
0000
0032
0000
0203
0000
0310
2000
,
0000
3001
1000
0001
0010
0000
0010
0001
,
0100
0000
0020
0000
0230
0000
0301
2000
,
0000
3100
0010
0002
0000
0103
0001
1000
,
0001
0000
2000
0000
3200
0000
1300
0002
,
0000
0013
0001
1000
0020
0000
0130
0001
,
0010
0001
0100
0000
0010
1000
0100
0000
,
1001
0000
0010
0100
0001
0000
0100
0010
,
1000
0000
0001
1000
0100
0000
1100
0000
,
0011
0000
0100
0001
1000
0000
0100
0010
,
0001
0000
1000
0100
1000
0000
1010
0000
,
0101
0000
0110
0000
0001
0010
0100
1000
,
0010
0000
0100
0001
0100
0000
0001
1000
,
0100
0000
0010
0001
1000
0000
0100
0010
,
0001
1000
0100
0000
1000
0001
0100
0000
,
0020
0000
0230
0000
0302
0000
1003
2000
,
0000
3100
1000
0100
0010
0000
0010
0001
,
0100
0000
0002
0000
0203
0000
0301
0020
,
0000
0031
0100
2000
0000
3010
1000
0010
,
1000
0000
0002
0000
2003
0000
3010
0200
,
0000
0301
0100
0001
0020
0000
0130
1000
,
0100
1000
0001
0000
0100
0010
1000
0000
,
0020
0200
0000
0330
,
1001
0000
0000
0010
1000
0010
1000
0010
,
2000
0000
3010
0000
0100
0001
1000
0001
,
0100
0000
0000
1000
0001
1000
0001
1000
,
0002
0000
0013
0000
0001
0100
0010
1000
,
0100
0000
0000
1000
0001
1000
0010
0100
,
0002
0000
0100
0000
1000
1000
2003
0000
,
3020
0100
0001
1030
,
0000
0210
0000
0001
0301
0100
0010
1000
,
0020
2030
3002
0203
,
0310
0100
0010
0000
1000
0001
1000
0000
,
0001
0000
0100
0000
1000
0000
0000
0000
0010
0000
0000
0010
0000
0000
0010
0000
,
1000
0100
0001
0000
0001
0100
1000
0000
,
1100
0101
0011
1010
,
2000
3200
0320
0032
,
0103
0001
1000
0000
0100
1000
0001
0000
,
1000
0000
0000
0000
0000
0000
0000
0000
0010
0200
0020
0000
0000
0000
0000
0000
,
0000
0000
0000
0330
;

//---------------dance-single - X Scale 5----------------
#NOTEDATA:;
#CHARTNAME:;
#STEPSTYPE:dance-single;
#DESCRIPTION:X Scale 5;
#CHARTSTYLE:;
#DIFFICULTY:Easy;
#METER:3;
#RADARVALUES:0.243630,0.237495,0.033115,0.240082,0.000000,206.000000,202.000000,4.000000,29.000000,0.000000,0.000000,0.000000,0.000000,0.000000,0.243630,0.237495,0.033115,0.240082,0.000000,206.000000,202.000000,4.000000,29.000000,0.000000,0.000000,0.000000,0.000000,0.000000;
#CREDIT:;
#DISPLAYBPM:126.000000;
#NOTES:
0000
0000
0000
0000
,
0000
0000
0000
0000
,
0000
0000
0000
0000
,
0000
0000
0000
0000
,
1000
0100
0001
0100
,
1000
0010
0001
0010
,
1000
0001
0100
0010
,
1000
0100
0010
0001
,
2000
0000
0010
3100
,
0001
0010
0100
1000
,
0002
0000
1000
0013
,
0000
0001
0100
1000
,
0020
0000
0100
1030
,
0001
0001
1000
0000
,
0010
0010
0100
0000
,
0001
0100
0010
1000
,
0100
0010
1000
0001
,
0010
0100
1000
0001
,
0200
0000
0010
0301
,
0000
0100
0010
1000
,
0001
0010
0100
1000
,
0010
0010
1000
0000
,
0001
0001
0100
0000
,
0002
0023
0230
2300
,
3010
0010
0010
0100
,
0001
0100
1000
0000
,
0010
0010
0010
1000
,
0100
0010
0001
0000
,
0010
0010
0010
0001
,
0100
0001
1000
0100
,
2000
3200
0320
0032
,
0203
0000
1000
0301
,
0100
0010
1000
0001
,
0020
0000
0001
0130
,
0000
0010
1000
0001
,
2000
0000
0100
3010
,
0001
0001
0100
0000
,
1000
1000
0010
0000
,
2000
3020
0230
0302
,
0013
0010
0010
0001
,
1000
0100
0001
0000
,
0010
0010
0010
0100
,
0010
0001
1000
0000
,
0010
0010
0010
1000
,
0001
0100
0001
1000
,
0002
0203
0320
2030
,
3020
0000
0000
0030
,
1001
0000
0100
1000
,
0002
0000
1000
0103
,
0110
0000
0010
1000
,
0200
0000
1000
0310
,
0110
0000
0010
0001
,
2000
0000
0001
3010
,
0100
0100
1000
1000
,
1002
0000
0010
0013
,
1000
0001
1000
0001
,
0100
0010
0100
0000
,
0001
0010
0100
1000
,
0010
0100
0001
0000
,
1000
1000
1000
1000
,
0001
0001
0001
0001
,
1000
0001
0100
0010
,
1000
0000
0020
0000
,
0000
0000
0000
0030
;

//---------------dance-single - X Scale 3----------------
#NOTEDATA:;
#CHARTNAME:;
#STEPSTYPE:dance-single;
#DESCRIPTION:X Scale 3;
#CHARTSTYLE:;
#DIFFICULTY:Beginner;
#METER:1;
#RADARVALUES:0.139555,0.158330,0.024836,0.008279,0.000000,118.000000,115.000000,3.000000,1.000000,0.000000,0.000000,0.000000,0.000000,0.000000,0.139555,0.158330,0.024836,0.008279,0.000000,118.000000,115.000000,3.000000,1.000000,0.000000,0.000000,0.000000,0.000000,0.000000;
#CREDIT:;
#DISPLAYBPM:126.000000;
#NOTES:
// measure 0
0000
0000
0000
0000
,  // measure 1
0000
0000
0000
0000
,  // measure 2
0000
0000
0000
0000
,  // measure 3
0000
0000
0000
0000
,  // measure 4
1000
0000
1000
0000
,  // measure 5
0001
0000
0001
0000
,  // measure 6
0100
0000
0100
0000
,  // measure 7
0010
0000
0010
0000
,  // measure 8
1001
0000
0000
0000
,  // measure 9
0010
0000
0100
0000
,  // measure 10
0001
0000
0000
0000
,  // measure 11
1000
0000
0100
0000
,  // measure 12
0010
0000
0000
0000
,  // measure 13
0001
0000
0001
0000
,  // measure 14
1000
0000
1000
0000
,  // measure 15
0010
0000
0010
0000
,  // measure 16
0100
0000
0100
0000
,  // measure 17
0001
0000
0100
0000
,  // measure 18
1000
0000
0000
0000
,  // measure 19
0010
0000
1000
0000
,  // measure 20
0100
0000
0000
0000
,  // measure 21
0010
0000
0010
0000
,  // measure 22
0100
0000
0100
0000
,  // measure 23
0001
0000
1000
0000
,  // measure 24
0010
0010
0010
0000
,  // measure 25
0100
0000
0001
0000
,  // measure 26
1000
1000
1000
0000
,  // measure 27
0100
0000
0010
0000
,  // measure 28
0001
0001
0001
0000
,  // measure 29
1000
0000
0100
0000
,  // measure 30
1000
0000
0001
0000
,  // measure 31
1001
0000
0000
0000
,  // measure 32
0010
0000
1000
0000
,  // measure 33
0001
0000
0000
0000
,  // measure 34
0010
0000
0100
0000
,  // measure 35
1000
0000
0000
0000
,  // measure 36
0001
0000
0100
0000
,  // measure 37
1000
0000
0100
0000
,  // measure 38
0010
0000
0010
0000
,  // measure 39
0100
0100
0100
0000
,  // measure 40
1000
0000
0001
0000
,  // measure 41
0010
0010
0010
0000
,  // measure 42
0100
0000
1000
0000
,  // measure 43
0001
0001
0001
0000
,  // measure 44
0100
0000
0001
0000
,  // measure 45
1000
0000
0001
0000
,  // measure 46
1001
0000
0000
0000
,  // measure 47
0010
0000
0100
0100
,  // measure 48
0100
0000
0000
0000
,  // measure 49
0001
0000
1000
1000
,  // measure 50
1000
0000
0000
0000
,  // measure 51
0100
0000
0010
0010
,  // measure 52
0010
0000
0000
0001
,  // measure 53
0001
0000
0000
0000
,  // measure 54
1000
0000
0010
0000
,  // measure 55
0100
0100
0100
0000
,  // measure 56
0001
0000
0000
0000
,  // measure 57
0010
0000
0100
0000
,  // measure 58
1000
1000
0000
0000
,  // measure 59
1000
0000
1000
0000
,  // measure 60
0001
0000
0001
0000
,  // measure 61
0100
0000
0010
0000
,  // measure 62
0100
0000
0020
0000
,  // measure 63
0000
0000
0000
0030
;
