#TITLE:Turn Up The Love;
#SUBTITLE:;
#ARTIST:Far East Movement ft. Cover Drive;
#TITLETRANSLIT:;
#SUBTITLETRANSLIT:;
#ARTISTTRANSLIT:;
#CREDIT:SupremeX;
#BANNER:Turn Up The Love-bn.png;
#BACKGROUND:Turn Up The Love-bg.png;
#LYRICSPATH:;
#CDTITLE:cdtitle.png;
#MUSIC:Turn Up The Love.ogg;
#OFFSET:-0.182;
#SAMPLESTART:27.300;
#SAMPLELENGTH:12.000;
#SELECTABLE:YES;
#BPMS:0.000=123.950;
#STOPS:;
#BGCHANGES:;

//---------------dance-single - ----------------
#NOTES:
     dance-single:
     :
     Hard:
     7:
     0.470,0.434,0.355,0.069,0.025: // measure 1
0000
0000
0000
0000
,  // measure 2
0000
0000
0000
0000
,  // measure 3
0000
0000
0000
0000
,  // measure 4
0000
0000
0000
0000
0000
1000
0100
1000
,  // measure 5
0100
0000
1000
0000
1000
0000
0001
0010
,  // measure 6
0001
0000
0010
0000
0010
0100
1000
0100
,  // measure 7
1000
0000
1000
0000
0100
0010
0001
0010
,  // measure 8
0100
0000
0100
0010
1000
0010
0100
0001
,  // measure 9
1000
0001
1000
0001
1000
0010
0100
0010
,  // measure 10
0100
0010
0100
0010
1000
0100
1000
0100
,  // measure 11
1000
0100
1000
0100
0010
0001
0010
0100
,  // measure 12
2000
0000
0000
3002
0000
0000
0203
0000
,  // measure 13
0310
0000
1001
0000
,  // measure 14
0101
1010
1001
0110
,  // measure 15
1001
0000
0100
0010
0100
0010
1000
0001
,  // measure 16
0020
0000
0031
0000
0010
0100
1000
0100
,  // measure 17
1000
0000
0100
0010
0001
0010
0001
1000
,  // measure 18
0100
0000
0000
1000
0000
0000
0100
0000
0010
0000
0000
0000
0100
0000
0010
0000
,  // measure 19
0110
0000
0001
0010
0100
1000
0001
0100
,  // measure 20
0001
0100
0010
1010
,  // measure 21
0101
0000
1000
0100
0010
0001
1000
0100
,  // measure 22
1000
0110
0101
1010
,  // measure 23
1001
0000
0110
0000
0001
1000
0001
0000
,  // measure 24
1000
0010
0100
0001
1000
0010
0100
0001
,  // measure 25
1000
0000
0010
0100
0010
1000
0010
0100
,  // measure 26
0001
0000
0000
1000
0000
0000
0100
0000
0100
0000
0000
0000
1001
0000
0000
0000
,  // measure 27
0010
0100
0010
1000
0001
0100
0001
1000
,  // measure 28
0010
0100
0010
1000
0001
1000
0010
0100
,  // measure 29
0010
0010
1000
1000
0100
0100
0010
0001
,  // measure 30
0010
0001
0010
0100
0010
0000
1001
0000
,  // measure 31
0010
0100
0001
0100
0010
1000
0010
0000
,  // measure 32
1000
0100
0010
0001
0010
0000
0001
0000
,  // measure 33
0010
0100
1000
0100
0100
1000
0100
0000
,  // measure 34
1100
0000
0000
0000
0110
0000
0000
0011
0000
0000
0100
0000
1000
0000
0100
0000
,  // measure 35
0010
0000
0010
0000
0010
0000
0001
0100
,  // measure 36
0001
0000
0100
0000
0100
0001
1000
0001
,  // measure 37
0010
0000
0010
0000
0100
1000
0010
1000
,  // measure 38
0100
0000
0100
0010
0001
0010
0100
1000
,  // measure 39
1100
0000
1100
0000
0010
0001
0010
0001
,  // measure 40
0010
0000
0011
0000
0100
1000
0100
0010
,  // measure 41
0001
0000
0110
0000
1000
0100
0010
0001
,  // measure 42
2000
0000
0000
3020
0000
0000
2030
0000
,  // measure 43
3001
0000
0110
0000
,  // measure 44
1001
1100
0011
1001
,  // measure 45
0110
0000
0001
0100
0001
1000
0010
0100
,  // measure 46
0010
0000
1001
0000
0010
0100
0010
1000
,  // measure 47
1000
0000
0001
0010
0100
1000
0010
0100
,  // measure 48
0010
0000
0101
0000
1000
0010
0100
0010
,  // measure 49
0100
0000
0001
0010
0100
1000
0001
0100
,  // measure 50
0001
0000
0000
0000
1000
0000
0000
1010
0000
0000
0100
0000
0100
0000
0001
0000
,  // measure 51
0100
0000
0010
1000
0001
1000
0010
0000
,  // measure 52
0110
0000
0000
0110
0000
0000
0001
0000
0101
0000
0000
0000
1010
0000
0000
0000
;

//---------------dance-single - ----------------
#NOTES:
     dance-single:
     :
     Medium:
     5:
     0.295,0.332,0.089,0.020,0.000:
0000
0000
0000
0000
,
0000
0000
0000
0000
,
0000
0000
0000
0000
,
0000
0000
0000
0000
,
1000
0000
0010
0000
1000
0000
0001
0001
,
0000
0000
0100
0100
0000
0000
0010
0000
,
1000
0010
0100
0001
,
0000
0000
0000
1000
0010
1000
0010
0100
,
0010
0010
0100
0100
,
0001
0001
1000
1000
,
0010
0000
0010
0000
0100
0001
0100
0000
,
0010
0000
0000
1000
0000
0000
0001
0000
,
1000
0000
0010
0000
,
0100
0001
1000
1001
,
1001
0000
0010
0000
0100
0000
0010
1000
,
0010
0100
0100
0001
,
0001
1000
1000
0010
,
0100
0001
0100
0010
,
1000
1000
1000
0010
,
0010
0010
0010
0100
,
0100
0100
0100
0001
,
0001
0001
0001
1000
,
0010
0100
0001
1000
,
0001
0100
0010
1000
,
0001
0100
0010
1000
,
1001
0000
0110
0000
,
0001
0000
1000
0000
0010
0100
0001
0000
,
1000
0010
0100
0001
,
1000
1000
1000
0000
0010
0010
0010
0000
,
0100
0001
1000
0010
,
0110
0001
0001
0001
,
1000
0010
0100
0001
,
1000
1000
1000
0000
0001
0001
0001
0000
,
0100
0010
0100
0001
,
2000
0000
0000
0000
0000
0000
0000
3000
,
0020
0000
0000
0000
0000
0000
0030
0100
,
0000
0100
0000
0000
0000
0001
0100
0001
,
0000
0000
0000
1000
0010
1000
0010
0000
,
0100
0000
0100
0000
0001
1000
0001
0000
,
0100
0000
0100
0000
0010
1000
0010
0000
,
0100
0000
0100
0000
0001
0010
0100
0000
,
1000
0000
0000
0010
0000
0000
1000
0000
,
0001
0000
1000
0000
,
0010
0100
0001
1000
,
1010
0000
0100
0001
0100
0000
0010
1000
,
0010
0000
0010
0000
0010
0000
0100
0100
,
0100
0000
0001
0010
0001
0000
1000
0010
,
1000
0000
0001
0100
0001
0000
1000
0010
,
0100
0000
0001
0000
0001
0000
1000
0010
,
0100
0000
0001
0000
1000
0000
0001
1000
,
0010
0100
0001
1000
,
1001
0000
0110
1001
;

//---------------dance-single - ----------------
#NOTES:
     dance-single:
     :
     Easy:
     3:
     0.229,0.230,0.030,0.069,0.000:
0000
0000
0000
0000
,
0000
0000
0000
0000
,
0000
0000
0000
0000
,
0000
0000
0000
0000
,
0020
0000
0000
0000
0000
0030
0000
0000
,
0200
0000
0000
0000
0300
0000
0000
0010
,
0000
0010
0000
0000
0000
0000
0000
1000
,
0000
0000
0001
0001
,
1000
1000
0010
0010
,
0100
0100
0001
0001
,
1000
1000
0010
0010
,
0200
0000
0000
0300
,
0010
0000
1000
0000
,
0001
1000
0001
0000
,
1000
0010
1000
0010
,
1000
0010
1000
0010
,
1000
0001
0100
0001
,
0100
0001
0100
0000
,
0010
0010
0010
0010
,
0010
0010
0010
0000
,
1000
1000
1000
1000
,
1000
1000
1000
0000
,
0000
0001
0001
0001
,
0001
0001
0001
0001
,
0100
0100
0100
0100
,
0010
0000
1010
0000
,
0001
0001
0100
0100
,
0001
0001
0100
0100
,
0010
0010
1000
1000
,
0010
0010
1000
1000
,
0001
0100
0001
0100
,
0001
0100
0001
1000
,
0010
1000
0010
1000
,
0010
0100
0010
0000
,
2000
0000
0000
0000
3000
0000
0000
0010
,
0000
0000
0000
0100
0000
0000
0000
0002
,
0000
0000
0000
0003
0000
0000
0000
2000
,
0000
0000
3000
0020
0000
0000
0030
0000
,
0100
0100
0001
0001
,
1000
1000
0010
0010
,
0100
0100
0001
1000
,
1001
0000
0000
0000
,
1000
0000
0010
0000
,
0100
0001
1000
0010
,
0100
0100
0001
0001
,
1000
1000
0010
0000
,
0000
0100
0100
0001
,
0001
1000
1000
0010
,
0100
0001
0001
1000
,
1000
0010
0100
0010
,
0100
0001
0001
1000
,
0001
0000
1000
1001
;

//---------------dance-single - Copied from----------------
#NOTES:
     dance-single:
     Copied from:
     Beginner:
     1:
     0.069,0.077,0.000,0.000,0.000:
0000
0000
0000
0000
,
0000
0000
0000
0000
,
0000
0000
0000
0000
,
0000
0000
0000
0000
,
1000
0000
0000
0000
,
0100
0000
0000
0000
,
1000
0000
0000
0000
,
0100
0000
0000
0000
,
0010
0000
0000
0000
,
0001
0000
0000
0000
,
0010
0000
0000
0000
,
0001
0000
0000
0000
,
0100
0000
0000
0000
,
0100
0000
0000
0000
,
0010
0000
0000
0000
,
0010
0000
0000
0000
,
1000
0000
0000
0000
,
1000
0000
0000
0000
,
0001
0000
0000
0000
,
0001
0000
0000
0000
,
0100
0000
0000
0000
,
0100
0000
0000
0000
,
0010
0000
0000
0000
,
0010
0000
0000
0000
,
1000
0000
0000
0000
,
1000
0000
0000
0000
,
0001
0000
0000
0000
,
0010
0000
0000
0000
,
0100
0000
0000
0000
,
1000
0000
0000
0000
,
0001
0000
0000
0000
,
0010
0000
0000
0000
,
0100
0000
0000
0000
,
1000
0000
0000
0000
,
0001
0000
0000
0000
,
0100
0000
0000
0000
,
0010
0000
0000
0000
,
1000
0000
0000
0000
,
0001
0000
0000
0000
,
0010
0000
0000
0000
,
0100
0000
0000
0000
,
1000
0000
0000
0000
,
0010
0000
0000
0000
,
0010
0000
0000
0000
,
0100
0000
0000
0000
,
0001
0000
0000
0000
,
0000
0100
0000
0000
,
0010
0000
0000
0000
,
0000
1000
0000
0000
,
0010
0000
0000
0000
,
0000
0100
0000
0000
,
0001
0000
0000
1000
;
