#TITLE:Right to Left;
#SUBTITLE:;
#ARTIST:かむちゃうらる;
#TITLETRANSLIT:;
#SUBTITLETRANSLIT:;
#ARTISTTRANSLIT:Kamcha Ural;
#GENRE:Artcore;
#CREDIT:tikal.;
#MUSIC:righttoleft.ogg;
#BANNER:[Directions] - Right to Left.png;
#BACKGROUND:[Directions] - Right to Left-bg.png;
#CDTITLE:cdtitle.png;
#SAMPLESTART:89.683;
#SAMPLELENGTH:24.805;
#SELECTABLE:YES;
#OFFSET:0.317;
#BPMS:0.000=192.000
,356.000=113.778
,358.000=192.000
;
#STOPS:;
#BGCHANGES:;
#FGCHANGES:;

//--------------- dance-single - tikal. ----------------
#NOTES:
     dance-single:
     tikal.:
     Hard:
     10:
     0,0,0,0,0:
0000
0000
0000
0000
,
0000
0000
0000
0000
,
0000
0000
0000
0000
,
0000
0000
0000
0000
,
0000
0000
0000
0000
,
0000
0000
0000
0000
,
0000
0000
0000
0000
,
0000
0000
0000
0000
,
0000
1000
0000
1001
,
0001
0000
0000
0000
0010
0000
0000
0000
0001
0000
0000
0000
1001
0000
0000
1000
,
0000
0000
0010
0000
0010
0000
0000
0000
0100
0000
0000
0000
0110
0000
0000
0001
,
0000
1000
0100
0000
0000
0010
0100
0000
,
1000
0000
0001
0000
0200
0000
0000
0000
0000
0000
0301
1000
0100
0000
0010
0000
,
0001
0000
1000
0000
0020
0000
0000
0000
0000
0000
1030
0001
0010
0000
0100
0000
,
1000
0001
0200
0000
0000
0000
0320
0000
,
0000
0000
0000
2030
,
0000
0002
0000
0000
,
0000
0000
0000
0000
0000
0000
0000
0000
3003
0000
0001
0010
0001
0000
0100
0000
,
0010
1000
1010
0000
0000
0010
0000
0000
,
0101
0000
0001
0000
1001
0000
0000
1000
,
0000
1100
0100
0110
,
0000
0010
0000
0000
0011
0000
1001
0000
,
0220
0000
0330
2002
,
0000
0000
0000
0000
3003
1000
0100
0010
,
0002
0000
0000
0000
0000
0000
0013
0100
1000
0000
0001
0000
0100
0000
0010
0000
,
2000
0000
0000
0000
0000
0000
3001
0010
0001
0000
0100
0000
0010
0000
1000
0000
,
0200
0000
0000
0000
0000
0000
0310
0001
1000
0000
0001
0000
0010
0000
0100
0000
,
2000
0000
0000
0000
0000
0000
3001
1000
0001
0000
0010
0000
0100
0000
1000
0000
,
0001
0000
0100
0000
0010
0000
0100
0010
1000
0000
0001
0000
0010
0000
0100
0000
,
2000
0000
0000
0000
3001
0010
0100
1000
0001
0000
0100
0000
0010
0000
1000
0000
,
1010
0000
0000
0011
0000
0000
1001
0000
0000
0000
1000
0000
0100
0000
0010
0000
,
0110
0000
0000
1100
0000
0000
1001
0000
0101
0000
0000
0000
0000
0000
0000
0000
,
2000
0000
0000
0000
0000
0000
3010
0100
0001
0000
1000
0000
0100
0000
0010
0000
,
0002
0000
0000
0000
0000
0000
1003
0010
1000
0000
0100
0000
0010
0000
0001
0000
,
0200
0000
0000
0000
0000
0000
0310
1000
0001
0000
1000
0000
0010
0000
0100
0000
,
0002
0000
0000
0000
0000
0000
1003
0001
1000
0000
0010
0000
0100
0000
0001
0000
,
2000
0000
3010
0100
0000
0001
0010
0100
,
0020
0000
0000
0000
0000
0000
0031
0100
0010
0000
0010
0000
1000
0000
0001
0000
,
0200
0000
0000
0010
0000
0010
0000
0300
,
0110
0000
0000
1001
0000
0000
0110
0000
,
0001
0100
0000
0000
0110
0000
0010
1000
,
0000
0010
0100
0001
0100
0010
1000
0000
,
0001
0010
0000
0000
0110
0000
0100
1000
,
0000
0100
0010
0001
0010
0100
1000
0001
,
1000
0100
0000
0000
0110
0000
0010
0001
,
0000
0010
0100
1000
0100
0010
0001
0000
,
1000
0010
0000
0000
0110
0000
0100
0001
,
0000
0100
0010
1000
0010
0100
0001
1000
,
1100
1000
0000
0100
0000
0000
0011
0001
,
0000
0000
0010
0000
0001
0010
0001
0000
0010
0100
0010
0000
0100
1000
0100
0000
,
1100
1000
0000
0100
0000
0000
0011
0001
,
0000
0000
0010
0000
0001
0100
0001
0000
0100
0010
0100
0000
0010
1000
0010
0000
,
1010
1000
0000
0010
0000
0000
0101
0001
,
0000
0000
0100
0000
0001
0100
0001
0000
0100
0010
0100
0000
0010
1000
0010
0000
,
1010
1000
0000
0010
0000
0000
0101
2002
,
0000
0000
0000
3003
,
1000
0000
1001
0001
,
0010
0000
0000
0100
0000
0000
1000
0000
,
1000
0000
0000
0001
0000
0000
0100
0000
,
0020
0000
0130
0000
,
0001
0000
1001
1000
,
0010
0000
0000
0100
0000
0000
0001
0000
,
0001
0000
0000
1000
0000
0000
0100
0000
,
0020
0000
0230
0000
,
1300
0000
1100
0001
,
0010
0000
0000
0100
0110
0000
1000
0000
,
1000
0000
0000
0010
0110
0000
0100
0000
,
0001
0000
0000
1000
0001
0000
0010
0000
,
0001
1000
0001
1000
,
0001
0100
0001
0000
1000
0100
1000
0000
,
0001
0100
0010
1000
0001
0010
0100
1000
,
0001
0000
0000
0001
0000
0000
0100
0000
0010
0000
0000
0000
2000
0000
0000
0000
,
3002
0000
0000
0000
0000
0000
1003
0100
0010
0000
0100
0000
0010
0000
0001
0000
,
2000
0000
0000
0001
0002
0000
3003
0000
,
1000
0100
0100
0200
0000
0310
0100
0010
,
0000
0010
0001
2000
0000
3000
1000
0010
,
0200
0000
0000
0301
0000
0001
1000
0001
,
0000
0001
1000
0001
0000
0010
0000
0100
,
2000
0000
0000
0000
0000
0000
0002
0000
0000
3000
1003
0000
0100
0000
0010
0000
,
0100
0000
0000
0100
0000
0000
1000
0000
0001
0000
0000
0000
0100
0000
0010
0000
,
2000
0000
0000
0000
0000
0000
3001
0000
0000
0000
0001
0100
0010
0000
1000
0000
,
0002
0000
0000
0000
0000
0000
1003
0100
0010
0000
0000
0100
0000
0000
1000
0000
,
2000
0000
0000
0000
3200
0000
0000
0000
0310
0000
0000
0001
0000
0000
0001
0000
,
2000
0000
0000
0000
0000
0000
3020
0000
0200
0000
0000
0330
0001
0000
0010
0000
,
0100
0000
0000
1000
0000
0000
0100
0000
0010
0000
0100
0000
1000
0000
0001
0000
,
0200
0320
2030
3002
,
2003
0000
0000
0000
0000
0000
3100
0010
0001
0000
1000
0000
0010
0000
0100
0000
,
0001
0000
0001
0000
0101
0000
1000
0000
1100
0000
1001
0000
,
1000
0000
1010
0000
0110
0000
0101
0000
0011
0000
0110
0000
,
0000
0000
2200
0000
,
0000
0000
0000
0000
3000
0000
0000
0000
0310
0000
0000
0000
0001
0000
0000
1000
,
0001
0010
0100
1000
0001
0100
0010
1000
0002
0000
0000
0000
0000
0000
1003
0000
,
0100
0010
0100
1000
0001
0100
0010
0100
,
0001
0100
0010
1000
0200
0000
0000
0310
,
0001
0010
0100
1000
0020
0000
0000
0130
,
0001
1000
0100
0010
0002
0000
0000
1003
,
0100
0000
0000
1000
0000
0000
0010
0000
0000
0100
0000
0000
0001
0000
0010
0000
0100
0000
1000
0000
0010
0000
0100
0000
,
0001
0000
0000
1000
0000
0000
1001
0000
0000
0000
0000
0000
0110
0000
0000
0000
,
1000
0100
0010
0001
1000
0010
0100
0010
,
1000
0010
0100
0001
0020
0000
0000
0130
,
0010
0001
1000
0010
0100
0010
1000
0001
,
0010
0100
1000
0001
2000
0000
3010
0001
,
0010
0100
0001
1000
0002
0000
0013
1000
,
0010
0100
1000
0001
2000
0000
3010
0100
,
0002
0000
0013
0100
1000
0100
0010
0001
,
1000
0000
0000
0001
0000
0000
1001
0000
0000
0000
0000
0000
0000
0000
0000
0000
,
0220
0000
0000
0000
,
0000
0000
0000
0000
,
0000
0000
0000
0000
,
0000
0000
0000
0000
0330
0001
1000
0000
;

//--------------- dance-single - tikal. ----------------
#NOTES:
     dance-single:
     tikal.:
     Challenge:
     12:
     0,0,0,0,0:
0000
0000
0000
0000
,
0000
0000
0000
0000
,
0000
0000
0000
0000
,
0000
0000
0000
0000
,
0000
0000
0000
0000
,
0000
0000
0000
0000
,
0000
0000
0000
0000
,
0000
0000
0000
0000
,
0000
1000
0010
0110
,
0100
0000
0000
0000
0001
0000
0000
0000
1000
0000
0100
0000
0010
0001
0010
0001
,
1000
0010
1000
0000
0001
0000
0000
0000
0010
0000
0000
0000
0110
0000
0000
0000
,
0100
0000
0000
0000
1000
0000
0000
0000
0001
0000
0100
0000
0010
1000
0010
1000
,
0001
0010
0001
0000
1000
0000
0000
0000
0001
0000
0000
0000
0110
0000
0000
0000
,
1000
0001
1000
0110
,
0001
2000
0000
3002
,
0000
0000
0000
0203
,
0000
0020
0000
0030
,
2000
0000
0000
0000
0000
0000
3000
0000
0000
0000
0310
0100
0010
0000
1000
0000
,
0001
0000
0010
0000
0110
0000
0000
0000
1000
0001
1000
0001
1000
0000
0010
0000
,
0100
0000
0001
0000
1000
0100
1000
0000
0001
0000
0100
0000
0001
1000
0001
1000
,
0001
0000
0010
0000
0100
0000
1000
0000
0010
0100
0010
0000
1000
0000
0001
0000
,
0010
0100
0010
0100
0010
0000
0001
0000
1000
0000
0100
0000
1000
0000
0000
0000
,
0010
0100
0010
0100
0001
1000
0001
1000
0100
0000
0000
0000
2002
0000
0000
0000
,
0000
0000
0000
0000
3003
1000
0100
0010
,
0002
0000
0000
0000
1003
0000
0010
0100
0010
0000
1000
0001
1000
0000
0100
0010
,
0001
0000
1000
0000
0010
1000
0010
1000
0001
0010
0001
0010
0100
0000
1000
0001
,
2000
0000
0000
0000
3001
0000
0010
0100
0010
0000
0001
1000
0001
0000
0100
0010
,
1000
0000
0001
0000
0010
0001
0010
0001
1000
0010
1000
0010
0100
0000
0001
1000
,
0001
0000
1000
0100
1000
0000
0001
0100
0001
0000
1000
0010
1000
0000
0001
0010
,
0001
0000
1000
0100
0010
0000
0001
0100
0010
1000
0001
1000
0100
0000
0010
0001
,
1000
0000
0001
0010
0001
0000
1000
0010
1000
0001
1000
0100
0010
0001
1000
0001
,
0100
0000
0010
0100
0001
0000
0010
0100
1000
0000
0000
0000
0000
0000
0000
0000
,
0002
0000
0000
0000
1003
0000
0100
0010
0100
0000
1000
0001
1000
0000
0010
0100
,
0001
0000
1000
0000
0100
1000
0100
1000
0001
0100
0001
0100
0010
0000
1000
0001
,
2000
0000
0000
0000
3001
0000
0100
0010
0100
0000
0001
1000
0001
0000
0010
0100
,
1000
0000
0001
0000
0100
0001
0100
0001
1000
0100
1000
0100
0010
0000
0001
1000
,
0001
0000
1000
0010
1000
0000
0001
0010
0001
0000
1000
0100
1000
0000
0001
0100
,
0001
0000
1000
0010
0100
0000
0001
0010
0100
1000
0001
1000
0010
0000
0100
0001
,
1000
0000
0001
0100
0001
0000
1000
0100
1000
0001
1000
0010
0100
0001
1000
0001
,
0010
0000
0100
0010
0001
0000
0100
0010
1000
0001
1000
0100
0010
0000
0001
0000
,
1001
0000
0100
0000
0110
0000
0001
1000
,
0000
0000
0001
0000
1000
0100
1000
0100
0010
0100
0010
0100
0010
0001
0010
0001
,
1000
0001
0100
0000
0110
0000
1000
0001
,
0000
0000
1000
0000
0001
0100
0001
0100
0010
0100
0010
0100
0010
1000
0010
1000
,
0001
1000
0010
0000
0110
0000
0001
1000
,
0000
0000
0001
0000
1000
0010
1000
0010
0100
0010
0100
0010
0100
0001
0100
0001
,
1000
0001
0010
0000
0110
0000
1000
0001
,
0000
0000
1000
0000
0001
0010
0001
0010
0100
0010
0100
0010
0100
1000
0100
1000
,
0001
0000
0000
0000
1000
0000
0010
0100
0001
1000
0001
1000
0100
0000
0010
0100
,
1000
0000
0001
0000
0100
0001
0100
0001
0010
0100
0010
0100
1000
0010
1000
0010
,
1000
0000
1000
0000
0001
0000
0010
0100
1000
0001
1000
0001
0100
0000
0010
0100
,
0001
0000
1000
0000
0100
1000
0100
1000
0010
0100
0010
0100
0001
0010
0001
0010
,
0001
0000
0001
0000
1000
0000
0100
0010
0001
1000
0001
1000
0010
0000
0100
0010
,
1000
0000
0001
0000
0010
0001
0010
0001
0100
0010
0100
0010
1000
0100
1000
0100
,
1000
0000
1000
0000
0001
0000
0100
0010
1000
0001
1000
0001
0010
0000
0220
0000
,
0000
0030
2000
0300
,
3001
0100
0010
1000
0001
0010
0100
1000
,
0001
0010
0100
1000
0001
0100
0010
1000
,
0001
0010
0001
0100
0010
1000
0100
1000
,
0001
0100
0001
0010
0100
1000
0010
1000
,
0001
0010
0100
1000
0001
0100
0010
1000
,
0001
0100
0010
1000
0001
0010
0100
1000
,
0001
0100
0001
0010
0100
1000
0010
1000
,
0001
0010
0001
0100
0020
0000
0000
0000
,
1030
0000
0100
0000
0110
0000
0010
0001
,
1000
0000
0001
0100
0110
0010
1000
1000
,
0001
0000
0010
0100
0110
1000
0001
1001
,
1000
0000
0001
0110
1000
0000
0000
0001
,
1000
1100
0001
0101
,
1000
0010
1010
0000
0001
0010
0011
0000
,
1001
0000
0000
0000
0110
0000
0000
0000
1000
0010
0100
0001
1000
0100
0010
0001
,
1000
0000
0000
1000
0000
0000
0010
0000
0100
0000
0000
0000
0004
0000
0000
0000
,
2003
0000
0000
0000
3001
0000
0010
0100
0010
0000
0001
1000
0001
0000
0100
0010
,
1000
0000
0001
0000
0010
0001
0010
0001
1000
0010
1000
0010
0100
0000
0001
1000
,
0002
0000
0000
0000
1003
0000
0010
0100
0010
0000
1000
0001
1000
0000
0100
0010
,
0001
0000
1000
0000
0010
1000
0010
1000
0001
0010
0001
0010
0100
0000
1000
0001
,
1000
0000
0001
0100
0001
0000
1000
0100
1000
0000
0001
0010
0001
0000
1000
0010
,
1000
0000
0001
0100
0010
0000
1000
0100
0010
0001
1000
0001
0100
0000
0010
1000
,
0001
0000
1000
0010
1000
0000
0001
0010
0001
1000
0001
0100
0010
1000
0001
1000
,
0100
0000
0010
0100
1000
0000
0010
0100
0001
0000
1000
0001
1000
0001
0100
0010
,
2000
0000
0000
0000
3001
0000
0100
0010
0100
0000
0001
1000
0001
0000
0010
0100
,
1000
0000
0001
0000
0100
0001
0100
0001
1000
0100
1000
0100
0010
0000
0001
1000
,
0002
0000
0000
0000
1003
0000
0100
0010
0100
0000
1000
0001
1000
0000
0010
0100
,
0001
0000
1000
0000
0100
1000
0100
1000
0001
0100
0001
0100
0010
0000
1000
0001
,
1000
0000
0001
0010
0001
0000
1000
0010
1000
0000
0001
0100
0001
0000
1000
0100
,
1000
0000
0001
0010
0100
0000
1000
0010
0100
0001
1000
0001
0010
0000
0100
1000
,
0001
0000
1000
0100
1000
0000
0001
0100
0001
1000
0001
0010
0100
1000
0001
1000
,
0010
0000
0110
0000
1010
0000
1001
0000
0011
0000
0110
0000
,
1100
0000
1001
0000
0101
0000
0110
0000
1010
0000
1001
0000
,
0000
0000
0022
0000
,
0000
0000
0000
0000
0003
0000
0000
0000
0130
0000
1000
0000
0001
0000
0000
1000
,
0010
0100
0001
1000
0100
0010
0001
1000
0002
0000
0000
0000
1003
0100
0010
0001
,
1000
0010
0100
0001
1000
0100
0010
0100
1000
0001
0100
0010
0100
0010
1000
0001
,
1000
0100
0010
0001
1000
0010
0100
0001
2000
0000
0000
0000
3001
0010
0100
1000
,
0001
0100
0001
1000
0100
0010
0001
1000
0020
0000
0000
0000
0130
0001
1000
0100
,
0040
0000
0130
1000
0001
0100
0010
1000
0002
0000
0000
0000
1003
0001
0010
0100
,
0010
0000
0000
0004
0000
0000
1003
0000
0000
0001
0000
0000
1000
0000
0000
0010
0000
0000
0100
0000
0000
0001
0000
0000
0100
0000
0000
0000
0010
0000
0000
0000
1000
0000
0000
0000
0001
0000
0000
0000
0010
0000
0000
0000
0100
0000
0000
0000
,
1000
0000
0000
1100
0000
0000
0101
0000
0000
0000
0000
0000
2001
0000
0000
0000
,
3001
1000
0100
0010
0001
0000
1000
0001
1000
0000
0001
0100
0010
1000
0001
1000
,
0010
0400
0301
1000
0100
0010
0100
1000
0002
0000
0000
0000
0103
0001
0010
0100
,
1000
0001
0100
0010
1000
0001
1000
0010
0200
0000
0301
1000
0001
0010
0100
1000
,
0001
0040
0130
0010
0001
1000
0001
0100
0020
0000
0000
0000
1030
0010
0100
0001
,
1000
0001
0010
0100
1000
0100
0010
0004
2003
0000
0000
0000
3001
0010
0100
1000
,
0001
4000
3010
0100
0001
0100
0010
1000
0200
0000
0000
0000
1300
0100
0010
0001
,
1000
0004
0103
0010
1000
0010
0100
0001
1000
0001
0010
0100
0010
0001
1000
0010
,
0100
0001
1000
0001
0010
0100
1000
0001
0000
0000
0000
0000
0000
0000
0000
0000
,
2002
0000
0000
0000
,
0000
0000
0000
0000
,
0000
0000
0000
0000
,
0000
0000
0000
0000
0000
0000
0000
0000
0000
0000
0000
0000
3003
0000
0000
0001
0010
0100
1000
0000
0000
0000
0000
0000
;
