#TITLE:Right Side Up;
#SUBTITLE:;
#ARTIST:MELVV (feat. Manila Killa & Sophia Black);
#TITLETRANSLIT:;
#SUBTITLETRANSLIT:;
#ARTISTTRANSLIT:;
#GENRE:;
#CREDIT:PWG;
#MUSIC:Right Side Up.ogg;
#BANNER:Right Side Up.png;
#BACKGROUND:Right Side Up-bg.png;
#CDTITLE:;
#SAMPLESTART:54.521;
#SAMPLELENGTH:24.300;
#SELECTABLE:YES;
#OFFSET:-0.221;
#BPMS:0.000=100.000;
#STOPS:97.000=0.600;
#BGCHANGES:;
#FGCHANGES:;

//--------------- dance-single - PWG ----------------
#NOTES:
     dance-single:
     PWG:
     Beginner:
     2:
     0,0,0,0,0:
0000
0000
0000
0000
,
0000
0000
0000
0000
,
0000
0000
0000
0010
,
0000
0100
0000
0001
,
0000
1000
0000
0001
,
0000
1000
0000
0010
,
0000
0100
0000
1000
,
0000
0000
0000
0001
,
0000
0000
0000
0010
,
0100
0000
0000
0000
,
0000
0000
1000
0100
,
0010
0000
0000
0000
,
0000
0000
0001
0100
,
0000
0010
0000
1000
,
0000
0001
0000
0100
,
0000
0010
0000
0001
,
0000
1000
0000
0100
,
0000
0000
0010
0100
,
0000
0000
0010
0001
,
0000
1000
0000
0100
,
0000
1000
0000
0001
,
0000
0000
0000
1000
,
0000
0000
0000
0100
,
0000
0010
0000
0001
,
0000
0010
0000
0000
1000
0000
0100
0000
,
1000
0000
0001
0100
,
0001
0000
0010
0100
,
1000
0000
0100
0010
,
0001
0000
1000
0000
,
0010
0000
0001
0000
,
0100
0000
1000
0100
,
1000
0000
0001
0010
,
0001
0000
2000
3000
,
0010
0000
0002
0003
,
0100
0000
1000
0010
,
0000
0100
0010
1000
,
0100
0000
0001
0010
,
0100
0000
0001
0000
,
1000
0000
0100
0000
,
1000
0000
0001
0000
,
0100
0000
0010
0000
,
1000
0000
0001
0000
,
0000
0000
1000
0000
,
0000
0010
0100
0000
,
0000
0000
0001
0000
,
0000
0000
1000
0000
,
0000
0000
0010
0000
,
0000
0000
0001
0000
,
1000
0000
0100
0000
,
0010
0000
1000
0010
,
0100
0000
0001
1000
,
0100
0000
0010
0100
,
1000
0000
0001
0010
,
0000
0000
0010
0000
,
0000
0000
0100
0000
,
0000
0000
1000
0000
,
0010
0000
0000
0000
0001
0000
0000
0010
;

//--------------- dance-single - PWG ----------------
#NOTES:
     dance-single:
     PWG:
     Easy:
     3:
     0,0,0,0,0:
0000
0000
0000
0000
,
0000
0000
0000
0000
,
0000
0000
0000
0010
,
0100
0001
1000
0100
,
1000
0010
0000
0001
,
0100
1000
0010
1000
,
0000
0001
0001
0100
,
0010
1000
0001
0010
,
0001
0000
0110
0000
0000
0000
0010
0100
,
0010
1000
2000
0000
,
3000
0000
0000
0000
0000
0000
0100
0010
,
0100
0001
0002
0000
,
0003
0000
0000
0000
0000
0000
1000
0100
,
0010
0000
0001
0000
0000
0000
0001
0010
,
0100
1000
0000
1000
,
0010
0100
0001
0001
,
0100
0010
1000
0010
,
0100
0001
0000
0001
,
1000
0010
0000
0100
,
0010
0000
1000
0000
0000
0000
0001
0001
,
0010
1000
0100
1000
,
0010
0100
0000
0001
,
0100
0000
0010
0000
0000
0000
0001
1000
,
0001
0000
0000
0000
1000
0000
0001
0000
1000
0000
0000
0000
0001
0000
0000
0001
,
0000
0010
0000
0000
0100
0000
0010
0000
,
1000
0001
1000
0010
,
0100
0000
0001
0001
0100
0000
0010
0000
,
1000
0100
0010
0000
,
0001
0000
1000
1000
0010
0000
0100
0000
,
0001
1000
0010
0100
,
0001
0000
1000
1000
0100
0000
0010
0000
,
1000
0000
0100
0010
,
1000
0001
0100
0000
,
0010
0000
1000
0100
,
1000
0100
0010
0100
,
0001
0100
0010
1000
,
0100
1000
0001
0100
,
0001
0010
0100
0100
,
0010
0010
1000
0001
,
0010
0100
0001
1000
,
0100
0010
0100
0001
,
1000
0000
0020
0000
,
0030
0100
2000
0000
,
3000
0001
0001
0000
0010
0000
0100
0000
,
0001
1000
0010
0001
,
0020
0030
1000
0100
,
0000
0100
0010
1000
,
0001
0100
0010
0100
,
0001
1000
0100
0100
,
0200
0000
0310
1000
,
0001
1000
0100
0000
,
0100
0000
0010
0000
2000
0000
0000
3000
,
0200
0000
0000
0300
0001
0001
0010
0000
,
0100
0000
0010
1000
,
0100
0000
0001
0100
,
0010
0000
0200
0000
,
2300
0000
0000
0000
0000
0000
0000
0000
3001
0000
0000
0001
0000
0000
0010
0000
;

//--------------- dance-single - PWG ----------------
#NOTES:
     dance-single:
     PWG:
     Medium:
     5:
     0,0,0,0,0:
0000
0000
0000
0000
,
0000
0000
0000
0000
,
0000
0000
0000
0000
,
0000
0000
0010
0100
0001
0000
1000
0010
,
0100
0000
0010
0100
0001
1000
0010
1000
,
0010
0000
0010
0100
0001
0000
0010
0100
,
0001
1000
0010
1000
0100
0000
0020
0030
,
0010
0000
0200
0300
0100
0000
0001
1000
,
0010
0000
1000
0001
0010
0000
0100
0100
,
0010
0000
0010
0010
0100
0000
1000
1000
,
0001
0000
0001
0001
1000
0000
1000
0100
,
0010
0000
0001
0010
0100
0000
0100
0010
,
0100
0000
0010
0100
0010
0000
2000
0000
,
3020
0032
0203
0302
,
0023
2030
3200
0310
,
0100
0000
0100
0000
0010
0000
1000
1000
,
0001
0001
0100
0010
0100
0000
0100
0100
,
0010
0000
0001
0001
0100
0000
1000
1000
,
0010
0000
0100
0100
0010
0000
1000
0100
,
1000
0100
0001
0010
0001
0010
0001
0001
,
0010
0000
1000
0010
1000
0010
1000
0000
,
1000
1000
0010
0000
0010
0000
0001
0000
,
0001
0001
0010
0000
0010
0000
0100
0010
,
0010
0000
0100
0000
0100
0000
0010
0000
0100
0000
0100
0000
0001
0000
0000
0001
,
0000
0010
0000
0000
0100
0100
0010
1000
,
0001
0100
0010
0000
0010
0010
0100
0001
,
1000
0010
0100
0000
0100
0010
1000
0001
,
0100
0010
1000
0000
0010
0100
0001
1000
,
0010
0100
0001
0000
1000
1000
0010
0100
,
0001
0001
0100
0010
1000
0100
0010
0001
,
0100
0010
0100
0010
1000
0100
0001
0010
,
0001
0010
0100
1000
0010
0100
0010
0100
,
0010
0100
0010
0100
1001
0000
0100
0000
,
0010
0100
1001
0100
,
0010
0001
0010
0000
0110
0000
1000
0010
,
0100
0001
0010
0000
0110
0000
0001
1000
,
0010
0100
0001
0000
1000
0010
0100
0001
,
0100
0010
1100
0100
,
0101
0010
0011
0100
,
1010
0000
0100
0000
0010
0100
0001
0000
,
1000
0010
0100
0000
1000
0010
0100
0000
,
0001
0100
0010
0000
1000
1000
0010
0100
,
0010
0100
0001
1000
0010
0100
0001
0010
,
0000
0000
0000
0000
0001
0001
0010
0100
,
0010
1000
0100
1000
0000
0010
0000
0000
,
0000
0000
0000
0000
0010
0100
0001
1000
,
0010
1000
0010
0100
0001
1000
0010
1000
,
0000
0000
1000
0100
0000
0000
0000
0001
,
0000
0000
0000
0020
0000
0000
0000
0000
,
0000
0000
1030
1000
,
0100
0010
1000
0000
0001
0000
0100
0000
,
0010
1000
0001
0100
0010
1000
0010
0100
,
0001
0010
0001
0100
0001
0001
0010
0000
,
0000
0000
0010
0100
0010
1000
0100
0000
,
0010
0100
0001
0100
0010
0100
0010
0000
,
0010
1000
0001
0100
0010
1000
0010
0100
,
0001
0000
0100
0000
0010
0000
1000
0000
0001
0000
0000
0001
0000
0000
0010
0000
;

//--------------- dance-single - PWG ----------------
#NOTES:
     dance-single:
     PWG:
     Hard:
     7:
     0,0,0,0,0:
0000
0000
0000
0000
,
0000
0000
0000
0000
,
0000
0000
0000
0000
0000
0000
1000
0010
,
0001
0000
0001
0010
1000
0000
1000
0100
,
0001
0000
0001
0100
1000
0000
0010
0100
,
0010
0000
0100
0010
0100
0000
1000
0010
,
0100
0000
0001
0010
0100
0000
0001
0100
,
0010
0000
1000
0100
0010
0000
0010
0100
,
0001
1000
0100
0010
1000
0000
2000
0000
,
3100
0200
0310
0020
,
0031
0000
0000
0000
0002
0000
0000
0003
1001
0000
0000
0000
1000
0000
0100
0000
,
0010
0100
0001
1000
0010
0100
0010
0100
,
0001
1000
0010
0000
1000
0000
0010
0100
,
0000
0000
0000
0100
0010
1000
0001
0100
,
0010
0100
0001
1000
0010
0000
0100
1000
,
0010
0000
0100
0001
0010
0000
0100
0010
,
1000
0000
0000
0000
1000
0100
1000
0000
0001
0010
0001
0000
1000
0000
1000
0000
,
0100
0100
0010
0010
1000
1000
0001
0001
,
0010
0000
0010
0000
0100
0000
0100
0000
0001
0000
0001
0000
1000
0100
0010
0000
,
0010
0000
0100
0000
0001
0000
0010
0000
0100
0000
0010
1000
0001
0000
0001
0000
,
0010
0000
0000
0000
1000
0000
0010
0000
0100
0000
0000
0000
0100
0010
0100
0000
,
0001
0000
1000
0000
0010
0000
1000
0000
0010
0000
0000
0000
0010
0100
0010
0000
,
0001
0100
0010
1000
0100
0000
0010
1000
,
0010
0000
0000
0000
0100
0000
0001
0000
0100
0000
0010
0100
0001
0000
0000
0001
,
0000
0000
0010
0000
0000
0000
0000
0000
1000
0000
0000
0000
0001
0000
0100
0010
,
0000
0100
0010
0000
0010
0100
0000
0001
0000
0000
0000
0000
0010
0000
0100
0010
,
0000
0100
0010
0000
0010
0100
0000
0010
0000
0000
0000
0000
0100
0000
0100
0010
,
0000
0100
0010
0000
0010
0100
0000
0100
0000
0000
0000
0000
1000
0000
0100
0010
,
0000
0100
0010
0000
0010
0100
0000
1000
0000
0000
1000
0010
0100
0000
0001
0100
,
0010
0000
0010
1000
0001
0000
0100
0001
1000
0000
0001
0100
0010
0000
1000
0010
,
0100
0000
1000
0100
1000
0000
0010
0100
0001
0000
0000
0000
0110
0000
0000
0000
,
1100
0000
0011
0010
1000
0001
1000
0010
,
0100
0001
0010
0000
0010
0000
0010
0000
,
0100
0000
0100
0000
1000
1000
0020
0000
,
0031
0001
0020
0000
1030
1000
0200
0000
,
0301
0001
0200
0000
0310
0100
0001
1000
,
0010
1000
0200
0000
0310
0100
0001
1000
,
0010
0100
0002
0000
1103
0000
0100
0000
,
0010
0100
0010
0000
0101
0000
0100
0000
,
0100
0010
1000
0001
1000
0000
0100
0000
,
0010
0000
0001
0000
1000
0000
0000
0000
0010
1000
0010
0000
0100
0000
0001
0000
,
0100
0010
1000
0001
0100
0000
0100
0000
,
0010
1000
0100
0000
0010
0000
0100
0000
,
0010
0001
0100
0000
0100
1000
0010
0100
,
0001
0100
0010
1000
0100
1000
0010
0100
,
0000
0100
0001
0000
0010
0100
0000
0000
,
0000
0100
0010
0001
0100
1000
0010
0100
,
0001
0000
0000
0000
0010
0000
0000
0000
1000
0000
0000
1000
0010
0000
1000
0000
,
0001
0000
0000
0001
0010
0000
0001
0000
0100
0000
0010
0000
1000
0000
0001
1000
,
0010
0100
0001
1000
0100
0000
1000
0000
0010
0000
0100
0001
0100
0000
0010
0000
,
1000
0000
0001
1000
0100
0000
1000
0000
0010
0000
0100
0001
0100
0000
0010
1000
,
0001
0010
0100
1000
0010
0000
0100
0000
0001
0100
0010
0000
0100
0000
0001
1000
,
0010
0000
1000
0000
0010
0100
0001
0100
0001
0000
0001
0000
0010
0000
0000
0000
,
0100
0000
0010
0000
0001
0000
0000
0000
0010
0100
0010
0000
1000
0000
0000
0000
,
0100
1000
0100
0000
0010
0000
0000
0000
0010
0100
0001
0000
0010
0000
0000
0000
,
0001
0010
0001
0000
0100
0000
0000
0000
0010
0100
0001
1000
0010
0000
1000
0000
,
0010
0000
0100
0000
0001
0000
0010
0100
0001
0000
0000
0001
0000
0000
0010
0000
;

//--------------- dance-single - PWG ----------------
#NOTES:
     dance-single:
     PWG:
     Challenge:
     9:
     0,0,0,0,0:
0000
0000
0000
0000
,
0000
0000
0000
0000
,
0000
0000
0000
0000
,
0000
0010
0000
0100
0000
0001
0000
1000
0000
0100
0000
2010
0000
0000
0000
0000
,
3000
0000
0010
0100
0010
1000
0001
0001
,
0000
1000
0000
0010
0000
0100
0000
0001
0000
1000
0000
0021
0000
0000
0100
0000
,
0030
0000
0000
0000
0010
0100
0001
1000
0100
1000
0010
0100
0001
0000
0100
0000
,
0010
0000
0100
0001
1000
0000
0010
0000
1000
0000
1000
0000
0100
0010
0100
0001
,
1000
0010
0100
0010
1000
0000
0001
0000
1000
0010
1000
0000
0001
0100
0010
0000
,
0100
0000
0001
0000
1000
0010
1000
0000
0001
0000
0100
0000
0010
0100
0001
1000
,
0010
0000
1000
0000
0001
0100
0010
0000
0100
0010
1000
0000
0001
1000
0010
0100
,
0001
0000
0100
0000
0010
0000
1000
0000
0001
1000
0010
0000
0100
0000
0001
0000
,
0100
0000
0010
0000
0100
0001
0100
0010
1000
0001
1000
0100
1000
0000
0010
0000
,
0100
0000
0011
0000
1100
0000
0000
0000
0010
0000
0100
0000
0010
0100
0001
0000
,
1000
0010
0000
0000
0001
0011
0000
0000
,
1000
1100
0000
0010
0100
0010
0001
0010
,
0100
0000
1000
0000
0010
1000
0001
1000
0010
0100
0001
0100
0010
0000
1000
0000
,
0001
0000
1000
0000
0001
0000
1000
0000
0010
0100
0001
0000
0100
0000
0010
0000
,
1000
0000
0001
0000
1000
0000
0010
0000
0100
0010
1000
0000
0001
1000
0100
0010
,
0001
0000
0100
0010
0100
0000
0001
0000
1000
0000
0010
1000
0001
0000
0001
0000
,
0010
0000
0000
0000
0010
0000
1000
0000
0100
0010
0100
0001
1000
0000
0010
0000
,
1000
0000
0010
1000
0010
0100
0010
0100
0001
0000
1000
0000
0010
1000
0001
0000
,
0100
0000
0010
0100
0001
1000
0010
0000
1000
0000
1000
0000
0010
0100
0010
0100
,
0010
0000
0100
0001
0100
0000
0010
0000
0100
0000
0010
0100
0001
0000
0000
0001
,
0000
0000
0010
0000
0000
0000
0000
0000
0010
0100
0010
0000
1000
0001
1000
0010
,
0100
0001
0100
0010
1000
0001
0000
1000
0000
0000
0010
0000
0100
0001
0100
0010
,
0100
0001
1000
0010
1000
0010
0000
1000
0000
0000
0001
0000
0100
0010
0100
0001
,
1000
0010
1000
0001
0100
0010
0000
0100
0000
0000
0000
0000
0001
1000
0010
1000
,
0001
0100
0010
0100
0001
1000
0000
0010
0000
0000
0000
0000
0010
0100
0001
0100
,
0010
1000
0001
1000
0010
0100
0000
0010
0000
0000
0000
0000
0010
0100
0001
0100
,
0010
1000
0001
1000
0100
1000
0000
0010
0000
0000
0000
0000
0001
0100
0010
0100
,
0001
0100
0010
1000
0001
1000
0000
0010
0000
0000
0000
0000
0001
0000
0100
0000
,
0010
0000
0100
0010
0001
0100
0010
1000
0001
0000
0000
0000
0010
0000
0000
0000
,
0100
0000
0001
0000
1000
0000
0000
0000
0010
1000
0001
0000
0100
0000
0010
0000
,
0100
0000
0010
0000
1000
0001
1000
0000
0010
0100
0001
0000
1000
0000
0100
0001
,
1000
0000
0010
0000
0100
0000
0010
0000
0100
0000
0010
1000
0100
0000
1000
0010
,
0100
0001
0100
0010
1000
0000
0001
0000
1000
0010
1000
0001
0100
0010
0100
0001
,
1000
0010
1000
0001
0100
0010
0100
0001
0100
0000
0010
0000
1000
0000
0001
1000
,
0010
0000
1000
0000
0010
0000
0100
0001
0100
0000
0010
0000
0100
0000
0010
0100
,
0001
0100
0010
1000
0001
0000
1000
0000
0010
0000
0010
0000
0100
0000
0100
0000
,
0001
0000
1000
0000
0010
0000
1000
0000
0001
0100
0010
0100
0001
0000
1000
0000
,
0010
0000
1000
0000
0001
0000
0000
0000
0110
0000
1000
0000
0001
0100
0010
0000
,
0100
0001
1000
0010
1000
0001
0100
0040
,
0000
0000
0030
0000
1001
0010
0100
0001
,
1000
0010
1000
0001
0100
0010
1000
0400
,
0000
0000
0000
0000
0300
0000
0000
0000
0010
0100
0001
0000
0100
0000
1000
0000
,
0010
0010
1000
0001
0100
0010
0100
0001
,
1000
0000
0010
0000
1000
0000
0001
0100
0010
0100
0001
0000
1000
0000
0010
1000
,
0100
1000
0010
0000
1000
0000
0001
0100
0010
0100
0001
0000
0100
1000
0010
0100
,
0001
0000
0100
0010
0100
0000
1000
0000
0100
0000
0100
0000
0010
0100
0001
0000
,
1000
0000
0010
0000
1000
0001
1000
0000
0010
0000
0100
0000
0001
0000
0100
0010
,
0100
0001
1000
0010
1000
0000
0001
0000
0100
0010
0100
0001
0100
0000
0010
1000
,
0001
0000
1000
0000
0010
0000
0100
1000
0001
0000
0001
0000
0010
0000
0000
0000
,
0010
0100
0010
1000
0001
1000
0010
0100
,
0001
0100
0010
1000
0001
1000
0010
0100
,
0001
0100
0010
1000
0110
0110
1001
1001
,
0110
0000
0110
0000
1001
0000
1001
0000
0001
0000
0000
0001
0000
0000
0010
0000
;
