#VERSION:0.83;
#TITLE:Right Back;
#SUBTITLE:;
#ARTIST:ag;
#TITLETRANSLIT:;
#SUBTITLETRANSLIT:;
#ARTISTTRANSLIT:;
#GENRE:;
#ORIGIN:;
#CREDIT:;
#BANNER:Right Back.png;
#BACKGROUND:Right Back-background.png;
#PREVIEWVID:;
#JACKET:Right Back-jacket.png;
#CDIMAGE:;
#DISCIMAGE:;
#LYRICSPATH:;
#CDTITLE:;
#MUSIC:[Directions] - Right Back.ogg;
#OFFSET:0.033000;
#SAMPLESTART:62.379356;
#SAMPLELENGTH:15.483871;
#SELECTABLE:YES;
#BPMS:0.000=124.000;
#STOPS:;
#DELAYS:;
#WARPS:;
#TIMESIGNATURES:0.000=4=4;
#TICKCOUNTS:0.000=4;
#COMBOS:0.000=1;
#SPEEDS:0.000=1.000=0.000=0;
#SCROLLS:0.000=1.000;
#FAKES:;
#LABELS:0.000=Song Start;
#BGCHANGES:;
#KEYSOUNDS:;
#ATTACKS:
;

//---------------dance-single - ----------------
#NOTEDATA:;
#CHARTNAME:;
#STEPSTYPE:dance-single;
#DESCRIPTION:;
#CHARTSTYLE:;
#DIFFICULTY:Hard;
#METER:7;
#RADARVALUES:0.295215,0.363430,0.090504,0.218718,0.094275,274.000000,262.000000,12.000000,29.000000,0.000000,0.000000,0.000000,0.000000,0.000000,0.295215,0.363430,0.090504,0.218718,0.094275,274.000000,262.000000,12.000000,29.000000,0.000000,0.000000,0.000000,0.000000,0.000000;
#CREDIT:;
#NOTES:
// measure 0
0000
0000
0000
0000
,  // measure 1
0000
0000
0000
0000
,  // measure 2
0000
0000
0000
0000
,  // measure 3
0000
0000
0000
0000
,  // measure 4
0000
0000
0000
0000
,  // measure 5
0000
0000
0000
0000
,  // measure 6
0000
0000
0000
0000
,  // measure 7
0000
0000
0001
0010
0001
0010
0100
1000
,  // measure 8
0100
0000
0010
0000
0001
0000
0000
0000
1000
0000
0000
0000
0001
0000
0000
0100
,  // measure 9
0000
0000
1000
0000
0100
0000
0000
0000
0010
0000
0000
0000
1000
0000
0000
0001
,  // measure 10
0000
0000
0010
0000
0100
0000
0000
0000
0010
0000
0000
0000
0001
0000
0000
0100
,  // measure 11
0000
0000
0010
0000
0000
0000
1000
0000
0001
0000
0010
0001
0000
0000
1000
0000
,  // measure 12
0000
0000
0000
0000
0010
0000
0000
0000
1000
0000
0000
0000
0001
0000
0000
0010
,  // measure 13
0000
0000
1000
0000
0010
0000
0000
0000
0100
0000
0000
0000
0010
0000
0000
0001
,  // measure 14
0000
0000
1000
0000
0010
0000
0000
0000
0100
0000
0000
0000
0010
0000
0000
1000
,  // measure 15
0000
0000
0001
0000
0000
0000
0010
0000
0001
0000
0100
0010
0000
0000
1000
0000
,  // measure 16
0000
0000
1001
0000
0000
0001
1000
0001
,  // measure 17
1000
0200
0010
0000
0010
0000
0010
0000
,  // measure 18
0310
0001
0200
0000
0000
0310
2000
0000
,  // measure 19
0000
3001
0020
0000
0000
0000
0030
0000
,  // measure 20
0000
0100
0010
0001
0100
1000
0000
0000
,  // measure 21
0000
0100
0010
1000
0001
0010
0000
0000
,  // measure 22
0100
0020
0001
0000
0000
0200
0000
0000
,  // measure 23
0030
2000
0000
3300
,  // measure 24
0002
0000
0013
0000
0000
0100
0010
0001
,  // measure 25
0100
0002
1000
0000
1000
0000
1000
0000
,  // measure 26
1003
0100
0020
0000
0000
0130
2000
0000
,  // measure 27
0000
3010
0200
0000
0000
0000
0300
0000
,  // measure 28
0000
0001
0010
1000
0010
0001
0000
0000
,  // measure 29
0000
0010
0100
1000
0010
0100
0000
0000
,  // measure 30
0001
0200
1000
0000
0000
0020
0000
0000
,  // measure 31
0300
2000
0000
3030
,  // measure 32
0002
0000
1003
0010
0100
0001
0010
0000
,  // measure 33
1100
0000
0100
1000
0010
0000
1010
0000
,  // measure 34
0001
0100
0000
0010
1000
0100
0001
0100
,  // measure 35
0010
0001
0000
0010
0001
1000
0001
0000
,  // measure 36
0000
0100
0001
0100
1000
0100
0010
0000
,  // measure 37
1010
0000
1000
0010
0100
0000
0011
0000
,  // measure 38
0000
0000
0200
0000
0000
0320
0000
0000
,  // measure 39
0002
0000
0033
0000
,  // measure 40
0000
0000
0001
0100
1000
0100
0010
0000
,  // measure 41
1010
0000
1000
0010
0100
0000
0011
0000
,  // measure 42
0100
0010
0000
0100
1000
0010
0100
0001
,  // measure 43
0010
0100
0000
0010
0001
1000
0010
0000
,  // measure 44
0000
0100
1000
0100
0001
0010
0100
0000
,  // measure 45
1100
0000
0100
0010
0001
0000
1100
0000
,  // measure 46
0000
0000
2000
0000
0000
3020
0000
0000
,  // measure 47
0200
0000
0000
0330
,  // measure 48
0010
0100
1001
0000
0000
0000
0000
0001
,  // measure 49
0100
0010
0000
0100
0000
0000
0001
0000
0000
0000
1000
0000
0000
0000
0100
0000
,  // measure 50
1000
0000
0100
0000
0010
0000
0000
0000
0000
0000
0100
0010
0000
0001
0000
1000
,  // measure 51
0000
0001
0000
0100
0000
0000
0000
0000
0000
0000
0000
0000
0010
1000
0000
0010
,  // measure 52
0000
1000
0000
0001
0010
0000
0001
0000
0000
0000
0000
0000
0000
0000
0000
0000
,  // measure 53
1000
0001
0010
0000
0100
0000
0000
0000
0000
0000
0000
0000
0010
0000
0001
0000
,  // measure 54
0001
0000
1000
0000
0010
0000
0000
0000
0100
0000
0010
1000
0000
0000
0001
0000
,  // measure 55
0000
0000
1000
0000
0100
0010
0000
0010
0000
0001
0000
1000
0000
0000
0001
0000
,  // measure 56
0100
0001
0020
0000
0001
0000
0100
0000
,  // measure 57
0031
2000
0010
3001
,  // measure 58
1000
0001
0000
0001
0100
0000
0010
0000
,  // measure 59
1000
0010
0000
0010
0100
0000
1001
0000
,  // measure 60
0000
2000
0100
0010
,  // measure 61
3100
0020
0130
0001
,  // measure 62
0000
0000
0020
0000
0000
0230
0000
0000
,  // measure 63
2000
0000
0000
0000
,  // measure 64
3300
1001
0000
0000
;

//---------------dance-single - ----------------
#NOTEDATA:;
#CHARTNAME:;
#STEPSTYPE:dance-single;
#DESCRIPTION:;
#CHARTSTYLE:;
#DIFFICULTY:Medium;
#METER:5;
#RADARVALUES:0.248886,0.339201,0.158382,0.248886,0.000000,231.000000,210.000000,21.000000,33.000000,0.000000,0.000000,0.000000,0.000000,0.000000,0.248886,0.339201,0.158382,0.248886,0.000000,231.000000,210.000000,21.000000,33.000000,0.000000,0.000000,0.000000,0.000000,0.000000;
#CREDIT:;
#NOTES:
// measure 0
0000
0000
0000
0000
,  // measure 1
0000
0000
0000
0000
,  // measure 2
0000
0000
0000
0000
,  // measure 3
0000
0000
0000
0000
,  // measure 4
0000
0000
0000
0000
,  // measure 5
0000
0000
0000
0000
,  // measure 6
0000
0000
0000
0000
,  // measure 7
0000
1000
0010
0100
,  // measure 8
1001
2000
3001
0100
,  // measure 9
0010
2000
3100
1000
,  // measure 10
0001
0200
0310
1000
,  // measure 11
0001
0000
0020
0000
0031
0010
0100
0000
,  // measure 12
0010
0001
1000
0020
,  // measure 13
0130
0010
1000
0002
,  // measure 14
0013
0100
0010
0002
,  // measure 15
1003
0000
0020
0000
0130
0010
1000
0000
,  // measure 16
0001
1001
0000
0001
,  // measure 17
1000
0010
1000
0000
0010
0000
0100
0000
,  // measure 18
0001
0100
0020
0000
0000
0130
0002
0000
,  // measure 19
0000
0103
0020
0000
0000
0000
0030
0000
,  // measure 20
0000
0100
0010
1000
,  // measure 21
0010
0100
0001
0010
,  // measure 22
0100
0020
0000
0000
0000
0230
0000
0000
,  // measure 23
0000
2300
0000
0000
,  // measure 24
3002
0013
0000
0100
,  // measure 25
0010
0001
1000
0001
,  // measure 26
0100
0001
0020
0000
0000
0130
2000
0000
,  // measure 27
0000
3010
0200
0000
0000
0000
0300
0000
,  // measure 28
0000
0010
1000
0001
,  // measure 29
0000
0010
0100
1000
,  // measure 30
0100
1000
0020
0000
0000
0230
0000
0000
,  // measure 31
0000
0302
0000
0000
,  // measure 32
2003
3100
1000
1010
,  // measure 33
0101
0001
0011
1100
,  // measure 34
0100
1000
0000
1000
0010
0000
0100
0000
,  // measure 35
0010
0100
0000
0100
0001
0000
1001
0000
,  // measure 36
0000
0001
0100
1010
,  // measure 37
0101
0001
0011
1100
,  // measure 38
0000
0000
2000
0000
0000
3002
0000
0000
,  // measure 39
2000
0000
0000
3003
,  // measure 40
0000
0001
0100
0110
,  // measure 41
0101
0001
0011
1100
,  // measure 42
0000
0000
0100
0000
1000
0010
0100
0000
,  // measure 43
0010
0000
1000
0000
0001
1000
0010
0000
,  // measure 44
0000
1000
0100
0110
,  // measure 45
1100
0100
0110
0011
,  // measure 46
0000
0000
0020
0000
0000
0032
0000
0000
,  // measure 47
0200
0000
0000
0303
,  // measure 48
0010
1000
1001
0000
0001
0000
1000
0000
,  // measure 49
0001
0100
0001
0000
0100
0000
0010
0000
,  // measure 50
1000
0010
0100
0000
0010
0000
1000
0000
,  // measure 51
0001
0010
0100
0000
0010
0000
0001
0000
,  // measure 52
1000
0001
0100
0000
0001
0000
0010
0000
,  // measure 53
0100
0010
0001
0000
0010
0000
0100
1000
,  // measure 54
0010
0000
0100
0000
0010
0000
1000
0010
,  // measure 55
0100
0000
0001
0000
1000
0000
0100
1000
,  // measure 56
0010
1000
0010
0200
,  // measure 57
0301
0000
0100
0001
0010
0000
0100
0000
,  // measure 58
0000
0010
0001
1000
,  // measure 59
0000
0001
1000
0010
,  // measure 60
0000
0100
0010
2000
,  // measure 61
3100
0000
1000
0100
0010
0000
0100
0000
,  // measure 62
0000
0000
0020
0000
0000
0032
0000
0000
,  // measure 63
2000
0000
0000
3003
,  // measure 64
0000
0110
0000
0000
;

//---------------dance-single - ----------------
#NOTEDATA:;
#CHARTNAME:;
#STEPSTYPE:dance-single;
#DESCRIPTION:;
#CHARTSTYLE:;
#DIFFICULTY:Easy;
#METER:2;
#RADARVALUES:0.140066,0.193829,0.022626,0.015084,0.000000,130.000000,127.000000,3.000000,2.000000,0.000000,0.000000,0.000000,0.000000,0.000000,0.140066,0.193829,0.022626,0.015084,0.000000,130.000000,127.000000,3.000000,2.000000,0.000000,0.000000,0.000000,0.000000,0.000000;
#CREDIT:;
#NOTES:
// measure 0
0000
0000
0000
0000
,  // measure 1
0000
0000
0000
0000
,  // measure 2
0000
0000
0000
0000
,  // measure 3
0000
0000
0000
0000
,  // measure 4
0000
0000
0000
0000
,  // measure 5
0000
0000
0000
0000
,  // measure 6
0000
0000
0000
0000
,  // measure 7
0000
0000
0000
0000
,  // measure 8
0000
1000
0001
0100
,  // measure 9
0000
0001
1000
0100
,  // measure 10
0000
1000
0001
0010
,  // measure 11
0000
0001
0000
1000
,  // measure 12
0000
0001
0100
0010
,  // measure 13
0000
0100
0010
1000
,  // measure 14
0000
0100
1000
0010
,  // measure 15
0000
0100
0000
0010
,  // measure 16
0000
1001
0000
1000
,  // measure 17
0000
0001
0000
0000
,  // measure 18
0000
0100
0000
0010
,  // measure 19
0000
1000
0000
0000
,  // measure 20
0000
0001
0000
0000
,  // measure 21
0000
1000
0000
0000
,  // measure 22
0010
0100
0000
0010
,  // measure 23
0000
1000
0000
0000
,  // measure 24
0000
1001
0000
0001
,  // measure 25
0000
0010
0000
0000
,  // measure 26
0000
0001
0000
0100
,  // measure 27
0000
0010
0000
0000
,  // measure 28
0000
1000
0000
0000
,  // measure 29
0000
0001
0000
0000
,  // measure 30
0000
0100
0000
0010
,  // measure 31
0000
1000
0000
0000
,  // measure 32
0000
0001
0100
0001
,  // measure 33
0001
1000
0100
1000
,  // measure 34
0000
0100
0000
1000
,  // measure 35
0000
0010
0000
0100
,  // measure 36
0000
0001
0100
0010
,  // measure 37
0010
0100
0001
1000
,  // measure 38
0000
0001
0000
1000
,  // measure 39
0000
0200
0000
0300
,  // measure 40
0000
1000
0010
0100
,  // measure 41
0100
0010
1000
0001
,  // measure 42
0000
0010
0000
0001
,  // measure 43
0000
0100
0000
0010
,  // measure 44
0000
1000
0010
0100
,  // measure 45
0100
0010
1000
0001
,  // measure 46
0000
0010
0000
0001
,  // measure 47
0000
2000
0000
3000
,  // measure 48
0001
0100
0000
0000
,  // measure 49
0010
1000
0000
0001
,  // measure 50
0000
0100
0000
0001
,  // measure 51
0010
0001
0000
1000
,  // measure 52
0100
0010
0000
0000
,  // measure 53
0100
1000
0000
0001
,  // measure 54
0100
0010
0100
0001
,  // measure 55
0000
1000
0100
1000
,  // measure 56
0000
0100
0000
1000
,  // measure 57
0000
0010
0010
0010
,  // measure 58
0000
0100
0000
0001
,  // measure 59
0000
1000
0000
0010
,  // measure 60
0000
1000
0000
0001
,  // measure 61
0000
0100
0100
0100
,  // measure 62
0000
0010
0000
1000
,  // measure 63
0000
0001
0000
0000
,  // measure 64
0000
1001
0000
0000
;

//---------------dance-single - ----------------
#NOTEDATA:;
#CHARTNAME:;
#STEPSTYPE:dance-single;
#DESCRIPTION:;
#CHARTSTYLE:;
#DIFFICULTY:Beginner;
#METER:1;
#RADARVALUES:0.076497,0.121143,0.030168,0.000000,0.000000,71.000000,67.000000,4.000000,0.000000,0.000000,0.000000,0.000000,0.000000,0.000000,0.076497,0.121143,0.030168,0.000000,0.000000,71.000000,67.000000,4.000000,0.000000,0.000000,0.000000,0.000000,0.000000,0.000000;
#CREDIT:;
#NOTES:
// measure 0
0000
0000
0000
0000
,  // measure 1
0000
0000
0000
0000
,  // measure 2
0000
0000
0000
0000
,  // measure 3
0000
0000
0000
0000
,  // measure 4
0000
1000
0000
0000
,  // measure 5
0000
0001
0000
0000
,  // measure 6
0000
0100
0000
0000
,  // measure 7
0000
0010
0000
0000
,  // measure 8
0000
1001
0000
0000
,  // measure 9
0000
1000
0000
0000
,  // measure 10
0000
0010
0000
0000
,  // measure 11
0000
1000
0000
0001
,  // measure 12
0000
0100
0000
0000
,  // measure 13
0000
0010
0000
0000
,  // measure 14
0000
0100
0000
0000
,  // measure 15
0000
0001
0000
1000
,  // measure 16
0000
0110
0000
0000
,  // measure 17
0000
0010
0000
0000
,  // measure 18
0000
1000
0000
1000
,  // measure 19
0000
1000
0000
0000
,  // measure 20
0000
0010
0000
0000
,  // measure 21
0000
0100
0000
0000
,  // measure 22
0000
0001
0000
1000
,  // measure 23
0000
0001
0000
0000
,  // measure 24
0000
1001
0000
0000
,  // measure 25
0000
0001
0000
0000
,  // measure 26
0000
0100
0000
0100
,  // measure 27
0000
0100
0000
0000
,  // measure 28
0000
0010
0000
0000
,  // measure 29
0000
0100
0000
0000
,  // measure 30
0000
0001
0000
1000
,  // measure 31
0000
0001
0000
0000
,  // measure 32
0000
1000
0000
0000
,  // measure 33
0000
0010
0000
0000
,  // measure 34
0000
0100
0000
0000
,  // measure 35
0000
0001
0000
0000
,  // measure 36
0000
1000
0000
0000
,  // measure 37
0000
0100
0000
0000
,  // measure 38
0000
1000
0000
0001
,  // measure 39
0000
1000
0000
0000
,  // measure 40
0000
0001
0000
0000
,  // measure 41
0000
0100
0000
0000
,  // measure 42
0000
0010
0000
0000
,  // measure 43
0000
1000
0000
0000
,  // measure 44
0000
0001
0000
0000
,  // measure 45
0000
0010
0000
0000
,  // measure 46
0000
0001
0000
0000
,  // measure 47
0001
0000
0000
0000
,  // measure 48
1000
1000
0000
0000
,  // measure 49
0000
0001
0000
0000
,  // measure 50
0000
0100
0000
0000
,  // measure 51
0000
0010
0000
0000
,  // measure 52
0000
1000
0000
0000
,  // measure 53
0000
0010
0000
0000
,  // measure 54
0000
0100
0000
0000
,  // measure 55
0000
0001
0000
0000
,  // measure 56
0000
1000
0000
0000
,  // measure 57
0000
0000
0000
0000
,  // measure 58
0000
0001
0000
0000
,  // measure 59
0000
0001
0000
0000
,  // measure 60
0000
0100
0000
0000
,  // measure 61
0000
0000
0000
0000
,  // measure 62
0000
0010
0000
0000
,  // measure 63
0010
0000
0000
0000
,  // measure 64
0000
1001
0000
0000
;
