#VERSION:0.83;
#TITLE:No Tears Left To Cry;
#SUBTITLE:;
#ARTIST:Ariana Grande;
#TITLETRANSLIT:;
#SUBTITLETRANSLIT:;
#ARTISTTRANSLIT:;
#GENRE:POP;
#ORIGIN:;
#CREDIT:;
#BANNER:[Directions] - No Tears Left To Cry.png;
#BACKGROUND:[Directions] - No Tears Left To Cry-bg.png;
#PREVIEWVID:;
#JACKET:[Directions] - No Tears Left To Cry-jacket.png;
#CDIMAGE:;
#DISCIMAGE:;
#LYRICSPATH:;
#CDTITLE:CDTitle.png;
#MUSIC:[Directions] - No Tears Left To Cry.ogg;
#OFFSET:-0.270000;
#SAMPLESTART:61.588249;
#SAMPLELENGTH:15.737709;
#SELECTABLE:YES;
#DISPLAYBPM:122.000000;
#BPMS:0.000=101.000,
24.000=122.000,
30.000=128.000,
31.000=135.000,
32.000=126.000,
33.000=125.620,
34.000=122.000;
#STOPS:;
#DELAYS:;
#WARPS:;
#TIMESIGNATURES:0.000=4=4;
#TICKCOUNTS:0.000=4;
#COMBOS:0.000=1;
#SPEEDS:0.000=1.000=0.000=0;
#SCROLLS:0.000=1.000;
#FAKES:;
#LABELS:0.000=Song Start;
#BGCHANGES:-0.400=[Directions] - No Tears Left To Cry.avi=1.000=0=0=0=StretchNoLoop====,
260.000=[Directions] - No Tears Left To Cry-bg.png=1.000=0=0=1=====,
99999=-nosongbg-=1.000=0=0=0 // don't automatically add -songbackground-
;
#KEYSOUNDS:;
#ATTACKS:
;

//---------------dance-single - ----------------
#NOTEDATA:;
#CHARTNAME:;
#STEPSTYPE:dance-single;
#DESCRIPTION:;
#CHARTSTYLE:;
#DIFFICULTY:Hard;
#METER:6;
#RADARVALUES:0.402260,0.465261,0.294415,0.490692,0.000000,373.000000,334.000000,39.000000,65.000000,0.000000,0.000000,0.000000,0.000000,0.000000,0.402260,0.465261,0.294415,0.490692,0.000000,373.000000,334.000000,39.000000,65.000000,0.000000,0.000000,0.000000,0.000000,0.000000;
#CREDIT:DDRDAIKENKAI;
#DISPLAYBPM:122.000000;
#NOTES:
0000
0000
0000
0000
,
0000
0000
0000
0000
,
0000
0000
0000
0000
,
0000
0000
0000
0000
,
0000
0000
0000
0000
,
0000
0000
0000
0000
,
1000
1000
0001
0001
,
0100
0100
0100
0100
,
0010
1000
0001
0010
,
0100
0001
0100
1000
0010
0100
0001
0000
,
1001
0100
0010
0000
0010
1000
0100
0000
,
0100
0010
0100
0010
0001
0100
1000
0000
,
0202
0000
0303
0000
2020
0000
3030
0002
,
1000
0100
0003
0110
,
1002
0100
0103
0000
0010
1000
0100
0000
,
1000
0001
1000
0001
0010
0100
1000
0000
,
0002
0000
0103
0000
0010
1000
0002
0000
,
1003
0000
0010
0100
0002
0000
2003
0000
,
3100
0010
0001
0000
0001
0100
0010
0000
,
0010
1000
0010
1000
0100
1000
0001
1000
,
0020
0000
0130
0000
0001
1000
0200
0000
,
0310
0000
0100
1000
0002
0000
1003
0000
,
2020
0000
3030
0000
0202
0000
0303
2000
,
0000
3001
0010
0001
0010
0100
1000
0000
,
2002
0000
3003
0000
0220
0000
0330
0002
,
0000
0103
0010
0100
0001
0001
1000
0000
,
2200
0000
3300
0000
0022
0000
0033
1002
,
0000
1000
1000
1003
0010
0100
0001
1000
,
0020
1000
2030
0000
0100
0000
3100
0010
,
0100
1000
0002
0000
0103
0010
0110
0000
,
1002
0000
2003
0000
3001
0010
0100
1000
,
0001
0010
0100
1000
0010
0100
0110
0000
,
1002
0100
0103
0010
1000
0100
0010
0001
,
1000
0100
0010
0001
1000
0001
1001
0000
,
2010
0000
3001
1000
0200
0000
1300
0001
,
0020
0000
0032
0000
0103
0010
0110
0000
,
0010
1000
0100
0000
1000
0100
0001
0000
,
0100
1000
0100
0010
0001
0100
0001
0000
,
0102
0000
2003
0000
3001
0010
0100
1000
,
0010
0100
0001
0010
0100
1000
1001
0000
,
0120
1000
1030
0001
0100
0010
1000
0100
,
0010
0001
0100
0010
1000
0100
0110
0000
,
0021
0000
0031
1000
0200
0000
1300
0001
,
0020
0000
0032
0000
0103
0001
1001
0000
,
0001
0100
1000
0000
1000
0100
0001
0000
,
0001
0100
1000
0100
0001
0100
0010
0000
,
0120
0000
1030
0000
0210
0000
0301
2000
,
0100
0000
0010
0000
0001
0001
3001
0000
,
0012
0000
1003
0000
2100
0000
3001
0020
,
0100
0000
1000
0000
0001
0001
0031
0000
,
0102
0000
1003
0000
1020
0000
0130
0002
,
1000
0000
0010
0000
0100
0100
0103
0000
,
0001
0010
1000
0000
0010
1000
0100
0000
,
1000
0100
0001
0100
1000
0100
0001
0000
,
0102
0000
2003
0000
3001
0010
0100
1000
,
0010
0100
0001
1000
0100
0010
0110
0000
,
0012
1000
1003
0001
0010
0100
1000
0001
,
0100
0010
1000
0100
0010
0001
1001
0000
,
1200
0000
0301
0100
2000
0000
3010
0100
,
0002
0000
2003
0000
3100
0010
0110
0000
,
0001
0010
1000
0000
1000
0010
0001
0000
,
0001
0010
1000
0010
0100
1000
0001
0000
,
0220
0330
2002
3003
,
0001
0000
0100
0000
1000
0100
0001
0000
,
0010
0000
0000
0000
0100
0000
0000
1000
;

//---------------dance-single - ----------------
#NOTEDATA:;
#CHARTNAME:;
#STEPSTYPE:dance-single;
#DESCRIPTION:;
#CHARTSTYLE:;
#DIFFICULTY:Challenge;
#METER:9;
#RADARVALUES:0.594223,0.587698,0.392554,0.354808,0.479368,551.000000,499.000000,52.000000,47.000000,0.000000,0.000000,0.000000,0.000000,0.000000,0.594223,0.587698,0.392554,0.354808,0.479368,551.000000,499.000000,52.000000,47.000000,0.000000,0.000000,0.000000,0.000000,0.000000;
#CREDIT:DDRDAIKENKAI;
#DISPLAYBPM:122.000000;
#NOTES:
0000
0000
0000
0000
,
0000
0000
0000
0000
,
0000
0000
0000
0000
,
0000
0000
0000
0000
,
0000
0000
0000
0000
,
0000
0000
0000
0000
,
1000
0100
0010
0001
0000
0000
1000
0010
0100
0001
0000
0000
,
1000
0100
0010
0001
0100
0010
1000
0100
0010
0001
0000
0000
,
0001
0010
0100
1000
0000
0000
0001
0100
0010
1000
0000
0000
,
0001
0010
0100
1000
0010
0100
0001
0010
0100
1002
0000
0000
,
1003
0010
1000
0100
0000
0000
0100
0010
0100
1000
0000
0000
,
1000
0010
1000
0001
0100
0001
1000
0100
0010
0001
0000
0000
,
0102
0000
0000
1003
0000
0000
1020
0000
0000
0130
0010
0100
,
0002
0000
0000
0000
0000
0000
0000
0000
0000
0000
0000
0000
0023
0000
0000
0000
0000
0000
0000
0000
0030
0100
0000
0000
0000
0000
0000
1000
0000
0000
0010
0000
0000
0000
0000
0000
0110
0000
0000
0000
0000
0000
0000
0000
0000
0000
0000
0000
,
1001
0000
0001
0000
0100
0000
0001
0000
1000
0000
0010
0000
1000
0000
0001
1000
,
0010
0100
0010
0100
0001
1000
0100
0010
,
0210
0000
0000
0000
1300
0000
0001
0000
0101
0000
0100
0000
0020
0000
0000
1030
,
0100
0000
0001
0001
0200
0000
2300
0000
,
3001
0000
0010
0000
0001
0000
0100
0000
0010
0000
1000
0000
0100
0000
1000
0010
,
1000
0001
0010
1000
0010
0001
0100
0001
,
1002
0000
0000
0000
0103
0000
0010
0000
1010
0000
1000
0000
0200
0000
0000
0310
,
0001
0000
0100
0001
0011
0000
1010
0000
,
1002
0000
0000
0000
0103
0000
0010
1000
0010
0000
0100
0000
0001
0000
1000
0010
,
1000
0000
0001
0010
0001
0000
0001
0000
0011
0000
0110
0000
1100
0000
0000
0000
,
0102
0000
0000
0000
1003
0000
0010
1000
0010
0000
0100
0000
0001
0000
1000
0001
,
1000
1000
0010
1000
1010
1001
0101
0000
,
0012
0000
0000
0000
1003
0000
0001
0100
0001
0000
1000
0000
0100
0000
0010
0100
,
0010
0000
0001
0100
0001
0000
0010
0000
0100
0000
1000
0000
0010
0000
0100
0000
,
0120
0000
1000
0000
1030
0000
0001
0100
0001
0000
1000
0000
0100
0000
0010
0001
,
0010
0000
0100
0000
1000
0000
0001
0100
0010
0000
1000
0000
2002
0000
3003
0000
,
0110
0000
1000
0000
0001
0000
1000
0010
0100
0000
0001
0000
1000
0000
0001
0010
,
0001
0000
1000
0000
0100
0000
1000
0010
0100
0000
0001
0000
2002
0000
3003
0000
,
0110
0000
0100
0000
0010
0000
1000
0100
1000
0000
0010
0000
0100
0000
0001
0010
,
0100
0000
1000
0000
0001
0000
0100
0010
1000
0000
0100
0000
0220
0000
0330
0000
,
0012
1000
1003
0010
0200
0001
0301
1000
,
0200
0000
0000
0010
0000
0000
0310
0000
0000
0100
0000
0000
1000
0000
0000
0010
0000
0000
0110
0000
0000
0000
0010
0000
,
1000
0001
0010
0100
0000
0010
0001
0100
0010
1000
0000
0100
,
0010
0000
0001
0000
0010
0000
0001
0000
0100
0000
0001
0000
0100
0000
0010
0000
1000
0000
0001
0000
0000
1000
0000
0000
,
1100
0000
0100
0000
0001
0000
0100
1000
0010
0000
0100
0000
1000
0000
0100
0001
,
0100
0000
0010
0000
1000
0000
0100
0010
0001
0000
1000
0000
2002
0000
3003
0000
,
1010
0000
0010
0000
0100
0000
0001
1000
0001
0000
0100
0000
0010
0000
1000
0100
,
1000
0000
0010
0000
0100
0000
0001
0010
0100
0000
1000
0000
2020
0000
3030
0000
,
0102
1000
1003
0010
0200
0010
0310
1000
,
0200
0000
0000
0010
0000
0000
0310
0000
0000
0001
0000
0000
1000
0000
0000
0010
0000
0000
0110
0000
0000
0000
0010
0000
,
1000
0001
1000
0100
0000
0010
0001
1000
0001
0100
0000
0010
,
1000
0000
0100
0000
0001
0000
1000
0000
0010
0000
0001
0000
1000
0000
0100
0000
0010
0000
0001
0000
0000
1000
0000
0000
,
1002
0000
0000
0000
0103
0000
0010
0000
1020
0000
0000
0000
0130
0000
0001
1000
,
0100
0000
1000
0001
0100
0000
0001
0000
0010
0000
0100
0000
0110
0000
0000
0000
,
2001
0000
0000
0000
3100
0000
0010
0000
0012
0000
0000
0000
1003
0000
0010
1000
,
0001
0000
0010
0001
1000
0000
0010
0000
0100
0000
0001
0010
0001
0000
1000
0000
,
1020
0000
0000
0000
0130
0000
0001
0000
0012
0000
0000
0000
0103
0000
0010
1000
,
0020
0000
0130
0001
0100
0000
0010
0000
1000
0000
0100
0000
0001
0000
0100
1000
,
0002
0000
0000
0000
1003
0000
0010
1000
0001
0000
0020
0000
0001
0000
0031
0100
,
0020
0000
0000
0000
1030
0000
0001
0010
0100
0000
1000
0000
1001
0000
0000
0000
,
0120
0000
1000
0000
1030
0000
0010
1000
0001
0000
0100
0000
0010
0000
0100
0001
,
1000
0000
0100
0000
0010
0000
0001
1000
0100
0000
1000
0000
1020
0000
0130
0000
,
0101
0000
0001
0000
1000
0000
0001
0010
0001
0000
1000
0000
0010
0000
0100
0010
,
1000
0000
0001
0000
1000
0000
0010
0100
0001
0000
1000
0000
2001
0000
3010
0000
,
0120
1000
1030
0001
2000
0100
3100
0010
,
0200
0000
0000
0010
0000
0000
0310
0000
0000
0001
0000
0000
0100
0000
0000
0010
0000
0000
1001
0000
0000
0000
0001
0000
,
1000
0010
0100
0001
0000
0010
0100
1000
0001
0100
0000
0010
,
1000
0100
0010
0001
0100
0010
1000
0100
1000
1001
0000
0000
,
0001
0100
0010
1000
0000
0000
0001
0010
0100
1000
0000
0000
,
1000
0010
1000
0010
0100
0010
1000
0100
0010
0001
0000
0000
,
1001
0000
0000
0000
0110
0000
0000
1001
;

//---------------dance-single - ----------------
#NOTEDATA:;
#CHARTNAME:;
#STEPSTYPE:dance-single;
#DESCRIPTION:;
#CHARTSTYLE:;
#DIFFICULTY:Medium;
#METER:4;
#RADARVALUES:0.306278,0.318336,0.083040,0.400103,0.000000,284.000000,273.000000,11.000000,53.000000,0.000000,0.000000,0.000000,0.000000,0.000000,0.306278,0.318336,0.083040,0.400103,0.000000,284.000000,273.000000,11.000000,53.000000,0.000000,0.000000,0.000000,0.000000,0.000000;
#CREDIT:;
#DISPLAYBPM:122.000000;
#NOTES:
// measure 0
0000
0000
0000
0000
,  // measure 1
0000
0000
0000
0000
,  // measure 2
0000
0000
0000
0000
,  // measure 3
0000
0000
0000
0000
,  // measure 4
0000
0000
0000
0000
,  // measure 5
0000
0000
0000
0000
,  // measure 6
0001
0001
1000
1000
,  // measure 7
0100
0100
0100
0100
,  // measure 8
0010
0010
0001
0001
,  // measure 9
0100
0000
0100
0000
0010
1000
0001
0000
,  // measure 10
1000
0001
0100
0000
0001
1000
0100
0000
,  // measure 11
0010
0000
0001
0000
0100
0010
1000
0000
,  // measure 12
1100
0000
0000
0000
0011
0000
0000
1001
,  // measure 13
0000
0100
0000
1001
,  // measure 14
0001
0100
0001
0000
1000
0000
0010
0000
,  // measure 15
0100
0000
0001
0000
1000
0100
1000
0000
,  // measure 16
0020
0000
1030
0000
0001
1000
0200
0000
,  // measure 17
0310
0000
0001
1000
0020
0000
0130
0000
,  // measure 18
0001
0010
0001
0000
0100
0000
0010
0000
,  // measure 19
1000
0100
1000
0000
0010
0000
0100
0000
,  // measure 20
0020
0000
2030
0000
3001
0100
0020
0000
,  // measure 21
0230
0000
0301
1000
0020
0000
0230
0000
,  // measure 22
0301
0000
0000
0000
1000
0000
0000
1001
,  // measure 23
0000
1000
1000
0000
0001
0100
0020
0000
,  // measure 24
0130
0000
0000
0000
0010
0000
0000
0110
,  // measure 25
0000
0010
0010
0000
0100
0010
2000
0000
,  // measure 26
3001
0000
0000
0000
1000
0000
0000
1001
,  // measure 27
0000
1000
1000
0000
0001
0100
0010
1000
,  // measure 28
0002
0000
2003
0000
3010
0000
0100
0002
,  // measure 29
0000
2003
0000
0000
3100
0010
0001
0000
,  // measure 30
1002
0000
2003
0000
3010
0100
0010
0200
,  // measure 31
0000
0001
0302
0000
1000
0000
2003
0000
,  // measure 32
3100
0010
0001
0000
0100
0010
1000
0020
,  // measure 33
0000
1000
2030
0000
0001
0000
3001
0000
,  // measure 34
0100
0001
0100
0000
0010
1000
0010
0000
,  // measure 35
2000
0000
3200
0000
0310
0001
0100
0000
,  // measure 36
0010
1000
0100
0000
0010
0001
0100
0000
,  // measure 37
0010
0000
1000
0000
0100
0010
0001
0000
,  // measure 38
2001
0000
3002
0000
0103
0010
0100
0020
,  // measure 39
0000
0100
0230
0000
0001
0000
0302
0000
,  // measure 40
1003
0100
0010
0000
0010
0100
1000
0020
,  // measure 41
0000
1000
2030
0000
0001
0000
3001
0000
,  // measure 42
0100
0010
0100
0000
0010
1000
0010
0000
,  // measure 43
0100
0000
0001
0000
1000
0100
1000
0000
,  // measure 44
0010
1000
0100
0000
0010
0001
0100
0000
,  // measure 45
0010
0000
1000
0000
0100
0010
0001
0000
,  // measure 46
2000
0000
0000
0000
3002
0000
0000
0203
,  // measure 47
0000
0010
0310
0000
0010
0100
0001
0000
,  // measure 48
0020
0000
0000
0000
0230
0000
0000
2300
,  // measure 49
0000
0001
3000
0000
0100
1000
0100
0000
,  // measure 50
2000
0000
0000
0000
3020
0000
0000
0230
,  // measure 51
0000
0001
0301
0000
0100
0000
0010
0000
,  // measure 52
2000
0000
0000
0000
3001
0001
1000
0000
,  // measure 53
0200
0000
0000
0000
0310
0001
0100
0000
,  // measure 54
0120
0000
0230
0000
0301
1000
0001
2000
,  // measure 55
0000
0001
3002
0000
0010
0000
0023
0000
,  // measure 56
0130
1000
0010
0000
0100
0001
0010
0002
,  // measure 57
0000
0010
0023
0000
0000
0000
0230
0000
,  // measure 58
0310
0001
0010
0000
0100
1000
0100
0000
,  // measure 59
2000
0002
3003
1001
,  // measure 60
0010
1000
0100
0000
0010
0001
0100
0000
,  // measure 61
0010
0000
1000
0000
0100
0010
0001
0000
,  // measure 62
1000
0000
0000
0000
0001
0000
0000
0200
,  // measure 63
0010
0010
0001
0301
,  // measure 64
0010
0000
0000
0000
0100
0000
0000
1000
;

//---------------dance-single - ----------------
#NOTEDATA:;
#CHARTNAME:;
#STEPSTYPE:dance-single;
#DESCRIPTION:;
#CHARTSTYLE:;
#DIFFICULTY:Easy;
#METER:3;
#RADARVALUES:0.191963,0.245346,0.105687,0.468045,0.000000,178.000000,164.000000,14.000000,62.000000,0.000000,0.000000,0.000000,0.000000,0.000000,0.191963,0.245346,0.105687,0.468045,0.000000,178.000000,164.000000,14.000000,62.000000,0.000000,0.000000,0.000000,0.000000,0.000000;
#CREDIT:;
#DISPLAYBPM:122.000000;
#NOTES:
0000
0000
0000
0000
,
0000
0000
0000
0000
,
0000
0000
0000
0000
,
0000
0000
0000
0000
,
0000
0000
0000
0000
,
0000
0000
0000
0000
,
1000
1000
0001
0001
,
0100
0100
0100
0100
,
0010
0010
0100
0100
,
0001
0001
0001
0001
,
2002
3003
0220
0330
,
1000
0001
1000
0000
,
2002
3003
0220
0330
,
1001
0000
0000
1001
,
0001
0010
0001
0000
,
0100
0000
0010
0000
,
1000
1000
0000
0100
,
0100
0000
0010
0010
,
0001
1000
0001
0000
,
0010
0000
0100
0100
,
1000
1000
0000
0001
,
0001
0000
0100
0100
,
0120
0000
0000
0000
2030
0000
0000
3001
,
0000
0000
0010
0010
,
0002
0000
0000
0000
0203
0000
0000
0310
,
0000
0000
1000
1000
,
0200
0000
0000
0000
0320
0000
0000
0031
,
0000
0000
1000
1000
,
0002
0000
2000
0000
3003
0000
0000
0020
,
0000
0200
0000
0000
0330
0000
0110
0000
,
0200
0000
0000
0000
0302
0000
0000
2003
,
0000
3200
0000
0310
,
0020
0000
0000
0000
0032
0000
0000
2003
,
0000
3020
0000
0130
,
0002
0000
0000
0000
2003
0000
0000
3200
,
0000
0020
0000
0000
0330
0000
0110
0000
,
0001
0001
1000
1000
,
0100
0100
0100
0100
,
0210
0000
0000
0000
0320
0000
0000
0032
,
0000
2003
0000
3001
,
2000
0000
0000
0000
3020
0000
0000
0230
,
0000
0302
0000
1003
,
0020
0000
0000
0000
0230
0000
0000
0302
,
0000
2000
0000
0000
3003
0000
1001
0000
,
1000
1000
0001
0001
,
0100
0100
0100
0100
,
0120
0000
0000
0000
0230
0000
0000
0301
,
0000
0000
0010
0010
,
0200
0000
0000
0000
2300
0000
0000
3010
,
0000
0000
1000
1000
,
0002
0000
0000
0000
0203
0000
0000
0310
,
0000
0000
0100
0100
,
0002
0000
0000
1000
,
2003
0000
0000
3001
,
1002
0000
0000
0000
2003
0000
0000
3200
,
0000
0320
0000
0001
,
0032
0000
0000
0000
2003
0000
0000
3020
,
0000
0230
0000
0310
,
0020
0000
0000
0000
2030
0000
0000
3002
,
0000
2000
0000
0000
0000
0000
3003
0000
,
0001
0001
1000
1000
,
0100
0100
0100
0100
,
0010
0000
0001
0000
,
0100
0100
0100
0100
,
0010
0000
1000
0000
,
1001
0000
0000
0000
;

//---------------dance-single - ----------------
#NOTEDATA:;
#CHARTNAME:;
#STEPSTYPE:dance-single;
#DESCRIPTION:;
#CHARTSTYLE:;
#DIFFICULTY:Beginner;
#METER:1;
#RADARVALUES:0.119707,0.171742,0.052844,0.128335,0.000000,111.000000,104.000000,7.000000,17.000000,0.000000,0.000000,0.000000,0.000000,0.000000,0.119707,0.171742,0.052844,0.128335,0.000000,111.000000,104.000000,7.000000,17.000000,0.000000,0.000000,0.000000,0.000000,0.000000;
#CREDIT:DDRDAIKENKAI;
#DISPLAYBPM:122.000000;
#NOTES:
0000
0000
0000
0000
,
0000
0000
0000
0000
,
0000
0000
0000
0000
,
0000
0000
0000
0000
,
0000
0000
0000
0000
,
0000
0000
0000
0000
,
1000
0000
1000
0000
,
0001
0001
0001
0000
,
0100
0000
0100
0000
,
0010
0010
0010
0000
,
1001
0000
0100
0000
,
0010
0010
0010
0000
,
0001
0000
1000
0000
,
1001
0000
0000
0000
,
0100
0000
0100
0000
,
0010
0000
0000
0000
,
1000
0000
1000
0000
,
0001
0000
0001
0000
,
0010
0000
0010
0000
,
0100
0000
0000
0000
,
1000
0000
1000
0000
,
0001
0000
0001
0000
,
0100
0000
0000
0000
,
0010
0000
0000
0000
,
1000
0000
0000
0000
,
0001
0000
0000
0000
,
1000
0000
0000
0000
,
0100
0000
0000
0000
,
0010
0000
0000
0000
,
0001
0000
0000
0000
,
1001
0000
0001
0000
,
0200
0000
0300
0000
,
0010
0000
1000
0000
,
0002
0000
0003
0000
,
1000
0000
0100
0000
,
0020
0000
0030
0000
,
0001
0000
1000
0000
,
0001
0001
0001
0000
,
1000
0000
0010
0000
,
0200
0000
0300
0000
,
0010
0000
1000
0000
,
0002
0000
0003
0000
,
0010
0000
0100
0000
,
2000
0000
3000
0000
,
0001
0000
0001
0000
,
0010
0010
0010
0000
,
2002
0000
3003
0000
,
0100
0100
0100
0000
,
0220
0000
0330
0000
,
0010
0010
0010
0000
,
2002
0000
3003
0000
,
0001
0000
1000
0000
,
0002
0000
0003
0000
,
2000
0000
3000
0000
,
1001
0000
0100
0000
,
0020
0000
0030
0000
,
1000
0000
0001
0000
,
0200
0000
0300
0000
,
0001
0000
1000
0000
,
0002
0000
0003
0000
,
1000
0000
1000
0000
,
1000
1000
1000
1000
,
1000
0000
1000
0000
,
0001
0001
0001
0000
,
0100
0000
0100
0000
,
0010
0000
0000
0000
;
