#TITLE:Light The Fire Up In The Night;
#SUBTITLE:;
#ARTIST:Shoji Meguro;
#TITLETRANSLIT:;
#SUBTITLETRANSLIT:;
#ARTISTTRANSLIT:;
#GENRE:;
#CREDIT:;
#BANNER:;
#BACKGROUND:;
#LYRICSPATH:;
#CDTITLE:;
#MUSIC:[Directions] - Light the Fire Up in the Night.ogg;
#OFFSET:0.000000;
#SAMPLESTART:101.599998;
#SAMPLELENGTH:13.500000;
#LASTBEATHINT:354.166656;
#SELECTABLE:YES;
#BPMS:0.000000=170.000000
;
#STOPS:
;
#BGCHANGES:;
#KEYSOUNDS:;
#ATTACKS:;

//---------------dance-single - ----------------
#NOTES:
     dance-single:
     :
     Beginner:
     2:
     0.193748,0.237341,0.092471,0.077059,0.000000,176.000000,164.000000,12.000000,10.000000,0.000000,0.000000,0.193748,0.237341,0.092471,0.077059,0.000000,176.000000,164.000000,12.000000,10.000000,0.000000,0.000000:
0000
0000
0000
0000
,
0000
0000
0000
0000
,
0000
0000
0000
0000
,
0000
0000
0000
0000
,
1000
0000
0010
0000
,
1000
0000
0100
0000
,
1000
0000
0010
0000
,
0100
0000
0110
0000
,
0001
0000
0010
0000
,
0001
0000
0100
0000
,
0001
0000
0010
0000
,
0100
0000
1001
0000
,
1000
0000
0010
0000
,
0001
0000
0010
0000
,
1000
0000
0010
0000
,
0100
0000
0000
0000
,
0100
0000
0100
0000
,
0010
0000
0100
0000
,
0001
0000
0001
0000
,
1000
0000
0001
0000
,
0010
0000
0010
0000
,
0100
0000
0010
0000
,
0100
0000
1000
0000
,
1000
0000
0001
0000
,
1001
0000
0001
0000
,
0010
0000
0100
0000
,
1000
0000
1000
0000
,
0010
0000
0100
0000
,
0010
0000
1000
0000
,
0001
0000
0100
0000
,
0010
0000
0010
0000
,
0000
0100
0100
0100
,
0100
0000
0010
0000
,
1000
0000
1000
0000
,
0001
0000
0010
0000
,
0100
0000
0000
0010
,
0010
0000
0001
0000
,
0100
0000
0001
0000
,
1000
0000
1000
0000
,
1001
0000
2001
0000
,
3010
0000
0100
0000
,
0001
0000
0001
0000
,
1000
0000
0100
0000
,
0010
0000
0000
0100
,
0100
0000
1000
0000
,
0001
0000
0100
0000
,
0010
0000
0010
0000
,
0110
0000
0110
0000
,
1000
2000
0000
0000
,
0000
0000
3000
0010
,
0100
0000
0100
0000
,
0010
0000
0100
0000
,
0001
0002
0000
0000
,
0000
0000
0003
0100
,
0010
0000
0100
0000
,
0001
0000
1000
0000
,
0100
0200
0000
0000
,
0000
0000
0300
0010
,
0001
0000
1000
0000
,
0001
0000
0001
0000
,
0010
0020
0000
0000
,
0000
0000
0030
0100
,
1000
0000
1000
0000
,
0000
0010
0010
0010
,
0010
0000
1000
0000
,
0100
0000
0010
0000
,
0100
0000
1000
0000
,
0001
0000
0000
1000
,
1000
0000
0001
0000
,
0100
0000
0010
0000
,
0020
0000
0130
0000
,
1001
0000
1002
0000
,
0013
0000
0100
0000
,
1000
0000
0001
0000
,
1000
0000
0100
0000
,
0010
0000
0000
0001
,
0001
0000
1000
0000
,
0100
0000
0010
0000
,
0200
0000
0310
0000
,
0110
0000
1001
0000
,
0001
0002
0000
0000
,
0000
0000
0003
1000
,
0100
0000
0100
0000
,
0010
0000
0100
0000
,
1000
2000
0000
0000
,
0000
0000
3000
0001
,
0010
0000
0001
0000
,
0100
0000
0010
0000
,
1001
0000
0000
0000
;

//---------------dance-single - ----------------
#NOTES:
     dance-single:
     :
     Easy:
     5:
     0.365479,0.440776,0.208059,0.131000,0.000000,332.000000,305.000000,27.000000,17.000000,0.000000,0.000000,0.365479,0.440776,0.208059,0.131000,0.000000,332.000000,305.000000,27.000000,17.000000,0.000000,0.000000:
0000
0000
0000
0000
,
0000
0000
0000
0000
,
0000
0000
0000
0000
,
0000
0000
0000
0000
,
1000
0010
0100
0010
,
1000
1000
0100
0010
,
0001
0010
0100
0010
,
0000
1001
1001
1001
,
1000
0010
0100
0001
,
0010
0100
1000
1000
,
0001
0010
0100
1000
,
0010
0100
0001
0001
,
1000
1000
0001
0010
,
0100
1000
0010
0001
,
1000
0100
0001
1000
,
1100
0101
1010
0011
,
0001
0100
0100
0001
,
1000
0100
0100
1000
,
0001
0010
0010
0001
,
1000
0010
0010
1000
,
0000
0100
2000
3100
,
0002
0103
1000
0010
,
0100
0001
0020
0031
,
0200
1300
0100
0010
,
1001
0000
0001
0001
,
1000
0010
1000
0010
,
0100
0001
0010
0100
,
0001
0100
0001
0200
,
0000
0300
0010
0001
,
1000
0100
1000
0001
,
0100
0010
1000
0001
,
0000
0011
1010
0011
,
0010
0100
0100
0100
,
1000
0001
0100
0000
,
0001
0010
0100
1000
,
0010
0010
0000
0100
,
0001
1000
0010
1000
,
0100
0010
0001
0100
,
0020
0000
1030
0000
,
1001
0000
1002
0000
,
0013
0100
0100
0100
,
1000
0010
0001
0000
,
1000
0100
0010
1000
,
0001
0010
0000
0001
,
0010
0100
1000
0001
,
0100
0010
1000
0001
,
0020
0000
0130
0000
,
0110
0000
0110
0000
,
0100
1000
0010
1000
,
0001
0001
0001
0001
,
0100
0001
0010
0001
,
1000
1000
1000
1000
,
0100
1000
0001
0100
,
0010
0010
0010
0010
,
1000
0001
0010
0001
,
0100
0100
0100
0100
,
0110
0020
1000
1000
,
0100
0100
1000
2030
,
3001
0010
0100
1000
,
0001
0001
1000
1000
,
0010
0200
0001
0001
,
0010
0010
0001
0302
,
1003
0100
0010
0001
,
0000
0101
1100
0101
,
0010
0100
0100
0100
,
0001
1000
0010
0000
,
1000
0100
0010
0001
,
0100
0100
0000
0010
,
1000
0001
0100
0001
,
0010
0100
1000
0010
,
0200
0000
0301
0000
,
1001
0000
2001
0000
,
3010
0100
0100
0100
,
0001
0010
1000
0000
,
0001
0100
0010
0001
,
1000
0010
0000
1000
,
0100
0010
0001
1000
,
0010
0100
0001
1000
,
0200
0000
0310
0000
,
0110
0000
0110
0000
,
0001
2000
0010
0100
,
0001
0100
0010
0100
,
3001
0001
0100
0100
,
0010
0010
1000
0100
,
0010
0002
1000
1000
,
0010
0010
1000
1000
,
0103
0010
1000
0001
,
0000
1001
1001
1001
,
0110
0000
0000
0000
;

//---------------dance-single - ----------------
#NOTES:
     dance-single:
     :
     Medium:
     6:
     0.453546,0.508588,0.215765,0.223471,0.000000,412.000000,384.000000,28.000000,29.000000,0.000000,0.000000,0.453546,0.508588,0.215765,0.223471,0.000000,412.000000,384.000000,28.000000,29.000000,0.000000,0.000000:
0000
0000
0000
0000
,
0000
0000
0000
0000
,
0000
0000
0000
0000
,
0000
0000
0000
0000
,
1000
0000
0010
0000
1000
0010
0000
0100
,
0000
0001
0000
0010
0000
0000
0001
0000
,
0001
0000
0010
0000
0100
0010
0000
0001
,
0000
1000
0100
1000
0001
0100
0001
0000
,
1001
0000
0001
0000
1000
0100
0000
1000
,
0010
0000
1000
0001
0000
0000
1001
0000
,
0000
0001
0010
0000
0010
0000
0001
1000
,
0010
1000
0000
0100
0000
0010
0000
0200
,
0000
0000
1300
0000
0001
0100
0000
0001
,
0010
0000
0001
1000
0000
0000
0100
0000
,
0000
0010
0100
0000
1000
0100
0000
0001
,
0000
0100
0000
0010
0000
0001
0000
0000
,
1001
0001
1000
1000
,
0100
0010
0010
0100
,
1000
0010
1000
0010
0100
0001
0100
0000
,
0001
0010
0001
0000
1000
0010
1000
0000
,
0000
0001
0100
0100
,
1000
0000
0100
0010
0100
0000
0001
0000
,
0010
0001
1000
0000
0001
1000
0100
0000
,
1000
0100
0010
0000
0001
0010
0100
0000
,
1001
0000
0000
0000
0001
0100
0001
0000
,
1000
0000
1000
0100
0000
0100
0010
0000
,
0010
0000
0001
0100
0001
0100
0000
0100
,
0010
0000
0010
1000
0000
1000
0002
0000
,
0000
0000
1003
0000
1000
0100
1000
0000
,
0010
0000
0100
0000
0001
0100
0001
0000
,
1000
0001
1000
0000
0010
0100
0010
1000
,
0000
0100
0000
0100
0010
0100
0010
0000
,
0011
0000
1100
0000
0011
0000
0010
0001
,
0000
1000
0010
0100
0000
0000
0010
0000
,
1000
0000
0001
0000
0010
0100
0000
0200
,
0000
1300
0000
0001
0000
0100
0010
0100
,
0010
0000
1000
0010
0000
0100
0000
0002
,
0000
1003
0100
0010
,
0002
0000
2003
0000
,
3010
0000
0000
0110
0000
0000
0100
0000
,
1010
0000
0101
0000
1010
0000
1000
0100
,
0000
0100
0010
0002
0000
0000
0000
1003
,
0010
1000
0010
0000
0100
0001
0100
0001
,
0000
1000
0000
0100
0000
0010
0001
1000
,
0020
0000
1030
0001
0000
0100
0000
0200
,
0000
0301
1000
0100
,
0120
0000
0000
0032
0000
0000
0000
0000
,
2003
0000
0000
3020
0000
0000
0130
0000
,
0001
0100
0020
0000
1000
0000
0100
0000
,
0001
0100
1030
1001
,
1000
0100
0010
0000
0001
0010
0000
0100
,
0000
0100
0000
0100
0000
0010
0001
0000
,
1000
0010
0200
0000
0001
0000
0010
0000
,
1000
0010
0301
1001
,
0001
0010
0100
0000
1000
0100
0000
0010
,
0000
0001
0000
0100
0000
0010
0000
0000
,
0010
1000
0002
0000
0100
0000
0010
0000
,
1000
0010
0103
0110
,
0010
1000
0100
0000
0001
0100
0000
1000
,
0000
0010
0000
0100
0000
0100
0001
0000
,
0010
0001
2000
0000
0010
0000
0100
0000
,
0001
0100
3010
0110
,
0100
0001
0010
0000
0001
1000
0000
0010
,
0000
0100
0000
0100
0010
1000
0001
0000
,
0011
0000
1010
0000
0011
0000
0010
0100
,
0000
1000
0010
0002
0000
0000
0013
0000
,
0100
0000
0001
0000
0010
0100
0000
1000
,
0000
0010
0000
1000
0000
0001
0010
0100
,
0020
0000
0031
1000
0000
0010
0000
0200
,
0000
0301
1000
0100
,
0021
0000
1030
0000
,
0110
0000
0000
1001
0000
0000
0110
0000
,
1010
0000
0011
0000
1010
0000
0010
0100
,
0000
0001
0010
2000
0000
0000
0000
3010
,
0001
0010
0001
0000
1000
0010
1000
0010
,
0000
0100
0000
0001
0000
0010
0001
0100
,
0010
0000
0100
0001
0000
1000
0000
0200
,
0000
0310
0001
1000
,
0012
0000
0000
2003
0000
0000
0000
0000
,
3020
0000
0000
0230
0000
0000
0301
0000
,
0010
0001
0200
0000
1000
0000
0010
0000
,
0001
1000
0010
0301
,
0100
0001
0010
0000
0100
1000
0000
1000
,
0000
0100
0000
0010
0000
0001
0100
0000
,
0010
1000
0200
0000
1000
0000
0010
0000
,
0001
1000
0010
0301
,
0100
0010
0001
0000
1000
0010
0000
0100
,
0000
0010
0100
0000
0001
1000
0100
0000
,
0110
0000
0000
0000
;

//---------------dance-single - ----------------
#NOTES:
     dance-single:
     :
     Hard:
     8:
     0.655000,0.678118,0.446941,0.292824,0.080912,595.000000,537.000000,58.000000,38.000000,0.000000,0.000000,0.655000,0.678118,0.446941,0.292824,0.080912,595.000000,537.000000,58.000000,38.000000,0.000000,0.000000:
// measure 0
0000
0000
0000
0000
,  // measure 1
0000
0000
0000
0000
,  // measure 2
0000
0000
0000
0000
,  // measure 3
0000
0000
0000
0000
,  // measure 4
0100
0100
0010
0001
0001
0010
0000
0100
,  // measure 5
0000
1000
0000
0002
0000
0000
0103
0000
,  // measure 6
0100
0100
0010
1000
1000
0010
0000
0100
,  // measure 7
0000
0000
0001
1000
0010
0000
1000
0000
0001
0000
0010
0000
0100
0000
0000
0000
,  // measure 8
1001
0000
0001
0010
0000
0100
0000
0100
,  // measure 9
0010
0000
0000
0000
0010
0000
0001
0000
0000
0000
1000
0001
1000
0000
0000
0000
,  // measure 10
0000
0100
0010
0001
0010
0100
1000
0100
,  // measure 11
0010
0001
0000
1000
0000
0010
0000
0200
,  // measure 12
0000
0000
0301
1000
0000
0010
0000
0010
,  // measure 13
0100
0000
0000
0000
0100
0000
1000
0000
0000
0000
0100
0010
0100
0000
0000
0000
,  // measure 14
0000
0001
1000
0100
0001
1000
0010
0001
,  // measure 15
0000
0011
0000
1100
0000
0220
0000
0330
,  // measure 16
1001
0000
0001
0000
0100
0000
0010
1000
0010
0000
0100
0000
0001
0000
1000
0000
,  // measure 17
0100
0000
0010
0001
0010
0000
0000
0000
0100
0000
1000
0000
0001
0000
0100
0000
,  // measure 18
0010
1000
0010
1000
0010
0000
0100
0000
0001
0000
1000
0000
1000
0000
0001
0000
,  // measure 19
0010
1000
0010
0000
0001
0100
1000
0100
,  // measure 20
0000
0001
0001
1000
0010
0010
1000
0001
,  // measure 21
0100
0100
0001
1000
1000
0100
0010
0001
,  // measure 22
1000
0100
0001
0100
1000
0010
0001
0010
,  // measure 23
1000
0000
1000
0000
0001
0000
0001
0000
0010
0000
0001
0100
0010
0000
1000
0000
,  // measure 24
1001
0000
0000
0000
0000
0000
0000
0000
0001
0000
0010
0001
1000
0000
0100
0000
,  // measure 25
1000
0010
0100
0001
0010
0100
1000
0100
,  // measure 26
0001
0100
1000
0010
0001
0010
0100
0001
,  // measure 27
0010
0010
0100
0100
1000
1000
0001
0002
,  // measure 28
0000
0000
1000
0000
0013
1000
0010
0001
,  // measure 29
0200
0000
1300
0100
0001
1000
0100
0020
,  // measure 30
0000
0000
0130
0000
1000
0000
0001
0100
0010
0000
1000
0000
0001
0000
0010
0000
,  // measure 31
0000
0000
0110
0000
0000
0000
1001
0000
1000
0000
0010
0100
0010
0000
1000
0000
,  // measure 32
1010
0000
0101
0000
0011
0000
0100
2000
,  // measure 33
3000
1000
0010
0002
0003
0001
0010
0100
,  // measure 34
0001
0000
1010
0000
0101
0100
0000
1020
,  // measure 35
0000
2030
0000
3100
0000
0100
0010
0001
,  // measure 36
0020
0000
0130
1000
0000
0001
0000
0200
,  // measure 37
0000
0310
0101
1010
,  // measure 38
0012
0100
2003
3010
,  // measure 39
0110
0000
0000
0000
0000
0000
1001
0000
0000
0000
0001
1000
0001
1000
0001
0000
,  // measure 40
0101
0000
1010
0000
1100
0000
0100
0002
,  // measure 41
0003
0001
0100
2000
0000
3010
0100
0001
,  // measure 42
1000
1000
0001
0001
0010
0100
0010
0001
,  // measure 43
0000
2001
0000
3100
0000
0010
0001
1000
,  // measure 44
0020
0000
1030
0001
0000
0101
0000
1200
,  // measure 45
0000
0010
2300
0001
,  // measure 46
3020
0000
0000
0200
0000
0000
0330
0000
,  // measure 47
1010
0000
0000
0000
0000
0000
0011
0000
0000
0000
0001
1000
0001
1000
0001
0000
,  // measure 48
0010
0001
0100
0100
1000
1000
0100
0100
,  // measure 49
0001
0001
0100
0100
0010
1000
0002
0000
,  // measure 50
1003
0100
0010
0010
0001
0001
0010
0010
,  // measure 51
1000
1000
0010
0010
0001
0100
0010
0001
,  // measure 52
0010
1000
0100
0100
0001
0001
0100
0100
,  // measure 53
1000
1000
0100
0100
0010
0001
2000
0000
,  // measure 54
3100
0010
0001
0100
0010
1000
0100
0001
,  // measure 55
0100
1000
0010
0001
0010
1000
0001
0000
,  // measure 56
0011
0000
0001
0000
2000
0000
0000
0000
3010
0000
1000
0010
1000
0000
0001
0000
,  // measure 57
0010
0010
0100
0100
1000
1000
0002
0000
,  // measure 58
1003
0010
0100
0100
1000
0100
0100
0001
,  // measure 59
0010
0100
1000
0001
0100
0001
1000
0010
,  // measure 60
1010
0000
1000
0000
0002
0000
0000
0000
0013
0000
0001
0010
0001
0000
1000
0000
,  // measure 61
0010
0010
0100
0001
0010
0010
0100
1000
,  // measure 62
0001
0000
0100
0000
1000
0000
0100
0010
1000
0000
0001
0000
0010
0000
0100
0000
,  // measure 63
0000
0000
0110
0000
0000
0000
1001
0000
0001
0000
0100
0010
0100
0000
0001
0000
,  // measure 64
0011
0000
0110
0000
1100
0000
1000
0020
,  // measure 65
0000
0031
0010
0200
0000
1300
0100
0001
,  // measure 66
0010
0000
0011
0000
1100
0001
0000
1010
,  // measure 67
0000
0011
0000
1100
0000
0101
1000
0001
,  // measure 68
0020
0000
0130
1000
0000
0001
0000
0200
,  // measure 69
0000
0300
1010
0000
1100
0000
0101
0000
,  // measure 70
0012
0000
0000
0000
0100
0000
0000
0003
2000
0000
0000
0000
0100
0000
0000
0000
,  // measure 71
3010
0000
0000
0000
0000
0000
0110
0000
0000
0000
0010
0100
0010
0100
0010
0000
,  // measure 72
1010
0000
1001
0000
0101
0001
1000
0010
,  // measure 73
0000
1000
0001
0010
0000
0100
0000
0100
,  // measure 74
0010
0010
0001
0001
1000
1000
0010
0100
,  // measure 75
0000
1010
0000
0101
0000
0011
0001
1000
,  // measure 76
0020
0000
0130
0001
0000
1000
0000
0200
,  // measure 77
0000
0310
1100
0101
,  // measure 78
1020
0000
0000
0230
0000
0000
0301
0000
,  // measure 79
0011
0000
0000
1100
0000
0000
1001
0000
,  // measure 80
0001
0100
0010
0100
1000
0100
0010
0100
,  // measure 81
0001
0010
0100
0010
1000
0010
0100
0010
,  // measure 82
0001
0100
0010
1000
0001
0001
1000
1000
,  // measure 83
0100
0010
0001
1000
1000
0001
0001
0100
,  // measure 84
0010
1000
0010
0100
0010
0001
0010
1000
,  // measure 85
0100
0010
0100
0001
0100
0010
0100
1000
,  // measure 86
0001
0100
0010
1000
0001
0001
1000
1000
,  // measure 87
0100
0100
0010
0010
0100
1000
0001
0000
,  // measure 88
1001
0000
0000
0000
;
