#TITLE:Hurry Up (feat. 1Take);
#SUBTITLE:;
#ARTIST:TAK;
#TITLETRANSLIT:;
#SUBTITLETRANSLIT:;
#ARTISTTRANSLIT:;
#GENRE:;
#CREDIT:;
#BANNER:[Directions] - Hurry Up (feat. 1Take)-bn.png;
#BACKGROUND:[Directions] - Hurry Up (feat. 1Take)-bg.png;
#LYRICSPATH:;
#CDTITLE:cdtitle.png;
#MUSIC:[Directions] - Hurry Up (feat. 1Take).mp3;
#OFFSET:-5.850000;
#SAMPLESTART:76.630997;
#SAMPLELENGTH:15.000000;
#SELECTABLE:YES;
#BPMS:0.000000=128.000000
;
#STOPS:
;
#BGCHANGES:;
#KEYSOUNDS:;
#ATTACKS:;

//---------------dance-single - ----------------
#NOTES:
     dance-single:
     :
     Hard:
     8:
     0.465454,0.533156,0.278246,0.475712,0.116684,363.000000,332.000000,31.000000,53.000000,0.000000,0.000000,0.465454,0.533156,0.278246,0.475712,0.116684,363.000000,332.000000,31.000000,53.000000,0.000000,0.000000:
// measure 0
0000
0000
0000
0000
,  // measure 1
0000
0000
0000
0000
,  // measure 2
0001
0000
0000
0000
0001
0000
0000
0000
1000
0000
0000
1000
0000
0000
1000
0000
,  // measure 3
0000
0000
0001
0000
0001
0000
0000
0000
0100
0000
0000
0100
0000
0000
0100
0000
,  // measure 4
0010
0000
0000
0000
0010
0000
0000
0000
1000
0000
0000
1000
0000
0000
1000
0000
,  // measure 5
0000
0001
0001
0000
1000
0001
1000
0001
,  // measure 6
0100
0000
0010
0100
0000
0010
1000
0001
,  // measure 7
0100
0000
0001
0100
0000
0001
1000
0100
,  // measure 8
0010
0000
0001
0010
0000
0010
0001
1000
,  // measure 9
0100
0000
0100
1000
0000
0010
0100
0001
,  // measure 10
1000
0000
0001
1000
0000
0001
0100
0010
,  // measure 11
1000
0000
0100
1000
0000
0100
0010
0001
,  // measure 12
1000
0000
0001
1000
0000
0001
1000
0100
,  // measure 13
0010
0000
0010
0000
0010
0100
0110
0001
,  // measure 14
2000
0000
0000
0000
3001
0100
0010
2010
,  // measure 15
0000
3100
0010
0012
0000
1003
1001
0000
,  // measure 16
0220
0000
0000
0330
1000
0010
0100
0102
,  // measure 17
0000
1003
0010
2010
0000
3002
1000
1003
,  // measure 18
0020
0000
0100
0000
1030
0000
0001
1002
,  // measure 19
0000
0103
0010
2010
0000
3100
0010
0220
,  // measure 20
0000
0030
0010
0000
1300
0000
0001
0110
,  // measure 21
0000
1000
0110
0001
2001
0000
3001
1000
,  // measure 22
1001
0000
0000
0001
0100
0000
0001
0000
0100
0000
0000
0010
0100
0000
0010
0000
,  // measure 23
1010
0000
0000
0010
1000
0000
0010
0000
1000
0000
0000
0001
0100
0000
0001
0000
,  // measure 24
1001
0100
0010
0001
1000
0100
0020
0000
,  // measure 25
0031
0010
0100
1000
0001
0010
0200
0000
,  // measure 26
1300
0001
1000
0001
1000
0001
1000
0001
,  // measure 27
1000
0010
1000
0000
0001
0100
0001
0000
1000
0010
1000
0000
0001
0100
0001
0000
,  // measure 28
2002
0000
0000
3003
,  // measure 29
1001
0000
0000
0000
0110
0000
0000
0000
1000
0010
1000
0000
0101
0000
0000
0000
,  // measure 30
0200
0000
0302
0000
0013
0100
0010
2000
,  // measure 31
0000
3010
0001
0200
0000
0010
0310
0000
,  // measure 32
0020
0000
2030
0000
3100
0010
0100
0002
,  // measure 33
0000
0103
1000
0020
0000
0130
0001
1000
,  // measure 34
0002
0000
2003
0000
3001
0010
1000
0020
,  // measure 35
0000
0130
1000
0020
0000
0100
0130
0000
,  // measure 36
0020
0000
2030
0000
3001
0100
1000
0200
,  // measure 37
0000
0310
1000
0002
0000
0013
0100
1000
,  // measure 38
1001
0000
0000
0000
0010
0000
0100
0000
0101
0000
0000
0001
0100
0000
0010
0000
,  // measure 39
1010
0000
0101
0000
1001
0000
0100
0010
,  // measure 40
1010
0000
0010
0100
1000
0100
0001
2000
,  // measure 41
0000
3001
0010
0200
0000
2300
0001
3001
,  // measure 42
0101
0000
0000
0000
0010
0000
1000
0000
1100
0000
0000
0010
0100
0000
0001
0000
,  // measure 43
0101
0000
0000
0000
1000
0000
0100
0000
0010
0001
0000
1000
0000
0001
0000
1000
,  // measure 44
0100
0000
0100
0000
0010
0000
0010
0000
0100
1000
0000
0001
0000
1000
0000
0001
,  // measure 45
0100
0100
0010
0010
1000
0001
1001
0000
,  // measure 46
0020
0000
1000
0000
2030
0000
0001
0000
3001
0000
1000
0001
0100
0000
2000
0000
,  // measure 47
0000
3100
0001
0200
0001
0010
0310
0000
,  // measure 48
2000
0000
0001
0000
3002
0000
0010
0000
0013
0000
0100
1000
0001
0000
0020
0000
,  // measure 49
0000
1030
0010
0002
0100
0100
1003
0001
,  // measure 50
0200
0000
0001
0000
0302
0000
1000
0000
1003
0000
0001
1000
0010
0000
0002
0000
,  // measure 51
0000
0013
1000
0020
1000
0100
0130
0000
,  // measure 52
0002
0000
1000
0000
2003
0000
0100
0000
3100
0000
0010
0001
1000
0000
0200
0000
,  // measure 53
0000
0301
0100
2000
0000
0001
3001
1000
,  // measure 54
1001
0000
0000
0000
;

//---------------dance-single - ----------------
#NOTES:
     dance-single:
     :
     Medium:
     6:
     0.298762,0.363516,0.251319,0.439809,0.000000,233.000000,205.000000,28.000000,49.000000,0.000000,0.000000,0.298762,0.363516,0.251319,0.439809,0.000000,233.000000,205.000000,28.000000,49.000000,0.000000,0.000000:
0000
0000
0000
0000
,
0000
0000
0000
0000
,
0001
0001
1000
1000
,
0010
0010
0100
0100
,
0010
0010
1000
1000
,
0001
0001
2000
0000
,
3001
0000
0000
0001
0000
0000
0100
0001
,
1000
0000
0000
1000
0000
0000
0001
0010
,
0100
0000
0000
0100
0000
0000
0100
0010
,
0001
0000
0000
0001
0000
0000
1000
0001
,
0100
0000
0000
0100
0000
0000
0010
0100
,
0001
0000
0000
0001
0000
0000
1000
0001
,
0010
0000
0000
0010
0000
0000
0100
1000
,
0002
0000
0000
0003
,
2002
0000
0000
0000
3003
0000
0000
2000
,
0000
3000
0000
0002
0000
0000
0003
0000
,
0220
0000
0300
0000
1030
0000
0000
0002
,
0000
0003
0000
2000
0000
0000
3000
0000
,
0202
0000
0000
0000
0303
0000
0000
0002
,
0000
0003
0000
2000
0000
3000
0000
0220
,
0000
0000
0000
0000
0330
0000
0000
0110
,
0000
0110
1001
0000
,
1001
0000
0100
0000
0100
0000
0100
0010
,
1000
0000
1000
0000
1000
0000
0010
1000
,
0001
0000
0001
0000
0001
0000
1000
0001
,
0100
0100
0100
1001
,
2000
3002
2003
3002
,
1003
0001
1000
0001
1000
0001
1000
0000
,
2002
0000
0000
3003
,
1001
0000
0110
0000
0001
0001
0001
0000
,
0200
0000
0302
0000
0013
0000
0010
2000
,
0000
3010
0001
0100
0000
0000
0110
0000
,
0020
0000
2030
0000
3100
0000
0100
0002
,
0000
0103
1000
0010
0000
0100
0001
0000
,
0002
0000
2003
0000
3001
0000
0010
2000
,
0000
3010
0001
0010
0000
0000
0110
0000
,
2000
0000
3200
0000
0310
0000
0100
0002
,
0000
0000
0100
0000
0103
0000
1000
0001
,
1000
0000
0001
1000
0001
0000
1000
0010
,
0100
0110
0110
0110
,
0001
0000
1000
0001
0010
0000
0001
2000
,
0000
3001
1000
0000
0001
0000
1001
0000
,
0101
0000
0010
0100
1000
0000
0001
0010
,
0100
1000
0010
1000
,
0110
0010
1100
0010
,
0011
0110
1010
1001
,
0020
0000
2030
0000
3020
0000
1030
1000
,
0000
0010
1000
0020
0000
0000
1030
0000
,
0002
0000
2003
0000
3020
0000
0130
0100
,
0000
0001
0100
0001
0000
1000
0001
0000
,
0002
0000
2003
0000
3002
0000
1003
1000
,
0000
0010
1000
0002
0000
0000
0103
0000
,
0020
0000
2030
0000
3002
0000
1003
1000
,
0000
0110
0000
1001
,
1001
0000
0000
0000
;

//---------------dance-single - ----------------
#NOTES:
     dance-single:
     :
     Easy:
     4:
     0.187207,0.339281,0.251319,0.143611,0.000000,146.000000,118.000000,28.000000,16.000000,0.000000,0.000000,0.187207,0.339281,0.251319,0.143611,0.000000,146.000000,118.000000,28.000000,16.000000,0.000000,0.000000:
0000
0000
0000
0000
,
0000
0000
0000
0000
,
0001
0000
1000
0000
,
0010
0000
0100
0000
,
0010
0000
1000
0000
,
0001
0000
1000
0000
,
0001
0000
0000
0001
0000
0000
0001
0000
,
1000
0000
0000
1000
0000
0000
1000
0000
,
0010
0000
0000
0010
0000
0000
0010
0000
,
1000
0000
0000
1000
0000
0000
1000
0000
,
0001
0000
0000
0001
0000
0000
0001
0000
,
0100
0000
0000
0100
0000
0000
0100
0000
,
0001
0000
0000
0001
0000
0000
0001
0000
,
2000
0000
3000
0000
,
1001
0000
0000
0000
0000
0000
0000
1000
,
0000
0000
0000
0001
0000
0000
0000
0000
,
0110
0000
0000
0000
1000
0000
0000
0001
,
0000
0000
0000
1000
0000
0000
0000
0000
,
0101
0000
0000
0000
0000
0000
0000
0001
,
0000
0000
0000
1000
0000
0000
0000
0110
,
0000
0000
0000
0000
0000
0000
0000
0010
,
0000
0010
0010
0000
,
1001
0000
1001
0000
,
1001
0000
1001
0000
,
0110
0000
0110
0000
,
0110
0000
0100
0100
,
1001
0000
1001
0000
,
1001
1001
1001
1001
,
2002
0000
3003
0000
,
1000
0000
1001
0000
,
0100
0000
0010
0000
,
1000
0001
1000
0000
,
0010
0000
0100
0000
,
0001
0100
0001
0000
,
1000
0000
0010
0000
,
0100
0001
0100
0000
,
0001
0000
0010
0000
,
0100
1000
0100
0000
,
1001
0000
1001
0000
,
0010
0010
0010
0000
,
1001
0000
0110
0000
,
0100
0100
0100
0000
,
0101
0000
0101
0000
,
1000
0000
1000
0000
,
0110
0000
1000
0000
,
0110
0000
0001
0000
,
2000
3000
0020
0030
,
2000
3000
0002
0003
,
0200
0300
0002
0003
,
2000
3000
0001
0001
,
0200
0300
0002
0003
,
2000
3000
0020
0030
,
2000
3000
0002
0003
,
1000
0000
0001
0000
,
1001
0000
0000
0000
;

//---------------dance-single - ----------------
#NOTES:
     dance-single:
     :
     Beginner:
     2:
     0.110273,0.242344,0.242344,0.098733,0.000000,86.000000,59.000000,27.000000,11.000000,0.000000,0.000000,0.110273,0.242344,0.242344,0.098733,0.000000,86.000000,59.000000,27.000000,11.000000,0.000000,0.000000:
0000
0000
0000
0000
,
0000
0000
0000
0000
,
0001
0000
0000
0000
,
1000
0000
0000
0000
,
0010
0000
0000
0000
,
0100
0000
0000
0000
,
0001
0000
0000
0000
,
1000
0000
0000
0000
,
0010
0000
0000
0000
,
1000
0000
0000
0000
,
0001
0000
0000
0000
,
1000
0000
0000
0000
,
0001
0000
0000
0000
,
2000
0000
3000
0000
,
1001
0000
0000
0000
,
1001
0000
0000
0000
,
0110
0000
0000
0000
,
0110
0000
0000
0000
,
0101
0000
0000
0000
,
0101
0000
0000
0000
,
0110
0000
0000
0000
,
0110
0000
0010
0000
,
1001
0000
0000
0000
,
1001
0000
0000
0000
,
0110
0000
0000
0000
,
0110
0000
0000
0000
,
1001
0000
1001
0000
,
1001
0000
1001
0000
,
2002
0000
0000
0000
,
3003
0000
0000
0000
,
1001
0000
0000
0000
,
0001
0000
0000
0000
,
1000
0000
0000
0000
,
0010
0000
0010
0000
,
0010
0000
0000
0000
,
1000
0000
0000
0000
,
0010
0000
0000
0000
,
0100
0000
0100
0000
,
1001
0000
0000
0000
,
0110
0000
0000
0000
,
1001
0000
0000
0000
,
0110
0000
0100
0000
,
0110
0000
0000
0000
,
1001
0000
0000
0000
,
0110
0000
0000
0000
,
1001
0000
0001
0000
,
2000
0000
3000
0000
,
0020
0000
0030
0000
,
2000
0000
3000
0000
,
0002
0000
0003
0000
,
2000
0000
3000
0000
,
0020
0000
0030
0000
,
0200
0000
0300
0000
,
0002
0000
0003
0000
,
1001
0000
0000
0000
;
