#VERSION:0.83;
#TITLE:Hands Up;
#SUBTITLE:;
#ARTIST:Lagoona;
#TITLETRANSLIT:;
#SUBTITLETRANSLIT:;
#ARTISTTRANSLIT:;
#GENRE:;
#ORIGIN:;
#CREDIT:;
#BANNER:Hands Up.png;
#BACKGROUND:Hands Up-bg.png;
#PREVIEWVID:;
#JACKET:;
#CDIMAGE:;
#DISCIMAGE:;
#LYRICSPATH:;
#CDTITLE:;
#MUSIC:Hands Up.ogg;
#OFFSET:-0.024000;
#SAMPLESTART:46.380001;
#SAMPLELENGTH:11.860000;
#SELECTABLE:YES;
#BPMS:0.000=75.000,
8.000=150.000,
72.000=75.000,
88.000=150.000,
156.000=75.000,
172.000=150.000;
#STOPS:;
#DELAYS:;
#WARPS:;
#TIMESIGNATURES:0.000=4=4;
#TICKCOUNTS:0.000=4;
#COMBOS:0.000=1;
#SPEEDS:0.000=1.000=0.000=0,
72.000=0.500=2.000=0,
88.000=1.000=4.000=0,
156.000=0.500=2.000=0,
170.000=1.000=2.000=0;
#SCROLLS:0.000=1.000,
72.000=2.000,
88.000=1.000,
156.000=2.000,
172.000=1.000;
#FAKES:;
#LABELS:0.000=Song Start;
#BGCHANGES:;
#KEYSOUNDS:;
#ATTACKS:
;

//---------------dance-single - ----------------
#NOTEDATA:;
#CHARTNAME:;
#STEPSTYPE:dance-single;
#DESCRIPTION:;
#CHARTSTYLE:;
#DIFFICULTY:Hard;
#METER:8;
#RADARVALUES:0.518540,0.631421,0.000000,0.000000,0.325521,407.000000,407.000000,0.000000,0.000000,0.000000,0.000000,0.000000,0.000000,0.000000,0.518540,0.631421,0.000000,0.000000,0.325521,407.000000,407.000000,0.000000,0.000000,0.000000,0.000000,0.000000,0.000000,0.000000;
#CREDIT:;
#NOTES:
// measure 0
0000
0000
0000
0000
,  // measure 1
0000
0000
0000
0000
,  // measure 2
0001
0100
0001
0000
1000
0100
1000
0000
,  // measure 3
0001
0100
0010
0000
1000
0100
0010
0000
,  // measure 4
0001
0010
0001
0000
1000
0010
1000
0000
,  // measure 5
0001
0010
0100
0000
1000
0010
0100
0000
,  // measure 6
0001
0100
0001
0000
1000
0100
1000
0000
,  // measure 7
0010
0100
0001
0000
0010
0100
1000
0000
,  // measure 8
0001
0010
0001
0000
1000
0010
1000
0000
,  // measure 9
0100
0010
0001
0000
0100
0010
1000
0000
,  // measure 10
0001
0100
0010
0000
1000
0100
0010
0001
,  // measure 11
1000
0100
0010
0000
0001
0100
0010
1000
,  // measure 12
0001
0100
0010
0000
1000
0001
0010
0100
,  // measure 13
1000
0001
0010
0000
0001
1000
0010
0100
,  // measure 14
0001
1000
0010
0000
1000
0100
0010
0001
,  // measure 15
1000
0010
0100
0000
0001
0100
0010
1000
,  // measure 16
0001
0010
0100
0000
1000
0001
0100
0010
,  // measure 17
1000
0000
0001
0000
0010
0000
0000
0000
0001
0000
0000
0100
0001
0000
1000
0000
,  // measure 18
0010
0100
0010
0000
1000
0000
1000
0000
0001
0010
0001
0000
0100
0000
0100
0000
,  // measure 19
0010
1000
0010
0000
1000
0100
1000
0000
0001
0100
0001
0000
1000
0010
0100
0001
,  // measure 20
0100
0010
0100
0000
0001
0000
0001
0000
1000
0010
1000
0000
0100
0000
0100
0000
,  // measure 21
0010
0001
0010
0000
0001
0100
0001
0000
1000
0100
1000
0000
0001
0010
0100
1000
,  // measure 22
0010
0000
0100
0000
0010
0000
0100
0000
0001
1000
0001
0000
1000
0001
1000
0000
,  // measure 23
0010
0000
0100
0000
0001
0000
0000
0001
0000
0000
1000
0000
0100
0000
0000
0000
,  // measure 24
0010
0000
0100
0000
1000
0000
0000
1000
0000
0000
0001
0000
0100
0000
0000
0000
,  // measure 25
0001
0100
0010
0000
1000
0100
0010
0000
,  // measure 26
0001
0010
0100
0000
1000
0001
0100
0001
,  // measure 27
0010
0000
0100
0000
1000
0000
0000
1000
0000
0000
0001
0000
0100
0000
0000
0000
,  // measure 28
0010
0000
0100
0000
0001
0000
0000
0001
0000
0000
1000
0000
0100
0000
0000
0000
,  // measure 29
1000
0100
0010
0000
0001
0100
0010
0000
,  // measure 30
1000
0000
0010
0000
0100
0000
0000
0000
0001
0000
1000
0100
0000
1000
0100
0000
,  // measure 31
0010
0000
0100
0000
1000
0000
0000
1000
0000
0000
0001
0000
0100
0000
0000
0000
,  // measure 32
0010
0000
0100
0000
0001
0000
0000
0001
0000
0000
1000
0000
0100
0000
0000
0000
,  // measure 33
1000
0100
0010
0000
0001
0100
0010
0000
,  // measure 34
1000
0010
0100
0000
0001
1000
0100
1000
,  // measure 35
0010
0000
0100
0000
0001
0000
0000
0001
0000
0000
1000
0000
0100
0000
0000
0000
,  // measure 36
0010
0000
0100
0000
1000
0000
0000
1000
0000
0000
0001
0000
0100
0000
0000
0000
,  // measure 37
0001
0100
0010
0000
1000
0100
0010
0000
,  // measure 38
0001
0000
0010
0000
0100
0000
0000
0000
1000
0000
0001
0100
0000
0001
0100
0000
,  // measure 39
0010
0000
1000
0000
0100
0000
0000
0010
0000
0000
0010
0000
0000
0000
0010
0000
0000
0000
0001
0000
0100
0000
0000
0010
0000
0000
0010
0000
0000
0000
0010
0000
,  // measure 40
0000
0000
1000
0000
0010
0000
0000
0100
0000
0000
0100
0000
0000
0000
0100
0000
0000
0000
0001
0000
0010
0000
0000
0100
0000
0000
0100
0000
0000
0000
0100
0000
,  // measure 41
0010
0000
0001
0000
0100
0000
0000
0010
0000
0000
0010
0000
0000
0000
0010
0000
0000
0000
1000
0000
0100
0000
0000
0010
0000
0000
0010
0000
0000
0000
0010
0000
,  // measure 42
0000
0000
0001
0000
0010
0000
0000
0100
0000
0000
0100
0000
0000
0000
0100
0000
0000
0000
1000
0000
0010
0000
0000
0100
0000
0000
0001
0000
0000
0000
0001
0000
,  // measure 43
0100
0000
0010
0000
1000
0000
0000
1000
0000
0000
0001
0000
0010
0000
0000
0000
,  // measure 44
0100
0000
0010
0000
0001
0000
0000
0001
0000
0000
1000
0000
0010
0000
0000
0000
,  // measure 45
1000
0010
0100
0000
0001
0010
0100
0000
,  // measure 46
1000
0100
0010
0000
0001
1000
0010
1000
,  // measure 47
0100
0000
0010
0000
0001
0000
0000
0001
0000
0000
1000
0000
0010
0000
0000
0000
,  // measure 48
0100
0000
0010
0000
1000
0000
0000
1000
0000
0000
0001
0000
0010
0000
0000
0000
,  // measure 49
0001
0010
0100
0000
1000
0010
0100
0000
,  // measure 50
0001
0000
0100
0000
0010
0000
0000
0000
1000
0000
0001
0010
0000
0001
1000
0000
,  // measure 51
0100
0000
0010
0000
0001
0000
0000
0001
0000
0000
1000
0000
0010
0000
0000
0000
,  // measure 52
0100
0000
0010
0000
1000
0000
0000
1000
0000
0000
0001
0000
0010
0000
0000
0000
,  // measure 53
0001
0010
0100
0000
1000
0010
0100
0000
,  // measure 54
0001
0100
0010
0000
1000
0001
0010
0001
,  // measure 55
0100
0000
0010
0000
1000
0000
0000
1000
0000
0000
0001
0000
0010
0000
0000
0000
,  // measure 56
0100
0000
0010
0000
0001
0000
0000
0001
0000
0000
1000
0000
0010
0000
0000
0000
,  // measure 57
1000
0010
0100
0000
0001
0010
0100
0000
,  // measure 58
1000
0000
0100
0000
0010
0000
0000
0000
0001
0000
1000
0010
0000
1000
0001
0000
,  // measure 59
0100
0000
0000
0000
;

//---------------dance-single - ----------------
#NOTEDATA:;
#CHARTNAME:;
#STEPSTYPE:dance-single;
#DESCRIPTION:;
#CHARTSTYLE:;
#DIFFICULTY:Challenge;
#METER:9;
#RADARVALUES:0.656138,0.657730,0.071347,0.000000,0.633205,515.000000,507.000000,8.000000,0.000000,0.000000,0.000000,0.000000,0.000000,0.000000,0.656138,0.657730,0.071347,0.000000,0.633205,515.000000,507.000000,8.000000,0.000000,0.000000,0.000000,0.000000,0.000000,0.000000;
#CREDIT:;
#NOTES:
// measure 0
0000
0000
0000
0000
,  // measure 1
0000
0000
0000
0000
,  // measure 2
0001
0100
0010
1000
0001
1000
0100
1000
,  // measure 3
0001
0100
0010
1000
0001
0010
0100
0010
,  // measure 4
0001
0100
0010
0100
0001
0010
0100
1000
,  // measure 5
0001
1000
0010
1000
0001
0010
0100
1000
,  // measure 6
0001
0000
0100
0001
0000
0000
1000
0000
0000
0100
0000
0000
0010
0000
0000
0001
0000
0000
1000
0000
0000
0010
0000
0000
,  // measure 7
1000
0000
0100
1000
0000
0000
0001
0000
0000
0100
0000
0000
0010
0000
0000
1000
0000
0000
0001
0000
0000
0010
0000
0000
,  // measure 8
0001
0000
0100
0001
0000
0000
1000
0000
0000
0010
0000
0000
0100
0000
0000
0001
0000
0000
1000
0000
0000
0100
0000
0000
,  // measure 9
1000
0000
0010
1000
0000
0000
0001
0000
0000
0010
0000
0000
0100
0000
0000
1000
0000
0000
0001
0000
0000
0100
0000
0000
,  // measure 10
0001
0010
0011
0000
0001
0100
0010
1000
,  // measure 11
0001
0100
0101
0000
0001
0010
0100
1000
,  // measure 12
0001
0010
0011
0000
0001
0100
0010
1000
,  // measure 13
0001
0100
0101
0000
0100
0001
1000
0100
,  // measure 14
1000
0010
1010
0000
1000
0100
0010
0001
,  // measure 15
1000
0100
1100
0000
1000
0010
0100
0001
,  // measure 16
1000
0010
1010
0000
1000
0100
0010
0001
,  // measure 17
1000
0000
0100
0000
1100
0000
0000
0000
1000
0000
0000
0001
0100
0000
0010
0000
,  // measure 18
1000
0000
0100
0000
1000
0000
0000
0001
0000
0000
0100
0000
0001
0000
0000
0000
1000
0000
0010
0000
1000
0000
0000
0001
0000
0000
0010
0000
0001
0000
0000
0000
,  // measure 19
0100
0000
0010
0000
0100
0000
0000
0001
0000
0000
1000
0000
0001
0000
0000
0000
0010
0000
0100
0000
0010
0000
0000
0001
0000
0000
1000
0000
0001
0000
0000
0000
,  // measure 20
1000
0000
0100
0000
0010
0000
0000
0010
0000
0000
0001
0000
0100
0000
0000
0000
0001
0000
0010
0000
0100
0000
0000
0100
0000
0000
1000
0000
0010
0000
0000
0000
,  // measure 21
1000
0000
0010
0000
0100
0000
0000
0100
0000
0000
0001
0000
0010
0000
0000
0000
0001
0000
0100
0000
0010
0000
0000
0010
0000
0000
1000
0000
0100
0000
0000
0000
,  // measure 22
1000
0000
0010
0000
0100
0000
0001
0000
1000
0100
1000
0000
0001
0100
0001
0000
,  // measure 23
1000
0000
0010
0000
0100
0000
0001
0010
0000
0010
0001
0000
0100
0000
0000
0000
,  // measure 24
0001
0000
0010
0000
0100
0000
1000
0010
0000
0010
1000
0000
0100
0000
0000
0000
,  // measure 25
1000
0000
0100
0000
0010
0000
0001
0100
0000
0100
0001
0000
1000
0000
0001
0010
,  // measure 26
0000
0010
0001
0000
0100
0000
0010
1000
0000
1000
0001
0000
1000
0000
0010
0000
,  // measure 27
1000
0000
0100
0000
0010
0000
0001
0100
0000
0100
0001
0000
0010
0000
0000
0000
,  // measure 28
0001
0000
0100
0000
0010
0000
1000
0100
0000
0100
1000
0000
0010
0000
0000
0000
,  // measure 29
1000
0000
0010
0000
0100
0000
0001
0010
0000
0010
0001
0000
1000
0000
0001
0100
,  // measure 30
0000
0100
0001
0000
0010
0000
0100
0000
1000
0000
0010
0100
0000
0010
0100
0000
,  // measure 31
0001
0000
0010
0000
0100
0000
1000
0010
0000
0010
1000
0000
0100
0000
0000
0000
,  // measure 32
1000
0000
0010
0000
0100
0000
0001
0010
0000
0010
0001
0000
0100
0000
0000
0000
,  // measure 33
0001
0000
0100
0000
0010
0000
1000
0100
0000
0100
1000
0000
0001
0000
1000
0010
,  // measure 34
0000
0010
1000
0000
0100
0000
0010
0001
0000
0001
1000
0000
0001
0000
0010
0000
,  // measure 35
0001
0000
0100
0000
0010
0000
1000
0100
0000
0100
1000
0000
0010
0000
0000
0000
,  // measure 36
1000
0000
0100
0000
0010
0000
0001
0100
0000
0100
0001
0000
0010
0000
0000
0000
,  // measure 37
0001
0000
0010
0000
0100
0000
1000
0010
0000
0010
1000
0000
0001
0000
1000
0100
,  // measure 38
0000
0100
1000
0000
0010
0000
0100
0000
0001
0000
0000
0010
0100
0000
1000
0000
,  // measure 39
0001
0000
0100
0000
0010
0000
0000
0010
0000
0000
1000
0000
0000
0000
1000
0000
0000
0000
0001
0000
0010
0000
0000
0010
0000
0000
0100
0000
0000
0000
0100
0000
,  // measure 40
0000
0000
1000
0000
0010
0000
0000
0010
0000
0000
0100
0000
0000
0000
0100
0000
0000
0000
0001
0000
1000
0000
0000
1000
0000
0000
0100
0000
0000
0000
0100
0000
,  // measure 41
1000
0000
0010
0000
0100
0000
0000
0100
0000
0000
0001
0000
0000
0000
0001
0000
1000
0000
0100
0000
0010
0000
0000
0010
0000
0000
0001
0000
0000
0000
0001
0000
,  // measure 42
1000
0000
0010
0000
0100
0000
0000
0100
0000
0000
0001
0000
0000
0000
0001
0000
1000
0000
0100
0000
0010
0000
0000
0010
0000
0000
0001
0000
0000
0000
0001
0000
,  // measure 43
1000
0000
0010
0000
0100
0000
0001
0010
0000
0010
0100
0000
1000
0000
0000
0000
,  // measure 44
0001
0000
0010
0000
0100
0000
1000
0010
0000
0010
0100
0000
0001
0000
0000
0000
,  // measure 45
1000
0000
0100
0000
0010
0000
0001
0100
0000
0100
0010
0000
1000
0000
0001
0010
,  // measure 46
0000
0010
0100
0000
1000
0000
0010
0100
0000
0100
0001
0000
1000
0000
0010
0000
,  // measure 47
1000
0000
0100
0000
0010
0000
0001
0100
0000
0100
0010
0000
1000
0000
0000
0000
,  // measure 48
0001
0000
0100
0000
0010
0000
1000
0100
0000
0100
0010
0000
0001
0000
0000
0000
,  // measure 49
1000
0000
0010
0000
0100
0000
0001
0010
0000
0010
0100
0000
1000
0000
0001
0100
,  // measure 50
0000
0100
0010
0000
1000
0000
0100
0000
1000
0000
0010
0100
0000
0001
0100
0000
,  // measure 51
0001
0000
0010
0000
0100
0000
1000
0010
0000
0010
0100
0000
0001
0000
0000
0000
,  // measure 52
1000
0000
0010
0000
0100
0000
0001
0010
0000
0010
0100
0000
1000
0000
0000
0000
,  // measure 53
0001
0000
0100
0000
0010
0000
1000
0100
0000
0100
0010
0000
0001
0000
1000
0010
,  // measure 54
0000
0010
0100
0000
0001
0000
0010
0100
0000
0100
1000
0000
0001
0000
0010
0000
,  // measure 55
0001
0000
0100
0000
0010
0000
1000
0100
0000
0100
0010
0000
0001
0000
0000
0000
,  // measure 56
1000
0000
0100
0000
0010
0000
0001
0100
0000
0100
0010
0000
1000
0000
0000
0000
,  // measure 57
0001
0000
0010
0000
0100
0000
1000
0010
0000
0010
0100
0000
0001
0000
1000
0100
,  // measure 58
0000
0100
0010
0000
0001
0000
0100
0000
0001
0000
0010
0100
0000
1000
0100
0000
,  // measure 59
0010
0000
0000
0000
;

//---------------dance-single - ----------------
#NOTEDATA:;
#CHARTNAME:;
#STEPSTYPE:dance-single;
#DESCRIPTION:;
#CHARTSTYLE:;
#DIFFICULTY:Medium;
#METER:6;
#RADARVALUES:0.402601,0.447257,0.080265,0.071347,0.000000,316.000000,307.000000,9.000000,8.000000,0.000000,0.000000,0.000000,0.000000,0.000000,0.402601,0.447257,0.080265,0.071347,0.000000,316.000000,307.000000,9.000000,8.000000,0.000000,0.000000,0.000000,0.000000,0.000000;
#CREDIT:;
#NOTES:
0000
0000
0000
0000
,
0000
0000
0000
0000
,
0001
0101
0100
0010
,
1000
1100
0100
0010
,
0001
0101
0100
0010
,
1000
1100
0100
0010
,
0001
0100
0001
0000
0100
0000
0110
0000
,
0010
1000
0010
0000
1000
0000
1100
0000
,
0100
0010
0100
0000
0010
0000
0011
0000
,
0001
0100
0001
0000
0100
0000
0110
0000
,
0010
1000
0010
0000
1000
0000
0001
0000
,
1000
0100
1000
0000
0001
0000
1000
0000
,
0001
0010
0001
0000
1000
0000
0010
0000
,
0100
0010
0100
0000
0001
0000
0100
0000
,
0001
0010
0001
0000
1000
0000
0100
0000
,
1000
0010
1000
0000
0001
0000
0100
0000
,
0001
0010
0001
0000
1000
0000
0100
0000
,
1000
0010
1000
0000
0001
0000
0100
0000
,
0102
0000
2003
0000
,
3200
0000
0320
0000
,
0032
0010
0023
0100
,
0230
1000
2300
3001
,
0001
0000
0001
0000
1000
1000
0010
0010
,
1000
0100
0010
0000
0001
0000
1000
0000
,
0001
0100
0010
0000
1000
0000
0001
0000
,
1000
0010
1000
0000
0001
0010
0001
0000
,
1000
0010
1000
0000
0001
0010
0001
0000
,
1000
0010
0100
0000
0001
0000
1000
0000
,
0001
0010
0100
0000
1000
0000
0001
0000
,
1000
0100
1000
0000
0001
0100
0001
0000
,
1000
0100
1000
0000
0001
0100
0001
0100
,
0001
0010
0100
0000
1000
0000
0001
0000
,
1000
0010
0100
0000
0001
0000
1000
0000
,
0001
0100
0001
0000
1000
0100
1000
0000
,
0001
0100
0001
0000
1000
0100
1000
0000
,
0001
0100
0010
0000
1000
0000
0001
0000
,
1000
0100
0010
0000
0001
0000
1000
0000
,
0001
0010
0001
0000
1000
0010
1000
0000
,
0001
0010
0001
0000
1000
0010
1000
0010
,
1000
0100
1000
1000
0001
0100
0001
0001
,
1000
0010
1000
1000
0001
0010
0001
0001
,
1000
0100
0010
0010
0001
0100
0010
0010
,
1000
0010
0100
0100
0001
0010
0100
0100
,
0010
0100
1000
0000
0010
0000
0100
0000
,
0010
0100
0001
0000
0010
0000
0100
0000
,
1000
0010
1000
0000
0001
0010
0001
0000
,
1000
0100
1000
0000
0001
0100
0001
0000
,
0100
0010
1000
0000
0100
0000
0010
0000
,
0100
0010
0001
0000
0100
0000
0010
0000
,
1000
0100
1000
0000
0001
0100
0001
0000
,
1000
0010
1000
0000
0001
0010
0001
0010
,
0100
0010
0001
0000
0100
0000
0010
0000
,
0100
0010
1000
0000
0100
0000
0010
0000
,
0001
0010
0001
0000
1000
0010
1000
0000
,
0001
0100
0001
0000
1000
0100
1000
0000
,
0010
0100
0001
0000
0010
0000
0100
0000
,
0010
0100
1000
0000
0010
0000
0100
0000
,
0001
0100
0001
0000
1000
0100
1000
0000
,
0001
0010
0001
0000
1000
0010
0100
0001
,
1000
0000
0000
0000
;

//---------------dance-single - ----------------
#NOTEDATA:;
#CHARTNAME:;
#STEPSTYPE:dance-single;
#DESCRIPTION:;
#CHARTSTYLE:;
#DIFFICULTY:Easy;
#METER:4;
#RADARVALUES:0.257359,0.342020,0.080265,0.071347,0.000000,202.000000,193.000000,9.000000,8.000000,0.000000,0.000000,0.000000,0.000000,0.000000,0.257359,0.342020,0.080265,0.071347,0.000000,202.000000,193.000000,9.000000,8.000000,0.000000,0.000000,0.000000,0.000000,0.000000;
#CREDIT:;
#NOTES:
0000
0000
0000
0000
,
0000
0000
0000
0000
,
0001
0001
1000
1000
,
0010
0010
0100
0100
,
0001
0001
1000
1000
,
0100
0100
0010
0010
,
0001
0001
1000
1000
,
0010
0010
0100
0100
,
0001
0001
1000
1000
,
0100
0100
0010
0010
,
0001
0011
0000
0001
,
0100
0101
0000
1000
,
0100
1100
0000
0001
,
0010
0011
0000
1000
,
0010
1010
0000
0001
,
0100
0101
0000
1000
,
0100
1100
0000
0001
,
0010
0011
0000
0001
,
2001
3000
0002
0003
,
0200
0300
0020
0030
,
2000
3000
0002
0003
,
0020
0030
0200
0300
,
1000
0001
0100
0100
,
0001
0010
0001
0000
,
1000
0010
1000
0000
,
0001
0010
0001
0000
,
1000
0010
1000
0000
,
0001
0100
0001
0000
,
1000
0100
1000
0000
,
0001
0100
0001
0000
,
1000
0100
1000
0100
,
1000
0010
1000
0000
,
0001
0010
0001
0000
,
1000
0010
1000
0000
,
0001
0010
0001
0000
,
1000
0100
1000
0000
,
0001
0100
0001
0000
,
1000
0100
1000
0000
,
0001
0100
0001
0100
,
0010
0010
0010
0000
1000
1000
1000
0000
,
0001
0001
0001
0000
0100
0100
0100
0000
,
0001
0010
0001
0000
1000
0010
1000
0000
,
0001
0100
0001
0000
1000
0100
1000
0000
,
0001
0100
0010
0000
,
1000
0100
0010
0000
,
0001
0100
0010
0000
,
1000
0100
0010
0000
,
0001
0010
0100
0000
,
1000
0010
0100
0000
,
0001
0010
0100
0000
,
1000
0010
0100
0010
,
1000
0001
0010
0000
,
0001
1000
0010
0000
,
1000
0001
0010
0000
,
0001
1000
0010
0000
,
1000
0001
0100
0000
,
0001
1000
0100
0000
,
1000
0001
0100
0000
,
0001
1000
0100
0010
,
0001
0000
0000
0000
;

//---------------dance-single - ----------------
#NOTEDATA:;
#CHARTNAME:;
#STEPSTYPE:dance-single;
#DESCRIPTION:;
#CHARTSTYLE:;
#DIFFICULTY:Beginner;
#METER:1;
#RADARVALUES:0.098102,0.157855,0.008918,0.000000,0.000000,77.000000,76.000000,1.000000,0.000000,0.000000,0.000000,0.000000,0.000000,0.000000,0.098102,0.157855,0.008918,0.000000,0.000000,77.000000,76.000000,1.000000,0.000000,0.000000,0.000000,0.000000,0.000000,0.000000;
#CREDIT:;
#NOTES:
0000
0000
0000
0000
,
0000
0000
0000
0000
,
0001
0000
0000
0000
,
0001
0000
0000
0000
,
1000
0000
0000
0000
,
1000
0000
0000
0000
,
0100
0000
0000
0000
,
0100
0000
0000
0000
,
0010
0000
0000
0000
,
0010
0000
0000
0000
,
0001
0000
0001
0000
,
0001
0000
0000
0000
,
1000
0000
1000
0000
,
1000
0000
0000
0000
,
0010
0000
0010
0000
,
0010
0000
0000
0000
,
0100
0000
0100
0000
,
0100
0000
0000
0000
,
0001
0000
0001
0000
,
1000
0000
1000
0000
,
0100
0000
0100
0000
,
0010
0000
0010
0000
,
0001
0000
1000
1000
,
1000
0000
0000
0000
,
0001
0000
0000
0000
,
1000
0000
0000
0000
,
0001
0000
0000
0000
,
0100
0000
0000
0000
,
0010
0000
0000
0000
,
0100
0000
0000
0000
,
0010
0000
0100
0000
,
0001
0000
0000
0000
,
1000
0000
0000
0000
,
0001
0000
0000
0000
,
1000
0000
0000
0000
,
0100
0000
0000
0000
,
0010
0000
0000
0000
,
0100
0000
0000
0000
,
0010
0000
0100
0000
,
1000
0000
1000
0000
,
0100
0000
0100
0000
,
0010
0000
0010
0000
,
0001
0000
0001
0000
,
1000
0000
0000
0000
,
0100
0000
0000
0000
,
0010
0000
0000
0000
,
0001
0000
0000
0000
,
1000
0000
0000
0000
,
0010
0000
0000
0000
,
0100
0000
0000
0000
,
0001
0000
0100
0000
,
0001
0000
0000
0000
,
0010
0000
0000
0000
,
0100
0000
0000
0000
,
1000
0000
0000
0000
,
0001
0000
0000
0000
,
0100
0000
0000
0000
,
0010
0000
0000
0000
,
1000
0000
0001
0000
,
1001
0000
0000
0000
;
