#TITLE:GET UP'N MOVE;
#SUBTITLE:;
#ARTIST:S&K;
#TITLETRANSLIT:;
#SUBTITLETRANSLIT:;
#ARTISTTRANSLIT:;
#GENRE:;
#CREDIT:;
#MUSIC:[Directions] - GET UP'N MOVE.ogg;
#BANNER:[Directions] - GET UP'N MOVE.png;
#BACKGROUND:[Directions] - GET UP'N MOVE-bg.png;
#CDTITLE:;
#SAMPLESTART:98.902;
#SAMPLELENGTH:14.529;
#SELECTABLE:YES;
#OFFSET:-0.674;
#BPMS:0.000=131.977
,12.000=125.977
,13.000=129.977
,14.000=131.977
;
#STOPS:;
#DISPLAYBPM:132.000;
#BGCHANGES:;
#FGCHANGES:;

//--------------- dance-single - forcednature ----------------
#NOTES:
     dance-single:
     forcednature:
     Beginner:
     3:
     0,0,0,0,0:
0000
0000
0000
0000
,
0000
0000
0000
0000
,
0000
0000
0000
0000
,
0010
0010
0010
0010
,
0100
0000
0100
0000
,
1000
0001
1000
0000
,
0100
0000
0100
0000
,
0001
1000
0001
0000
,
0100
0100
0000
0100
,
0010
0010
0000
0010
,
1000
0001
0000
1000
,
0001
1000
0000
0001
,
1000
0100
0000
1000
,
0001
0010
0000
0001
,
1000
0010
0000
1000
,
0001
0100
0000
1001
,
0100
0000
0010
0000
,
1000
1000
0001
0000
,
0100
0001
0100
0000
,
0010
1000
0010
0000
,
1000
0100
1000
0000
,
0001
0010
0001
0000
,
0001
1000
0001
1000
,
0010
0000
0100
1001
,
0010
0000
0010
0000
,
1000
0000
1000
0000
,
0001
0000
0001
0000
,
0100
0000
0100
0000
,
0010
0000
0010
0000
,
0100
0000
0100
0000
,
0001
0001
0001
0000
,
0001
0001
0001
0000
,
1000
1000
1000
0000
,
1000
1000
1000
0000
,
0001
1000
0001
0000
,
1000
0001
1000
0000
,
0010
0100
0010
0000
,
0100
0010
0100
0000
,
0010
0010
0010
0010
,
0000
0010
0000
1001
,
0100
0000
0001
0000
,
1000
0010
1000
0000
,
0001
0010
0001
0000
,
1000
0100
1000
0000
,
0010
0010
0010
0000
,
0100
0010
0000
1001
,
0100
0000
0100
0000
,
0010
1000
0010
0000
,
0100
0000
0100
0000
,
0010
0001
0010
0000
,
1000
0001
0100
0000
,
0001
1000
0100
0000
,
0010
0001
1000
0000
,
0010
0010
0000
1001
,
0100
0100
0000
0100
,
0000
0010
0000
0010
,
1000
1000
0000
1000
,
0000
0001
0000
0001
,
0010
0010
0000
0010
,
0000
0100
0000
0100
,
1000
1000
0000
1000
,
0000
0001
0000
0001
,
0100
0001
0000
0010
,
0000
0100
0000
1000
,
0010
1000
0000
0100
,
0000
0010
0000
0001
,
0100
0001
0000
1000
,
0010
0010
1001
0110
;

//--------------- dance-single - forcednature ----------------
#NOTES:
     dance-single:
     forcednature:
     Easy:
     5:
     0,0,0,0,0:
0000
0000
0000
0000
,
0000
0000
0000
0000
,
0000
0000
0000
0000
,
1000
0001
0100
1001
,
1000
0001
0001
0000
,
0100
0100
0001
0000
,
0010
0010
1000
0000
,
0100
0100
0000
1001
,
1000
0010
1000
0000
0001
0000
0010
0000
,
0100
0000
0010
0000
,
0001
0100
0001
0000
1000
0000
0010
0000
,
1000
0000
0001
0000
,
1000
0100
1000
0000
0010
0000
0100
0000
,
0001
0000
0010
0000
,
0100
1000
0100
0000
0010
0000
0001
0000
,
0100
0000
0000
1001
,
1000
1000
1000
0000
0010
0000
0100
0000
,
0001
0001
0001
0000
0010
0000
0100
0000
,
0100
0100
0100
0000
1000
0000
0001
0000
,
0010
0010
0010
0000
1000
0000
0001
0000
,
1000
1000
1000
0000
0000
0000
1001
0000
,
0001
0001
0001
0000
0000
0000
1001
0000
,
0100
1001
0010
1001
,
0110
1001
0000
1001
,
1000
0100
1000
0100
,
0001
0100
0001
0001
,
0010
1000
0010
1000
,
0010
0001
0010
0010
,
0100
1000
0100
0001
,
0100
1000
0100
0100
,
0010
0000
0010
0010
0010
0000
0000
0000
,
0100
0000
0100
0100
0100
0000
0000
0000
,
1000
0000
1000
1000
1000
0000
0000
0000
,
0001
0000
0001
0001
0001
0000
0000
0000
,
0100
0100
0100
0000
,
0010
0000
0010
0010
0010
0000
0000
0000
,
1000
1000
1000
0000
,
0001
0001
0000
1001
,
0000
0110
0000
1001
,
0000
0110
0000
1001
,
2000
0100
3001
0000
,
0002
0010
1003
0000
,
0200
0010
0301
0000
,
0020
1000
0031
0000
,
0200
1000
0301
0000
,
0020
1000
0031
1001
,
1000
0100
1000
0000
0001
0000
0010
0000
,
0001
0100
0001
0000
1000
0000
0010
0000
,
1000
0001
1000
0000
0010
0000
0100
0000
,
0001
1000
0001
0000
0010
0000
0100
0000
,
1000
0101
0001
1100
,
0010
0100
0010
1001
,
1000
0011
0001
1010
,
0100
0010
1001
1001
,
2000
0100
0100
0001
,
3002
0100
1000
0103
,
0001
0001
0001
0001
,
1000
1000
1000
1000
,
0002
0010
1000
0010
,
2003
0010
0001
3010
,
0001
0100
0001
0100
,
1000
0010
1000
0010
,
0001
0000
0001
0000
0010
0001
0010
0000
,
0100
0000
0100
0000
1000
0100
1000
0000
,
0001
0000
0001
0000
1000
0010
1000
0000
,
0001
0000
0001
0000
0010
0001
0010
0000
,
0100
0010
0100
0000
,
1001
1001
1001
1001
;

//--------------- dance-single - forcednature ----------------
#NOTES:
     dance-single:
     forcednature:
     Medium:
     7:
     0,0,0,0,0:
0000
0000
0000
0000
,
0000
0000
0000
0000
,
0000
0000
0000
0000
,
1000
0001
0100
1001
,
0001
0100
0001
0000
1000
0000
0010
0000
,
1000
0100
1000
0000
0001
0010
0001
0000
,
1000
0010
1000
0000
0001
0000
0100
0000
,
0001
0010
0001
0000
0100
0000
1001
0000
,
1000
0010
1000
0100
0010
0000
0001
0000
,
0100
0001
0010
0001
0100
0000
0010
0000
,
1000
0100
0010
0100
1000
0000
0001
0000
,
0010
0001
1000
0010
0100
0000
0001
0000
,
0100
0001
0010
0001
0100
0000
0010
0000
,
1000
0100
0010
0001
0100
0000
0010
0000
,
1000
0001
0010
0100
1000
0000
0001
0000
,
0100
0001
1000
0100
0010
0000
1001
0000
,
1000
0000
0000
0001
0000
0000
0100
0000
0001
0000
0000
1000
0000
0000
0100
0000
,
1000
0001
0010
0000
0001
1000
0010
0000
,
0100
0001
0010
0100
1000
0000
0010
0000
,
0100
0001
0010
0100
1000
0000
0010
0000
,
1000
0100
0010
0001
0200
0000
0010
0300
,
1000
0001
0010
0100
2000
0000
0010
3000
,
0100
0001
0100
0000
0010
1000
0010
0000
,
1000
0100
1000
0000
0010
0000
1001
0000
,
0001
0000
0010
0000
0000
0001
0000
0000
1000
0000
0000
0010
0000
0000
0100
0000
,
0001
0000
1000
0000
0000
0100
0000
0000
1000
0000
0000
0001
0000
0000
0100
0000
,
0010
0000
1000
0000
0000
0001
0000
0000
0010
0000
0000
0001
0000
0000
1000
0000
,
0010
0000
0100
0000
0000
0001
0000
0000
1000
0000
0000
0100
0000
0000
0010
0000
,
0100
0000
1000
0000
0000
0001
0000
0000
0010
0000
0000
0001
0000
0000
1000
0000
,
0010
0000
0100
0000
0000
0001
0000
0000
1000
0000
0000
0100
0000
0000
0010
0000
,
0001
0000
0000
0000
1000
0000
0001
0000
0100
0000
0000
0010
0000
0000
1000
0000
,
0001
0000
0000
0000
0010
0000
0100
0000
1000
0000
0000
0001
0000
0000
0100
0000
,
0010
0000
0000
0000
1000
0000
0001
0000
1000
0000
0000
0010
0000
0000
0100
0000
,
0001
0000
0000
0000
1000
0000
0100
0000
0010
0000
0000
0001
0000
0000
1000
0000
,
0100
0000
1000
0000
0000
0001
0000
0000
0100
0000
0000
0001
0000
0000
1000
0000
,
0010
0000
0000
0000
1000
0000
0001
0000
0010
0000
0000
0100
0000
0000
0000
0000
,
1000
0001
1000
0000
0001
0100
0001
0000
,
0100
0010
1000
1001
,
0001
0010
0001
0100
0001
0000
1001
0000
,
1000
0100
1000
0000
0001
0100
0001
0000
,
2000
0000
0000
0000
0001
0000
3100
0000
0000
0000
0010
0000
0000
1000
0000
0000
,
0002
0000
0010
0103
0000
1000
0100
0000
,
0020
0000
0000
0000
0001
0000
0130
0000
0000
0000
0010
0000
0000
1000
0000
0000
,
0200
0000
0010
0301
0000
1000
0001
0000
,
2000
0000
0000
0000
0001
0000
3100
0000
0000
0000
0010
0000
0000
1000
0000
0000
,
0001
0000
1001
0000
1000
0100
0010
0000
,
0001
0010
1000
0010
0001
0000
1001
0000
,
0001
0100
1000
0100
0010
0000
0110
0000
,
1000
0100
0001
0100
0010
0000
0110
0000
,
0001
0100
1000
0100
0001
0000
1001
0000
,
1000
0010
1000
0000
0001
0010
0001
0000
,
0100
0010
0100
0010
0100
0000
1001
0000
,
1000
0010
1000
0000
0001
0010
0001
0000
,
1000
0100
0001
0000
0100
0000
1001
0000
,
1000
0000
0010
0000
0100
0000
0000
0000
0001
0000
0000
0010
0000
0000
0100
0000
,
1000
0000
0001
0000
0100
0000
0000
0000
0010
0000
0000
1000
0000
0000
0001
0000
,
1000
0000
0100
0000
0000
0010
0000
0000
0001
0000
0000
0100
0000
0000
0001
0000
,
0000
0000
1000
0000
0000
0010
0000
0000
1000
0000
0000
0001
0000
0000
0010
0000
,
0001
0000
1000
0000
0001
0000
0000
0000
0100
0000
0000
0001
0000
0000
1000
0000
,
0100
0000
1000
0000
0100
0000
0000
0000
0010
0000
0000
0001
0000
0000
1000
0000
,
0010
0000
1000
0000
0000
0001
0000
0000
0010
0000
0000
0100
0000
0000
1000
0000
,
0000
0000
0001
0000
0000
0100
0000
0000
0001
0000
0000
1000
0000
0000
0010
0000
,
0000
0000
0100
0000
0000
0001
0000
0000
0100
0000
0000
0010
0000
0000
1000
0000
,
0000
0000
0100
0000
0000
0010
0000
0000
0001
0000
0000
1000
0000
0000
0001
0000
,
0000
0000
0100
0000
0000
0001
0000
0000
1000
0000
0000
0100
0000
0000
0010
0000
,
0000
0000
0100
0000
0000
1000
0000
0000
0001
0000
0000
0010
0000
0000
0000
0000
,
0100
0000
1000
0000
0001
0100
0001
0000
,
0010
0000
0000
0010
0000
0000
1000
0001
1000
0001
0000
0000
;

//--------------- dance-single - forcednature ----------------
#NOTES:
     dance-single:
     forcednature:
     Hard:
     8:
     0,0,0,0,0:
0000
0000
0000
0000
,
0000
0000
0000
0000
,
0000
0000
0000
0000
,
1000
0100
0010
0001
0100
0010
1000
0001
1000
0001
0000
0000
,
1000
0000
0001
0000
0100
0000
0001
0000
0000
0000
1000
0000
0100
1000
0000
0000
,
0001
0000
0010
0001
0000
1000
0001
0000
0100
0000
0010
0000
1000
0000
0000
0000
,
0001
0000
0010
0000
0001
0000
1000
0000
0010
0000
0100
0000
0001
0010
0000
0000
,
0001
0000
1000
0010
0000
1000
0001
0000
1000
0000
0000
0000
2002
0000
3003
0000
,
1000
0100
0010
0100
1000
0001
0010
0000
,
0001
0100
0000
0001
0000
0000
1000
0010
0000
1000
0001
0000
1000
0000
0000
0000
,
0001
0010
0001
0000
1000
0000
0010
0000
1000
0000
0100
0000
0010
0000
0001
0000
,
0100
1000
0100
0001
0010
1000
0010
0001
,
1000
0010
1000
0000
0001
0000
0010
0000
0100
0000
1000
0000
0001
0000
0000
0000
,
0100
0001
1000
0010
1000
0100
0010
0000
,
0001
0010
0001
0000
1000
0000
0010
0000
0100
0000
0001
0000
1000
0000
0000
0000
,
0110
0000
0000
0000
1000
0000
0000
0000
0001
0000
0000
0000
0000
0000
0001
0000
0000
0000
1000
0000
0000
0000
2002
0000
0000
0000
0000
3003
0000
0000
0000
0000
,
0001
0100
0010
0100
1000
0100
0010
0100
,
0001
0010
0100
0010
1000
0010
0100
0010
,
0001
0100
1000
0100
0001
0010
1000
0010
,
0001
0100
0001
0010
0100
1000
0010
1000
,
0001
0010
0100
1000
0010
0100
1001
0000
,
1000
0100
0010
0001
0100
0010
1001
0000
,
1000
0100
2200
3300
0001
0100
0202
0303
,
1000
0000
0000
0010
0000
0000
2020
0000
0000
3030
0000
0000
0001
0000
0010
0000
0001
0000
0020
0000
0000
0030
0000
0000
,
1001
0000
1000
0000
0000
0100
0000
0000
0010
0000
0000
0001
0000
0000
0100
0000
,
0010
0000
1000
0000
0000
0001
0000
0000
1000
0000
0000
0010
0000
0000
0100
0000
,
0001
0000
0010
0000
0000
0100
0000
0000
1000
0000
0000
0001
0000
0000
1000
0000
,
0010
0000
0100
0000
0000
0001
0000
0000
1000
0000
0000
0100
0000
0000
0010
0000
,
1001
0000
0001
0000
0000
0100
0000
0000
0010
0000
0000
1000
0000
0000
0001
0000
,
0010
0000
0100
0000
0000
1000
0000
0000
0001
0000
0000
0100
0000
0000
0010
0000
,
1001
0000
1000
0000
0000
0010
0000
0000
0100
0000
0000
0001
0000
0000
0010
0000
,
1001
0000
0001
0000
0000
0100
0000
0000
0010
0000
0000
1000
0000
0000
0100
0000
,
0110
0000
0010
0000
0000
0001
0000
0000
0100
0000
0000
0010
0000
0000
1000
0000
,
0110
0000
0001
0000
0000
1000
0000
0000
0010
0000
0000
0100
0000
0000
0001
0000
,
1001
0000
0001
0000
0000
0100
0000
0000
0001
0000
0000
1000
0000
0000
0010
0000
,
1001
0000
1000
0000
0000
0100
0000
0000
0010
0000
0000
0001
0000
0000
0000
0000
,
1000
0100
0010
0001
0100
0010
1000
0100
,
0010
0000
0000
0001
0000
0000
0100
0000
0000
0010
0000
0000
1000
0000
0001
0000
1000
0000
0002
0000
0000
0003
0000
0000
,
0100
0001
0100
1000
0100
0001
0100
1000
,
0100
0001
0100
0000
0000
0000
2002
3003
,
0001
0000
0010
0001
0010
0000
0000
0000
0001
0000
1000
0001
1000
0000
0000
0000
,
0010
1000
0001
0100
0010
1000
0001
0000
,
1000
0000
0010
1000
0010
0000
0000
0000
1000
0000
0001
1000
0001
0000
0000
0000
,
0010
0001
1000
0010
0100
0001
1000
0000
,
0100
0001
0100
1000
0100
0001
0100
0000
,
0110
0000
1001
0000
0100
0100
2002
3003
,
1000
0100
0001
0100
0010
0100
1000
0100
,
0010
0001
0010
1000
0010
0100
0010
0001
,
0100
1000
0100
0001
0100
0010
1000
0001
,
1000
0100
0010
0001
0010
1000
0010
0001
,
0100
0001
0022
0033
0100
1000
2020
3030
,
1000
0001
0100
0001
1000
0100
2002
3003
,
0001
0010
0022
0033
1000
0010
2020
3030
,
1000
0000
0000
0100
0000
0000
2200
0000
0000
3300
0000
0000
0001
0000
0100
0000
0001
0000
0200
0000
0000
0300
0000
0000
,
1001
0000
0001
0000
0000
0100
0000
0000
0001
0000
0000
1000
0000
0000
0100
0000
,
1000
0000
0010
0000
0000
0100
0000
0000
0001
0000
0000
0010
0000
0000
0100
0000
,
1001
0000
1000
0000
0000
0010
0000
0000
1000
0000
0000
0001
0000
0000
0010
0000
,
0000
0000
0001
0000
0000
0100
0000
0000
0010
0000
0000
1000
0000
0000
0100
0000
,
1001
0000
1000
0000
0000
0010
0000
0000
0100
0000
0000
0001
0000
0000
0010
0000
,
0000
0000
0001
0000
0000
0100
0000
0000
0001
0000
0000
0010
0000
0000
0100
0000
,
1001
0000
0001
0000
0000
0100
0000
0000
0001
0000
0000
1000
0000
0000
0010
0000
,
0000
0000
1000
0000
0000
0001
0000
0000
0100
0000
0000
0001
0000
0000
0010
0000
,
0100
0000
1000
0000
0000
0100
0000
0000
0010
0000
0000
0001
0000
0000
0100
0000
,
0000
0000
0010
0000
0000
1000
0000
0000
0001
0000
0000
0100
0000
0000
0001
0000
,
1000
0000
0001
0000
0000
0010
0000
0000
0100
0000
0000
1000
0000
0000
0001
0000
,
0000
0000
0100
0000
0000
0001
0000
0000
1000
0000
0000
0100
0000
0000
0000
0000
,
0010
0001
0010
1000
0010
0100
1000
0001
,
1000
0010
1000
0001
0010
0001
1000
0001
1000
0001
0000
0000
;

//--------------- dance-single - forcednature ----------------
#NOTES:
     dance-single:
     forcednature:
     Challenge:
     9:
     0,0,0,0,0:
0000
0000
0000
0000
,
0000
0000
0000
0000
,
0000
0000
0000
0000
,
1000
0100
1000
0001
0100
0001
1000
0001
1000
0001
0000
0000
,
1001
0000
0001
0000
0100
0000
0001
0000
0000
0000
1000
0000
0010
1000
0000
0000
,
0001
0000
0010
0100
0000
1000
0001
0000
0100
0000
0001
0000
0010
0000
0000
0000
,
1001
0000
1000
0000
0010
0000
1000
0000
0000
0000
0100
0000
1000
0001
0000
0000
,
0100
0000
0001
0010
0000
0100
1000
0000
0001
0000
0000
0000
1001
0000
0000
0000
,
1000
0010
0000
0000
0100
0000
0001
0010
0000
0100
1000
0000
2002
0000
3003
0000
,
0001
0100
0000
2020
0000
3030
1000
0010
0000
1000
0100
0000
2002
0000
3003
0001
,
0010
0100
1000
0000
0010
0000
1000
0000
0001
0000
0100
0000
0001
0000
0010
0000
,
0001
0100
1000
0100
0001
0010
1000
0010
,
0001
0010
0100
0000
1000
0000
0001
0000
0100
0000
0001
1000
0000
0010
0000
0000
,
1000
0100
0000
0010
0000
0000
0001
1000
0001
0000
0100
0000
0010
0000
0000
0000
,
1000
0010
0100
0000
0001
0000
1000
0001
0010
0000
0100
0000
1000
0000
0000
0000
,
0001
0000
0100
0000
0001
0000
1000
0010
0000
0100
0000
0001
1000
0000
0000
0000
,
0001
0000
0100
0001
0000
1000
0000
0000
1000
0000
0100
1000
0000
0001
0000
0000
,
0001
0000
1000
0000
0100
0000
0000
0010
0001
1000
0000
0001
0000
0100
0000
0000
,
0010
0000
1000
0001
0000
1000
0100
0010
0001
0100
0000
0001
0000
0000
0000
1000
,
0000
0010
0000
1000
0001
0000
0010
0100
1000
0001
0000
0100
0000
0010
0000
0000
,
1000
0001
0000
0100
0000
0001
1000
0000
0010
0000
0100
0000
2002
0000
3003
0000
,
0001
1000
0000
0100
0000
1000
0001
0010
0100
0000
0010
0000
2002
0000
3003
0000
,
0001
0000
0100
0000
0010
0000
0000
0000
1000
0001
0010
0100
0010
0000
0000
0001
,
0100
0000
0000
0001
0000
0000
1000
0000
0000
0010
0000
0000
0100
0000
0000
0000
0000
0000
0001
0000
0000
1000
0000
0000
0100
0000
0000
0000
1000
0000
0000
0000
0001
0000
0000
0000
0010
0000
0000
0000
0000
0000
0000
0000
0000
0000
0000
0000
,
1001
0000
0001
0000
0100
0001
0000
1000
0010
0000
1000
0100
0000
0010
0001
0000
,
1000
0000
0001
0000
1000
0100
0000
0010
0001
0000
1000
0010
0000
0100
0001
0000
,
1000
0000
0100
0000
1000
0001
0000
0010
0100
0000
1000
0001
0000
0100
0010
0000
,
1000
0000
0010
0000
0100
0010
0000
1000
0001
0000
0010
0100
0000
1000
0001
0000
,
0100
0000
0001
0000
1000
0100
0000
0010
0001
0000
1000
0100
0000
0010
0001
0000
,
1000
0000
0001
0000
0100
0001
0000
1000
0010
0000
0100
0001
0000
1000
0010
0000
,
0200
0000
0000
0000
0302
0000
1003
0020
0000
0000
0000
0130
0010
1000
0010
0000
,
2000
0000
0000
0000
0000
0000
0000
0000
0000
0000
0000
0000
0000
0000
0000
0000
0000
0000
0000
0000
0000
0000
0000
0000
3200
0000
0000
0000
0000
0000
0000
0000
0000
0000
0000
0000
0310
0000
0000
0000
0000
0000
0002
0000
0000
0000
0000
0000
1000
0000
0000
0000
0000
0003
0000
0000
0001
0000
0000
0000
0000
0000
0000
0000
1000
0000
0000
0000
0000
0000
0000
0000
0100
0000
0000
0000
0000
0000
0000
0000
0000
0000
0000
0000
0000
0000
0000
0000
0000
0000
0000
0000
0000
0000
0000
0000
,
0020
0000
0000
0000
0032
0000
1003
0200
0000
0000
0000
0310
0100
1000
0100
0000
,
0020
0000
0000
0000
0032
0000
1003
0020
0000
0030
0000
0000
0200
0000
0302
0000
,
1003
0000
0100
1000
0000
0001
0100
0000
0010
0000
0000
1000
0000
0000
0001
0000
,
0020
0000
0000
0000
0230
0000
1300
0002
0000
0000
0000
0100
0003
0000
0000
0000
,
1000
0000
0100
1000
0000
0001
0010
0000
0001
0000
1000
0000
0001
0100
0001
0000
,
1000
0000
0000
0010
0000
0000
1000
0000
0000
0100
0000
0000
1000
0000
0010
0000
0100
0000
0001
0000
0000
0000
0000
0000
,
1001
0000
0001
0000
0100
0000
0001
0000
1000
0010
0000
1000
0000
0000
0100
1000
,
0001
0010
0100
0000
1000
0000
0000
0001
0100
0001
1000
0000
1001
0000
0000
1000
,
0000
0001
0000
0100
0001
0000
0000
0001
0000
1000
0000
0100
1000
0000
0000
0000
,
0001
0010
0000
0001
0000
1000
0010
0100
0001
0000
1000
0000
1001
0000
0000
0000
,
0001
0000
0000
0100
0000
0000
0001
0000
0000
0000
0000
0000
1000
0000
0000
0000
0000
0000
0100
0000
0000
0010
0000
0000
0000
0000
0000
0001
0000
0000
0000
0000
1000
0000
0000
0000
0010
0000
0000
0000
0000
0000
0100
0000
0000
0001
0000
0000
,
0000
0000
0000
1000
0000
0000
0000
0000
0100
0000
0000
0000
0010
0000
0000
0000
0000
0000
0000
0000
0000
0000
0000
0000
0001
0000
0000
0100
0000
0000
0000
0000
0000
0010
0000
0000
0000
0000
0000
1000
0000
0000
0000
0000
0000
0000
0000
0000
,
1001
0000
1000
0100
0000
1000
0001
0100
0001
0000
1000
0000
2002
0000
3003
0000
,
0001
1000
0100
0000
0010
0000
0001
1000
0001
0100
0010
2000
0002
0000
3003
0000
,
1001
0000
1000
0000
0100
1000
0001
0100
0010
0000
1000
0001
0000
0000
0000
0010
,
0001
1000
0000
0010
0000
0100
0001
1000
0100
0000
1000
0001
0000
0000
0000
0010
,
0000
0001
1000
0000
0010
0000
0100
0001
1000
0100
1000
0000
2002
0000
3003
0000
,
1000
0000
0001
0010
0000
0100
1000
0001
0100
0000
0010
0000
2002
0000
3003
0000
,
1000
0100
1000
0000
0001
0100
0001
0000
,
1000
0000
0010
0000
1000
0000
0001
0010
0000
0001
1000
0000
0100
0000
0000
0000
,
0010
0000
0001
0000
0100
0000
0000
0010
1000
0001
1000
0100
0010
0000
0000
0001
,
1000
0000
0000
0001
0000
0000
0100
0000
0000
0010
0000
0000
1000
0000
0000
0000
0000
0000
0100
0000
0000
0010
0000
0000
0001
0000
0000
0000
1000
0000
0000
0000
0001
0000
0000
0000
0100
0000
0000
0000
0000
0000
0000
0000
0000
0000
0000
0000
,
2001
0000
0000
0000
3200
0000
0310
0002
0100
0000
0000
1000
0000
0000
0013
0000
,
0200
0000
0000
0000
0000
0000
0000
0000
0000
0000
0000
0000
0000
0000
0000
0000
0000
0000
0000
0000
0000
0000
0000
0000
2300
0000
0000
0000
0000
0000
0000
0000
0000
0000
0000
0000
3001
0000
0000
0000
0000
0000
0200
0000
0000
0000
0000
0000
0010
0000
0000
0000
0000
0300
0000
0000
0100
0000
0000
0000
0000
0000
0000
0000
0001
0000
0000
0000
0000
0000
0000
0000
1000
0000
0000
0000
0000
0000
0000
0000
0000
0000
0000
0000
0000
0000
0000
0000
0000
0000
0000
0000
0000
0000
0000
0000
,
0001
0000
1000
0001
0000
1000
0010
0000
1000
0000
0000
0100
0000
0000
0010
0000
,
0000
0000
0000
0000
0000
0000
0001
0000
0000
0000
0000
0000
0000
0000
0000
0100
0000
0000
0000
0000
0000
0000
0000
0000
0010
0000
0000
0000
1000
0000
0000
0000
0001
0000
0000
0000
0100
0000
0000
0000
0000
0000
0000
0000
0000
0000
0000
0000
,
1002
0000
0000
0000
0203
0000
0301
2000
0100
0000
0000
0001
0000
0000
3010
0000
,
0200
0000
0000
0000
0000
0000
0000
0000
0000
0000
0000
0000
0000
0000
0000
0000
0000
0000
0000
0000
0000
0000
0000
0000
0302
0000
0000
0000
0000
0000
0000
0000
0000
0000
0000
0000
1003
0000
0000
0000
0000
0000
0200
0000
0000
0000
0000
0000
0010
0000
0000
0000
0000
0300
0000
0000
0100
0000
0000
0000
0000
0000
0000
0000
1000
0000
0000
0000
0000
0000
0000
0000
0001
0000
0000
0000
0000
0000
0000
0000
0000
0000
0000
0000
0000
0000
0000
0000
0000
0000
0000
0000
0000
0000
0000
0000
,
0100
0000
0001
1000
0000
0010
1000
0000
0001
0000
0000
0010
0000
0000
0100
0000
,
0000
0000
0000
0000
0000
0000
1000
0000
0000
0000
0000
0000
0000
0000
0000
0001
0000
0000
0000
0000
0000
0000
0000
0000
0100
0000
0000
0000
0001
0000
0000
0000
1000
0000
0000
0000
0100
0000
0000
0000
0000
0000
0000
0000
0000
0000
0000
0000
,
0010
0000
0001
0000
1000
0010
0000
1000
0001
0000
0010
0001
0000
1000
0001
0000
,
1000
0000
0100
0000
1000
0001
0000
0100
0001
0000
1000
0001
0000
1000
0100
0000
,
0010
0000
0001
1000
0000
0001
0100
0000
0010
0000
1000
0001
0000
1000
0100
0000
,
0010
0000
0001
0000
1000
0001
0000
0100
0001
0000
1000
0100
0000
0000
0000
0000
,
1001
0000
0001
0100
0000
0010
1000
0000
0100
0000
0010
0000
0001
1000
0001
0000
,
1000
0100
1000
0001
0100
0001
1000
0001
1000
0001
0000
0000
;

//--------------- dance-double - forcednature ----------------
#NOTES:
     dance-double:
     forcednature:
     Easy:
     6:
     0,0,0,0,0:
00000000
00000000
00000000
00000000
,
00000000
00000000
00000000
00000000
,
00000000
00000000
00000000
00000000
,
00010000
00001000
00010000
00011000
,
00001000
01000000
00001000
00000000
00100000
00000000
01000000
00000000
,
10000000
00010000
10000000
00000000
00100000
00000000
01000000
00000000
,
00001000
00010000
00001000
00000000
00010000
00000000
00000100
00000000
,
00000010
00000001
00000010
00000000
00000000
00000000
00002002
00003003
,
00000100
00000000
00000001
00000000
00000010
00001000
00000010
00000000
,
00010000
00000000
01000000
00000000
10000000
00010000
10000000
00000000
,
00100000
01000000
00100000
00000000
01000000
00000000
00001000
00000000
,
00010000
00000100
00010000
00000000
00000010
00000000
00001000
00000000
,
00000001
00000010
00000001
00000000
00000100
00000000
00000010
00000000
,
00010000
00001000
00010000
00000000
00001000
00000000
01000000
00000000
,
00100000
10000000
00100000
00000000
10000000
00000000
01000000
00000000
,
00110000
00011000
00002020
00003030
,
00000010
00001000
00000010
00000000
00001000
00000010
00001000
00000000
,
00000100
00010000
00001000
00100000
,
00010000
01000000
00010000
00000000
01000000
00010000
01000000
00000000
,
00100000
10000000
01000000
00100000
,
00001000
00010000
00001000
00000000
00010000
00001000
00010000
00000000
,
00000010
00001000
00000001
00000100
,
00000010
00010000
00000010
00000000
00010000
00001000
00010000
00000000
,
00001000
00100000
00001000
00000000
00000000
00000000
00022000
00033000
,
00000000
00000000
00010000
00000000
00000000
00010000
00000000
00000000
00010000
00000000
00000000
00010000
00000000
00000000
00010000
00000000
,
00000000
00000000
00000100
00000000
00000000
00000100
00000000
00000000
00000100
00000000
00000000
00000100
00000000
00000000
00000100
00000000
,
00000000
00000000
00000010
00000000
00000000
00000010
00000000
00000000
00000010
00000000
00000000
00000010
00000000
00000000
00000010
00000000
,
00000000
00000000
00000001
00000000
00000000
00000001
00000000
00000000
00000001
00000000
00000000
00000001
00000000
00000000
00000001
00000000
,
00000000
00000000
00000100
00000000
00000000
00000100
00000000
00000000
00000100
00000000
00000000
00000100
00000000
00000000
00000100
00000000
,
00000000
00000000
00010000
00000000
00000000
00010000
00000000
00000000
00010000
00000000
00000000
00010000
00000000
00000000
00010000
00000000
,
00100000
00000000
01000000
00000000
00000000
01000000
00000000
00000000
01000000
00000000
00000000
01000000
00000000
00000000
01000000
00000000
,
00000000
00000000
10000000
00000000
00000000
10000000
00000000
00000000
10000000
00000000
00000000
10000000
00000000
00000000
10000000
00000000
,
00100000
00000000
00010000
00000000
00000000
00010000
00000000
00000000
00010000
00000000
00000000
00010000
00000000
00000000
00010000
00000000
,
00000000
00000000
00001000
00000000
00000000
00001000
00000000
00000000
00001000
00000000
00000000
00001000
00000000
00000000
00001000
00000000
,
00000000
00000000
00000100
00000000
00000000
00000100
00000000
00000000
00000100
00000000
00000000
00000100
00000000
00000000
00000100
00000000
,
00000010
00000000
00000001
00000000
00000000
00000001
00000000
00000000
00000001
00000000
00000000
00000001
00000000
00000000
00000000
00000000
,
00000100
00000001
00000100
00000000
00001000
00000000
00011000
00000000
,
01000000
10000000
01000000
00000000
00000000
00000000
00022000
00033000
,
00010000
01010000
00001000
00001100
,
00010000
00000000
01010000
00000000
00000000
00000000
00022000
00033000
,
00001000
00100000
00001000
00000000
00100000
00001000
00100000
00000000
,
00010000
01000000
00100000
10000000
,
01000000
10000000
01000000
00000000
10000000
01000000
10000000
00000000
,
00010000
01000000
00001000
00010000
,
00000100
00001000
00000100
00000000
00001000
00000100
00001000
00000000
,
00000001
00000000
00000100
00000000
00000000
00000000
00002002
00003003
,
00000001
00000010
00000001
00000000
00000100
00000010
00000100
00000000
,
00000010
00010000
00000010
00000000
00010000
00000000
00001000
00000000
,
00100000
00010000
00100000
00000000
00010000
10000000
00010000
00000000
,
10000000
00100000
10000000
00000000
01000000
00000000
00100000
00000000
,
00010000
00011000
00001000
00011000
,
01000000
01010000
00011000
00001100
,
00000010
00001010
00100000
00110000
,
00001000
00000000
00010000
00000000
00000000
00000000
00022000
00033000
,
00001000
00000000
00000010
00000000
00000000
00000010
00000000
00000000
00000010
00000000
00000000
00000010
00000000
00000000
00000010
00000000
,
00000000
00000000
00000001
00000000
00000000
00000001
00000000
00000000
00000001
00000000
00000000
00000001
00000000
00000000
00000001
00000000
,
00000100
00000000
00000010
00000000
00000000
00000010
00000000
00000000
00000010
00000000
00000000
00000010
00000000
00000000
00000010
00000000
,
00000000
00000000
00010000
00000000
00000000
00010000
00000000
00000000
00010000
00000000
00000000
00010000
00000000
00000000
00010000
00000000
,
00001000
00000000
00100000
00000000
00000000
00100000
00000000
00000000
00100000
00000000
00000000
00100000
00000000
00000000
00100000
00000000
,
00000000
00000000
01000000
00000000
00000000
01000000
00000000
00000000
01000000
00000000
00000000
01000000
00000000
00000000
01000000
00000000
,
10000000
00000000
00010000
00000000
00000000
00010000
00000000
00000000
00010000
00000000
00000000
00010000
00000000
00000000
00010000
00000000
,
00000000
00000000
00100000
00000000
00000000
00100000
00000000
00000000
00100000
00000000
00000000
00100000
00000000
00000000
00100000
00000000
,
00010000
00000000
00001000
00000000
00000000
00001000
00000000
00000000
00001000
00000000
00000000
00001000
00000000
00000000
00001000
00000000
,
00000000
00000000
00000100
00000000
00000000
00000100
00000000
00000000
00000100
00000000
00000000
00000100
00000000
00000000
00000100
00000000
,
00000010
00000000
00000001
00000000
00000000
00000001
00000000
00000000
00000001
00000000
00000000
00000001
00000000
00000000
00000001
00000000
,
00000000
00000000
00000100
00000000
00000000
00000100
00000000
00000000
00000100
00000000
00000000
00000100
00000000
00000000
00000000
00000000
,
00010000
00001000
00010000
00000000
00000100
00001000
00000100
00000000
,
01000000
00010000
01000000
00000000
00001000
00000000
00022000
00033000
;

//--------------- dance-double - forcednature ----------------
#NOTES:
     dance-double:
     forcednature:
     Medium:
     7:
     0,0,0,0,0:
00000000
00000000
00000000
00000000
,
00000000
00000000
00000000
00000000
,
00000000
00000000
00000000
00000000
,
00011000
00000000
00011000
00000000
00010000
00001000
00010000
00000000
,
00000100
00000000
00001000
00000000
00000010
00000000
00000100
00000000
00000000
00000000
00000001
00000000
00000000
00000100
00000000
00000000
,
00000010
00000000
00010000
00001000
00000000
00100000
00010000
00000000
,
10000000
00000000
00000000
00000000
00100000
00000000
01000000
00000000
00000000
00000000
00001000
00000000
00000000
00010000
00000000
00000000
,
00000100
00000000
00001000
00000010
00000100
00000000
00001001
00000000
,
00000001
00000010
00001000
00010000
01000000
00000000
00100000
00000000
,
00010000
01000000
00010000
00000000
00001000
00000100
00001000
00000000
,
00010000
00010000
00010000
00000000
00001000
00100000
00010000
01000000
,
00100000
10000000
00100000
00000000
01000000
00010000
01000000
00000000
,
00001000
00010000
00000100
00000000
00001000
00000100
00000010
00000001
,
00000010
00000100
00001000
00000000
00000001
00000100
00000010
00000000
,
00001000
00000100
00010000
00000000
00001000
01000000
00010000
00000000
,
01000000
00000000
00100000
00000000
10000000
00000000
00000000
00100000
00000000
00000000
00000000
00000000
10010000
00000000
00000000
00000000
,
20000000
00000000
00000000
00010000
00000000
01000000
30000000
00000000
00002000
00000000
00000000
00010000
00000000
00000010
00003000
00000000
,
00001000
00001000
00001000
00000000
00000011
00000000
00001100
00000000
,
00010000
00001000
00010000
01000000
00100000
00001000
01000000
00000000
,
00010000
01000000
10000000
01000000
00001000
00010000
00100000
00000000
,
00001000
00100000
00010000
00000010
00000100
00001000
00000010
00000000
,
00000100
00010000
00001000
01000000
00010000
00100000
10000000
00000000
,
00100000
10010000
00000100
00001001
,
00010000
00000000
00000000
00001000
00000000
00000000
00010000
00000000
00000000
00000000
00000000
00000000
00001000
00000000
00010000
00000000
00001000
00000000
00010000
00000000
00000000
00000000
00000000
00000000
,
00200000
00000000
01000000
00000000
00000000
01000000
00000000
00000000
01000000
00000000
00000000
01000000
00000000
00000000
01300000
00000000
,
20000000
00000000
00010000
00000000
00000000
00010000
00000000
00000000
00010000
00000000
00000000
00010000
00000000
00000000
30010000
00000000
,
00002000
00000000
01000000
00000000
00000000
01000000
00000000
00000000
01000000
00000000
00000000
01000000
00000000
00000000
01003000
00000000
,
00020000
00000000
00000010
00000000
00000000
00000010
00000000
00000000
00000010
00000000
00000000
00000010
00000000
00000000
00030010
00000000
,
00000200
00000000
00001000
00000000
00000000
00001000
00000000
00000000
00001000
00000000
00000000
00001000
00000000
00000000
00001300
00000000
,
00000020
00000000
00000001
00000000
00000000
00000001
00000000
00000000
00000001
00000000
00000000
00000001
00000000
00000000
00000031
00000000
,
00001000
00000000
00000000
00000000
00000001
00000000
00000100
00000010
00000000
00000000
00000000
00000000
00000000
00000000
00000000
00000000
,
00010000
00000000
00000000
00000000
00001000
00000000
00100000
00010000
00000000
00000000
00000000
00000000
00000000
00000000
00000000
00000000
,
10000000
00000000
00000000
00000000
00010000
00000000
01000000
00001000
00000000
00000000
00000000
00000000
00000000
00000000
00000000
00000000
,
00010000
00000000
00000000
00000000
00000010
00000000
00001000
00000001
00000000
00000000
00000000
00000000
00000100
00000000
00000010
00000000
,
00002000
00000000
00000100
00000000
00000000
00000100
00000000
00000000
00000100
00000000
00000000
00000100
00000000
00000000
00003100
00000000
,
00020000
00000000
01000000
00000000
00000000
01000000
00000000
00000000
01000000
00000000
00000000
01000000
00000000
00000000
00030000
00000000
,
00001000
00010000
01000000
10000000
00100000
00000000
00011000
00000000
,
00010000
00001000
00000100
00000001
00000010
00000000
00011000
00000000
,
01000000
00011000
00000010
00011000
,
00000100
00011000
00100000
00011000
,
00000010
00001000
00000100
00000010
00000001
00000000
00000100
00000000
,
00000010
00010000
00001000
01000000
00100000
00000000
10000000
00000000
,
01000000
00100000
00010000
00001000
00000100
00000000
00000010
00000000
,
00000001
00000100
00000010
00010000
00001000
00000000
01000000
00000000
,
00001000
00100000
01000000
10000000
00010000
00000000
01010000
00000000
,
01000000
00001000
00010000
00000010
00001000
00000000
00001100
00000000
,
00001000
00000000
00000100
00000000
00000000
00000000
00010000
00000000
00000000
00000000
00001000
00000000
00000000
01000000
00000000
00000000
,
00010000
00000000
00000000
00000000
10000000
00000000
01000000
00000000
00000000
00000000
00100000
00000000
00000000
00001000
00000000
00000000
,
00010000
00000000
00000000
00000000
00000010
00000000
00001000
00000000
00000000
00000000
00000001
00000000
00000000
00000100
00000000
00000000
,
00000010
00000000
00000000
00000000
00010000
00000000
00001000
00000000
00000000
00000000
00100000
00000000
00000000
00010000
00000000
00000000
,
10000000
00100000
01000000
00000000
00001000
00001000
00011000
00000000
,
00000100
00001000
00000010
00000000
00000100
00000100
00000101
00000000
,
00000001
00000010
00001000
00000000
00010000
00010000
00011000
00000000
,
00001000
00000000
00000000
01000000
00000000
00000000
00100000
00000000
00000000
00000000
00000000
00000000
00010000
00000000
00001000
00000000
00010000
00000000
00001000
00000000
00000000
00000000
00000000
00000000
,
00000010
00000000
00000000
00000000
00001000
00000000
00000001
00000100
00000000
00000000
00000000
00000000
00000000
00000000
00000000
00000000
,
00010000
00000000
00000000
00000000
00001000
00000000
00100000
00010000
00000000
00000000
00000000
00000000
00000000
00000000
00000000
00000000
,
10000000
00000000
00010000
00000000
00000000
01000000
00000000
00000000
00001000
00000000
00000000
00010000
00000000
00000000
00000010
00000000
,
00000000
00000000
00001000
00000000
00000000
00000100
00000000
00000000
00000010
00000000
00000000
00000001
00000000
00000000
00000100
00000000
,
00000010
00000000
00000000
00000000
00010000
00000000
00001000
00100000
00000000
00000000
00000000
00000000
00000000
00000000
00000000
00000000
,
00010000
00000000
00000000
00000000
10000000
00000000
00100000
01000000
00000000
00000000
00000000
00000000
00000000
00000000
00000000
00000000
,
00010000
00000000
00100000
00000000
00000000
00001000
00000000
00000000
00010000
00000000
00000000
00000010
00000000
00000000
00000100
00000000
,
00000000
00000000
00000001
00000000
00000000
00000010
00000000
00000000
00000100
00000000
00000000
00010000
00000000
00000000
00001000
00000000
,
00000000
00000000
00100000
00000000
00000000
00010000
00000000
00000000
10000000
00000000
00000000
00100000
00000000
00000000
00010000
00000000
,
00000000
00000000
00001000
00000000
00000000
00000100
00000000
00000000
00000001
00000000
00000000
00000010
00000000
00000000
00001000
00000000
,
00000000
00000000
00000100
00000000
00000000
00000010
00000000
00000000
00000001
00000000
00000000
00000100
00000000
00000000
00001000
00000000
,
00000000
00000000
01000000
00000000
00000000
10000000
00000000
00000000
00100000
00000000
00000000
00010000
00000000
00000000
00000000
00000000
,
00001000
00010000
01000000
10000000
00100000
00000000
10010000
00000000
,
01010000
00000000
00000000
00001100
00000000
00000000
00010000
00001000
00010000
00001000
00000000
00000000
;

//--------------- dance-double - forcednature ----------------
#NOTES:
     dance-double:
     forcednature:
     Hard:
     8:
     0,0,0,0,0:
00000000
00000000
00000000
00000000
,
00000000
00000000
00000000
00000000
,
00000000
00000000
00000000
00000000
,
00010000
00000100
00010000
00001000
01000000
00001000
00010000
00001000
00010000
00001000
00000000
00000000
,
00011000
00000000
00001000
00000000
01000000
00000000
11000000
00000000
00000000
00000000
10100000
00000000
00000000
11000000
00000000
00000000
,
10000000
00000000
00010000
01000000
00000000
00010000
01000000
00000000
00011000
00000000
00000000
00000000
00001010
00000000
00000000
00000000
,
00001001
00000000
00000100
00000000
00000001
00000000
00000011
00000000
00000000
00000000
00000101
00000000
00000000
00000011
00000000
00000000
,
00000001
00000000
00000100
00000010
00000000
00010000
00001000
00000000
00100000
00000000
00000000
00000000
10010000
00000000
00000000
00000000
,
10000000
00100000
00010000
00001000
00000100
00000001
00000010
00001000
,
00000010
00000001
00000100
00001000
00010000
00100000
10000000
00000000
,
01000000
00100000
00010000
00001000
01000000
00100000
00010000
00001000
,
00000100
00010000
00001000
00000100
00000010
00010000
00001000
00000000
,
01000000
00010000
00001000
00000010
00100000
00010000
00000010
00000100
,
00001000
00000001
00010000
00001000
00100000
00010000
01000000
00000000
,
00100000
10000000
00010000
01000000
00010000
00001000
00000010
00000000
,
00000100
00000000
00000001
00000000
00000010
00000000
00000000
00000100
00000000
00010000
00000000
00001000
00000000
00000000
00000000
00000000
,
11000000
00000000
01000000
10000000
00000000
11000000
00000000
00000000
01010000
00000000
00010000
01000000
00000000
01010000
00000000
00000000
,
00011000
00000000
00001000
00000000
00011000
00000000
00000000
00000000
00010000
00000010
00000000
00001010
00000000
00001001
00000000
00000000
,
00000001
00000000
00000100
00000010
00000000
00010000
00001000
00000000
00100000
00010000
00000000
01000000
00000000
00000000
00000000
00100000
,
00000000
10000000
00000000
01000000
00100000
00000000
00010000
00000000
01000000
00001000
00000000
00010000
00000000
00001010
00000000
00000000
,
00000001
00000000
00000010
00001000
00000000
00000010
00000001
00000000
00000100
00000000
00000010
00000000
00001001
00000000
00000000
00000000
,
00010000
00000000
00001000
00010000
00000000
01000000
00010000
00000000
00001000
00000000
00100000
00000000
01010000
00000000
00000000
00000000
,
10000000
00000000
00010000
00000000
01000000
00000000
00000000
00000000
00000010
00001000
00000010
00001000
00000010
00000000
00000000
00000100
,
00000001
00000000
00000000
00001000
00000000
00000000
00000010
00000000
00000000
00000100
00000000
00000000
00001000
00000000
00010000
00000000
00100000
00000000
01000000
00000000
00000000
00000000
00000000
00000000
,
00010000
00100000
01000000
00010000
00000100
00001000
00000010
00000100
,
00001000
00000000
00000000
01000000
00000000
00000000
00010000
00000000
00000000
00100000
00000000
00000000
01000000
00000000
10000000
00000000
01000000
00000000
10000000
00000000
00000000
00000000
00000000
00000000
,
01000000
00010000
00000100
00001000
00000010
00000001
00000010
00000100
,
00010000
00000000
00000000
01000000
00000000
00000000
00100000
00000000
00000000
00001000
00000000
00000000
00000010
00000000
00010000
00000000
00000010
00000000
00010000
00000000
00000000
00000000
00000000
00000000
,
00001000
00000010
00000001
00001000
00000010
00000001
00001000
00000100
,
00000010
00000000
00000000
00010000
00000000
00000000
00100000
00000000
00000000
01000000
00000000
00000000
00001000
00000000
00100000
00000000
00001000
00000000
00100000
00000000
00000000
00000000
00000000
00000000
,
00001000
00000000
00010000
00000000
00000010
00001000
00000000
00000000
00000001
00000000
00000000
00000100
00000000
00000000
00000010
00000000
,
00010000
00000000
00001000
00000000
00100000
00010000
00000000
00000000
10000000
00000000
00000000
00100000
00000000
00000000
01000000
00000000
,
00001000
00000000
00010000
00000000
00000100
00001000
00000000
00000000
00000001
00000000
00000000
00000100
00000000
00000000
00000010
00000000
,
00010000
00000000
00001000
00000000
00100000
00010000
00000000
00000000
10000000
00000000
00000000
00010000
00000000
00000000
01000000
00000000
,
00001000
00010000
01000000
00010000
00001000
00000100
00001000
00010000
,
00001000
00011000
00011000
00000000
,
00000010
00001000
00000001
00000100
00000010
00010000
00001000
01000000
,
00100000
10000000
00010000
01000000
00001000
00010000
00000010
00000000
,
00001100
01010000
00001100
01010000
,
00010000
00001000
00010000
00000000
00001000
00010000
00011000
00000000
,
00000001
00000000
00000100
00000000
00000001
00000000
00000010
00000000
00000100
00000000
00010000
00000000
00001000
00100000
00001000
00000000
,
01000000
00000000
00010000
00000000
10000000
00000000
00100000
00000000
01000000
00000000
00001000
00000000
00010000
00000100
00010000
00000000
,
00000010
00000000
00001000
00000000
00000001
00000000
00000100
00000000
00000010
00000000
00010000
00000000
00001000
00100000
00001000
00000000
,
01000000
00000000
00010000
00000000
10000000
00000000
01000000
00000000
00100000
00000000
00010000
00000000
01000000
00001000
01000000
00000000
,
00001000
00000000
00010000
00000000
00000010
00000000
00001000
00000000
00000100
00000000
00000010
00000000
00000001
00000100
00000001
00000000
,
00001000
00000000
00000010
00000000
00010000
00000000
00001000
00000000
00100000
00000000
00010000
01000000
00010000
00000000
00000000
00000000
,
10100000
00000000
10000000
00000000
01000000
00000000
00100000
00000000
01010000
00000000
00000000
00011000
00000000
00000000
00001100
00000000
,
00001000
00000000
00000010
00000000
00000100
00000000
00000001
00000000
00000011
00000000
00000000
00000110
00000000
00000000
00001100
00000000
,
00010000
00000000
00001000
00000000
01000000
00000000
00010000
00000000
10010000
00000000
00000000
01010000
00000000
00000000
01001000
00000000
,
00010000
00000000
00001000
00000000
00010000
00000000
00000010
00000000
00001010
00000000
00000000
00001001
00000000
00000000
00000011
00000000
,
00000001
00000100
00001000
00000000
00010000
01000000
10000000
00000000
,
00100000
00010000
00001000
00000010
00001000
00010000
00100000
00000000
,
00010000
00000000
00001000
00000000
00010000
00000000
00000000
00000000
00000100
00001000
00000100
00001000
00000100
00000000
00000000
00000000
,
01000000
00000000
00000000
10000000
00000000
00000000
01000000
00000000
00000000
00010000
00000000
00000000
00100000
00000000
00001000
00000000
00100000
00000000
00001000
00000000
00000000
00000000
00000000
00000000
,
00011000
00000000
00010000
00000000
00000010
00010000
00000000
00000000
00000010
00000000
00000000
00001000
00000000
00000000
00000001
00000000
,
00000100
00000000
00000001
00000000
00001000
00000010
00000000
00000000
00010000
00000000
00000000
00001000
00000000
00000000
00100000
00000000
,
00010000
00000000
10000000
00000000
00100000
01000000
00000000
00000000
00001000
00000000
00000000
00010000
00000000
00000000
00000100
00000000
,
00001000
00000000
00000001
00000000
00000100
00000010
00000000
00000000
00010000
00000000
00000000
00001000
00000000
00000000
00100000
00000000
,
01010000
00000000
00010000
00000000
10000000
00100000
00000000
00000000
10000000
00000000
00000000
01000000
00000000
00000000
00100000
00000000
,
00010000
00000000
01000000
00000000
00001000
00010000
00000000
00000000
00000010
00000000
00000000
00001000
00000000
00000000
00000001
00000000
,
00000100
00000000
00000010
00000000
00001000
00000100
00000000
00000000
00010000
00000000
00000000
00001000
00000000
00000000
00100000
00000000
,
00010000
00000000
10000000
00000000
01000000
00100000
00000000
00000000
00010000
00000000
00000000
01000000
00000000
00000000
00001000
00000000
,
00010000
00001000
01000000
00010000
00100000
00001000
00000010
00000100
,
00010000
00000010
00000100
00001000
00000100
00000001
00010000
00001000
,
00100000
01000000
00001000
01000000
10000000
00010000
00100000
00001000
,
00000010
00000100
00010000
00000010
00000100
00001000
00010000
00100000
,
01000000
00000000
10010000
00000000
01000000
00010000
00011000
00000000
,
00001000
01000000
00001000
00010000
00000100
00010000
00001000
00010000
00001000
00010000
00000000
00000000
;

//--------------- dance-double - forcednature ----------------
#NOTES:
     dance-double:
     forcednature:
     Challenge:
     9:
     0,0,0,0,0:
00000000
00000000
00000000
00000000
,
00000000
00000000
00000000
00000000
,
00000000
00000000
00000000
00000000
,
00001000
00000000
00010000
00000000
01000000
00000000
00010000
00000000
00001000
00000000
00000100
00000000
00001000
00000000
00010000
00000000
00001000
00000000
00020000
00000000
00000000
00030000
00000000
00000000
,
00001000
00000000
01000000
00000000
00010000
00000000
10000000
00000000
00100000
00000000
10000000
00000000
01000000
00100000
00000000
00000000
,
00010000
00000000
01000000
00001000
00000000
00010000
00000010
00000000
00001000
00000000
00000001
00000000
00000100
00000000
00000000
00000000
,
00000010
00000000
00010000
00000000
00001000
00000000
00100000
00000000
00010000
00000000
10000000
00000000
00100000
01000000
00000000
00000000
,
00010000
00000000
00100000
00001000
00000000
00010000
00000010
00000000
00001000
00000000
00000000
00000000
00002002
00000000
00003003
00000000
,
00000001
00000100
00000000
00000000
00001010
00000000
00000010
00010000
00000000
00001000
00100000
00000000
00220000
00000000
00330000
00000000
,
00010000
10000000
00000000
20020000
00000000
30030000
10000000
00100000
00000000
01000000
00001000
00000000
00022000
00000000
00033000
00010000
,
00000100
00010000
00000100
00000000
00000010
00000000
00000001
00000000
00000100
00000000
00001000
00000000
00010000
00000000
00100000
00000000
,
10000000
01000000
00010000
00001000
00000010
00000001
00000100
00001000
,
00010000
00000010
00010000
00000000
00000100
00000000
00001000
00000000
00000100
00000000
00010000
00001000
00000000
00220000
00000000
00330000
,
00010000
01000000
00000000
00100000
00000000
00000000
10000000
01000000
00100000
00000000
00010000
00000000
22000000
00000000
33000000
00000000
,
00001000
00010000
00000010
00000000
00001000
00000000
00000001
00000100
00000010
00000000
00001000
00000000
00000100
00000000
00000000
00000000
,
00010000
00000000
00001000
00000000
01000000
00000000
00010000
00100000
00000000
01000000
00000000
10000000
00020000
00000000
00030000
00000000
,
01010000
00000000
01000000
00001000
00000000
00011000
00000000
00000000
00011000
00000000
00010000
00000100
00000000
00001100
00000000
00000000
,
00001010
00000000
00001010
00000000
00001010
00000000
00000000
00000100
00000001
00000010
00000000
00000100
00000000
00001001
00000000
00000000
,
00000101
00000000
00000001
00000100
00000000
00000010
00001000
00000010
00010000
00001000
00000000
00101000
00000000
00000000
00000000
01010000
,
00000000
10100000
00000000
10000000
01000000
00000000
00100000
00010000
01000000
00001000
00000000
00011000
00000000
00010100
00000000
00000000
,
00001000
00000100
00000000
00001000
00000000
00000010
00000100
00000000
00000001
00000000
00000010
00000000
00002002
00000000
00003003
00000000
,
00000001
00000100
00000000
00000010
00000000
00010000
00001000
00100000
00010000
00000000
01000000
00000000
20020000
00000000
30030000
00000000
,
10000000
00000000
00100000
00000000
20200000
00000000
30300000
00000000
00010000
00100000
00010000
00100000
00020000
00000000
00030000
01000000
,
00001000
00000000
00000000
01000000
00000000
00000000
00001000
00000000
00000000
00010000
00000000
00000000
00001000
00000000
00000000
00000000
00000000
00000000
00010000
00000000
00000000
00000010
00000000
00000000
00001000
00000000
00000000
00000000
00000001
00000000
00000000
00000000
00000100
00000000
00000000
00000000
00000020
00000000
00000000
00000000
00000000
00000000
00000030
00000000
00000000
00000000
00000000
00000000
,
00011000
00000000
00001000
00000000
01000000
00010000
00000000
10000000
00100000
00000000
10000000
01000000
00100000
00010000
01000000
00000000
,
00001000
00000000
00000000
00000000
00000000
00000000
00010000
00000000
00000000
00000000
00000000
00000000
00000010
00000000
00000000
00001000
00000000
00000000
00000000
00000000
00000000
00000001
00000000
00000000
00000100
00000000
00000000
00000000
00000001
00000000
00000000
00000000
00001000
00000000
00000000
00000000
00000020
00000000
00000000
00000000
00000000
00000000
00000030
00000000
00000000
00000000
00000000
00000000
,
00001000
00000000
00000100
00000000
00010000
00001000
00000000
00100000
00010000
00000000
01000000
00100000
10000000
01000000
00100000
00000000
,
00010000
00000000
00000000
00000000
00000000
00000000
01000000
00000000
00000000
00000000
00000000
00000000
00001000
00000000
00000000
00100000
00000000
00000000
00000000
00000000
00000000
00001000
00000000
00000000
00010000
00000000
00000000
00000000
00000100
00000000
00000000
00000000
00000010
00000000
00000000
00000000
00000002
00000000
00000000
00000000
00000000
00000000
00000003
00000000
00000000
00000000
00000000
00000000
,
00000100
00000000
00000001
00000000
00001000
00000010
00000000
00010000
00001000
00000000
00100000
00010000
01000000
00100000
10000000
00000000
,
01000000
00000000
00000000
00000000
00000000
00000000
00100000
00000000
00000000
00000000
00000000
00000000
00010000
00000000
00000000
00100000
00000000
00000000
00000000
00000000
00000000
00001000
00000000
00000000
01000000
00000000
00000000
00000000
00100000
00000000
00000000
00000000
00010000
00000000
00000000
00000000
00002000
00000000
00000000
00000000
00000000
00000000
00003000
00000000
00000000
00000000
00000000
00000000
,
00011000
00000000
00010000
00000000
00000010
00001000
00000000
00000001
00000100
00000000
00000010
00001000
00000000
00000001
00000100
00000000
,
00000010
00000000
00010000
00000000
00001000
00100000
00000000
00010000
01000000
00000000
00100000
10000000
00000000
01000000
00100000
00000000
,
00010000
00000000
01000000
00000000
00001000
00010000
00000000
00000100
00001000
00000000
00000001
00000100
00000000
00000010
00001000
00000000
,
00000100
00000000
00010000
00000000
00001000
00100000
00000000
00010000
10000000
00000000
00100000
01000000
00000000
00001000
00010000
00000000
,
00000010
00000000
00001000
00000001
00000000
00001000
00000001
00000000
00000100
00000000
00000010
00001000
00000010
00000100
00000010
00000000
,
00001000
00000000
00000100
00000000
00010000
00001000
00000000
00100000
00010000
00000000
01000000
00100000
00000000
00000000
00000000
00000000
,
10000000
00000000
01000000
10000000
00000000
00010000
01000000
00000000
01001000
00000000
00001000
00000000
00010000
00000000
00000010
00000000
,
00001000
00000000
00000000
00000100
00000000
00000000
00000010
00000000
00000000
00000001
00000000
00000000
00000100
00000000
00000010
00000000
00010000
00000000
00002000
00000000
00000000
00003000
00000000
00000000
,
00110000
00000000
00010000
00000000
00001010
00000000
00001000
00000000
00010000
00001000
00000000
00011000
00000000
00000000
01000000
00010000
,
10000000
00100000
01000000
00000000
00001000
00000000
00000000
00010000
00000010
00001000
00000001
00000000
00000220
00000000
00000330
00000101
,
00000000
00001010
00000000
00001000
00000100
00000000
00000000
00010100
00000000
00101000
00000000
00010000
10000000
00000000
00000000
00000000
,
00100000
01000000
00000000
00001000
00000000
00010000
00000010
00001000
00000010
00000000
00000100
00000000
00000101
00000000
00000000
00000000
,
00000001
00000000
00000000
00000010
00000000
00000000
00000001
00000000
00000000
00000000
00000000
00000000
00000100
00000000
00000000
00000000
00000000
00000000
00000010
00000000
00000000
00001000
00000000
00000000
00000000
00000000
00000000
00000100
00000000
00000000
00000000
00000000
00010000
00000000
00000000
00000000
00001000
00000000
00000000
00000000
00000000
00000000
00100000
00000000
00000000
00010000
00000000
00000000
,
00000000
00000000
00000000
10000000
00000000
00000000
00000000
00000000
00010000
00000000
00000000
00000000
01000000
00000000
00000000
00000000
00000000
00000000
00000000
00000000
00000000
00000000
00000000
00000000
00001000
00000000
00000000
00010000
00000000
00000000
00000000
00000000
00000000
00010010
00000000
00000000
00000000
00000000
00000000
00001010
00000000
00000000
00000000
00000000
00000000
00000000
00000000
00000000
,
00000100
00000000
00000001
00000010
00000000
00000100
00001000
00000010
00010000
00000000
00001000
00000000
00022000
00000000
00033000
00000000
,
00000000
00001000
00100000
00000000
00010000
00000000
01000000
00010000
10000000
01000000
00100000
00001000
00020000
00000000
00030000
00000000
,
00001010
00000000
00000101
00000000
00000001
00000010
00000100
00001000
00000010
00000000
00010000
00001000
00000000
00100000
00000000
00010000
,
01000000
00100000
00000000
10000000
00000000
01000000
00100000
00010000
01000000
00000000
00001000
00010000
00000000
00000010
00001000
00000001
,
00000000
00000100
00000010
00000000
00001000
00000000
00000100
00010000
00001000
01000000
00010000
00000000
02020000
00000000
03030000
00000000
,
01000000
00000000
00100000
10000000
00000000
01000000
00100000
00010000
01000000
00000000
00010000
00000000
20020000
00000000
30030000
00000000
,
01010000
00010000
00022000
00033000
00010100
00001000
00002020
00003030
,
00001100
00000000
00000100
00000000
00000010
00000000
00000001
00000100
00000000
00000010
00001000
00000000
00000202
00000000
00000303
00000000
,
00000101
00000000
00001001
00000000
00002200
00000000
00003300
00000000
00001000
00000100
00010000
00001000
00100000
00000000
00000000
00010000
,
01000000
00000000
00000000
00100000
00000000
00000000
10000000
00000000
00000000
00010000
00000000
00000000
01000000
00000000
00000000
00000000
00000000
00000000
00100000
00000000
00000000
01000000
00000000
00000000
00001000
00000000
00000000
00000000
00010000
00000000
00000000
00000000
00000100
00000000
00000000
00000000
00000020
00000000
00000000
00000000
00000000
00000000
00000030
00000000
00000000
00000000
00000000
00000000
,
00000001
00000000
00000100
00000000
00000001
00000010
00000000
00000100
00001000
00000000
00000010
00010000
00000000
00001000
00100000
00000000
,
00010000
00000000
01000000
00000000
00100000
10000000
00000000
01000000
00100000
00000000
00010000
01000000
00000000
00001000
00010000
00000000
,
00000100
00000000
00001000
00000000
00000001
00001000
00000000
00000010
00010000
00000000
00001000
00100000
00000000
00010000
01000000
00000000
,
00100000
00000000
10000000
00000000
01000000
00100000
00000000
00010000
01000000
00000000
00001000
00010000
00000000
00000100
00001000
00000000
,
00000001
00000000
00001000
00000000
00000010
00000100
00000000
00000001
00000010
00000000
00000100
00001000
00000000
00000001
00000100
00000000
,
00000010
00000000
00010000
00000000
00001000
00100000
00000000
00010000
01000000
00000000
00100000
10000000
00000000
01000000
00100000
00000000
,
00010000
00000000
01000000
00000000
00001000
00010000
00000000
00000100
00001000
00000000
00000001
00001000
00000000
00000010
00010000
00000000
,
00001000
00000000
01000000
00000000
00010000
00100000
00000000
01000000
10000000
00000000
00010000
01000000
00000000
00001000
00010000
00000000
,
00000100
00000000
00001000
00000000
00000001
00001000
00000000
00000010
00010000
00000000
00001000
00100000
00000000
00010000
01000000
00000000
,
00100000
00000000
10000000
00000000
01000000
00100000
00000000
00010000
01000000
00000000
00001000
00010000
00000000
00000100
00001000
00000000
,
00000100
00000000
00010000
00000000
00001000
00100000
00000000
00010000
00100000
00000000
00001000
00010000
00000000
00000010
00001000
00000000
,
00000001
00000000
00000100
00000000
00000010
00001000
00000000
00000100
00010000
00000000
00001000
01000000
00000000
00010000
00100000
00000000
,
10010000
00000000
10000000
00100000
00000000
01000000
00001000
00000000
00100000
00000000
00000010
00000000
00010000
00000000
00001000
00000000
,
00010000
01000000
00010000
00001000
00000100
00001000
00010000
00001000
00010000
00001000
00000000
00000000
;
