#TITLE:Fog Up;
#SUBTITLE:;
#ARTIST:Dustvoxx;
#TITLETRANSLIT:;
#SUBTITLETRANSLIT:;
#ARTISTTRANSLIT:;
#GENRE:;
#CREDIT:;
#BANNER:[Directions] - Fog Up.png;
#BACKGROUND:[Directions] - Fog Up-bg.png;
#LYRICSPATH:;
#CDTITLE:;
#MUSIC:[Directions] - Fog Up.ogg;
#OFFSET:-0.026000;
#SAMPLESTART:75.008972;
#SAMPLELENGTH:15.000000;
#SELECTABLE:YES;
#DISPLAYBPM:128.000000;
#BPMS:0.000000=128.000000
,96.000000=64.000000
,97.250000=128.000000
,97.500000=256.000000
,98.500000=128.000000
,98.750000=64.000000
,99.000000=128.000000
,125.000000=64.000000
,125.125000=128.000000
,125.250000=256.000000
,125.500000=64.000000
,125.625000=128.000000
,125.750000=256.000000
,126.000000=64.000000
,126.125000=128.000000
,126.250000=256.000000
,126.500000=64.000000
,126.625000=128.000000
,126.750000=256.000000
,127.000000=128.000000
,159.000000=64.000000
,159.500000=128.000000
,160.000000=256.000000
,161.000000=64.000000
,161.250000=128.000000
,161.500000=256.000000
,162.000000=64.000000
,162.250000=128.000000
,162.500000=256.000000
,163.000000=128.000000
;
#STOPS:
;
#BGCHANGES:;
#KEYSOUNDS:;
#ATTACKS:;

//---------------dance-single - ----------------
#NOTES:
     dance-single:
     :
     Hard:
     8:
     0.465104,0.443511,0.082008,0.123012,0.209121,372.000000,10.000000,15.000000,0.000000,0.000000,0.000000,0.465104,0.443511,0.082008,0.123012,0.209121,372.000000,10.000000,15.000000,0.000000,0.000000,0.000000:
0000
0000
0000
0000
,
0000
0000
0000
0000
,
0000
0000
0000
0000
,
0000
0000
0000
0000
,
1000
0000
0000
0001
0000
0000
0010
0000
0000
0100
0000
0000
0010
0000
0001
0000
,
1000
0000
0000
0010
0000
0000
0100
0000
0000
0001
0000
0000
0100
0000
0010
0000
,
1000
0100
0010
0001
1000
0010
0100
0001
,
0020
0001
1000
0001
,
0130
0000
0010
0000
0000
0100
0000
0000
1000
0000
0000
0100
0000
0000
0010
0000
,
0001
0000
0000
0100
0000
0000
0010
0000
0000
0100
0000
0000
0001
0000
1000
0000
,
0100
0000
1000
0000
0001
0000
0100
0000
0010
0000
1000
0001
1000
0001
1000
0000
,
0010
0000
0000
0100
0000
0000
0001
0000
0000
1000
0000
0000
0100
0000
0010
0000
,
0100
0000
1000
0000
0001
0000
0010
0000
0001
0000
0100
0010
0100
0010
0100
0000
,
0001
0000
0000
0100
0000
0000
0010
0000
0000
1000
0000
0000
0001
0000
0010
0000
,
0100
0000
0010
0000
0001
0000
0100
0000
0010
0000
1000
0001
1000
0001
1000
0000
,
0001
0000
0000
0100
0000
0000
1000
0000
0000
0100
0000
0000
0002
0000
0000
0000
,
0013
0100
0100
0000
0000
0010
0011
0000
,
0000
1000
1000
0000
0000
0010
1010
0000
,
0000
1000
0001
0000
0000
0010
0110
0000
,
0000
0000
0010
0000
0100
0000
0100
1000
0000
0000
0001
0000
1001
0000
0000
0000
,
0000
0000
1000
0000
0100
0000
0000
0000
0000
0000
0100
0000
0010
0000
0000
0010
,
0000
0000
0010
0000
0000
0010
0000
0000
0010
0000
0000
0010
0000
0000
0010
0000
,
0000
0100
0000
0000
1000
0000
0000
0010
0000
0000
0100
0000
0000
0001
0000
0000
,
1000
0100
1000
0001
1000
0001
0010
0000
,
2002
0000
0000
0000
0000
0000
0000
0000
0000
0000
0000
0000
3003
0000
0000
0000
0000
0000
1000
0000
0000
0000
0000
0100
,
1000
0001
0100
0001
0010
0000
0001
0100
,
0001
0000
1000
0000
0000
1000
0100
0000
0000
1000
0000
0000
0010
0000
0000
0000
0000
0000
0200
0000
0000
0000
0000
0310
,
0000
0010
1000
1000
0001
0001
0100
0001
,
1000
0000
0010
0000
0000
0000
1000
0000
0000
0001
0000
0000
0100
0000
0000
0000
0000
0000
0001
0000
0000
0000
0000
0010
,
0100
0010
0001
1000
0100
0000
1000
0001
,
0010
0000
0100
0000
0000
0100
1000
0000
0000
0001
0000
0000
0100
0000
0000
0000
0000
0000
0001
0000
0000
1000
0000
0000
,
0001
1000
0001
0100
0010
1010
1000
0001
,
1000
0000
0010
0000
0000
0000
0100
0000
0000
0001
0000
0000
0100
0000
0000
0000
0000
0000
0001
0000
0000
0000
0000
1000
,
0100
1000
0001
0010
0100
0000
0010
0001
,
0100
0000
0010
0000
0000
0010
1000
0000
0000
0100
0000
0000
0010
0000
0000
0000
0000
0000
0200
0000
0000
0000
0000
1300
,
0000
1000
0001
0100
0010
1000
0001
0100
,
0001
0000
0010
0000
0000
0000
0100
0000
0000
1000
0000
0000
0100
0000
0000
0000
0000
0000
1000
0000
0000
0000
0000
0001
,
0100
0010
1000
0001
0010
0000
0001
0100
,
0010
0000
1000
0000
0000
0001
0010
0000
0000
0100
0000
0000
2000
0000
0000
0000
0000
0000
0100
0000
0000
0000
0000
0000
,
0001
0000
3100
0100
0020
0000
0032
0000
,
0000
0000
0100
0000
0100
0000
1003
0100
,
0010
0000
0001
1000
0100
0000
0001
0100
,
0010
0000
0000
0000
0000
0000
1000
0000
0000
0010
0000
0000
0100
0000
0000
0000
0000
0000
0001
0000
0000
0010
0000
0100
,
0000
0010
0110
0000
1001
0000
1010
0000
,
0010
0000
0000
0000
0000
1000
0001
0000
0000
0100
0000
0000
0010
0000
0000
0000
0000
0000
1000
0000
0000
0001
0000
0000
,
0010
0000
0001
1000
0100
0000
0001
1000
,
0010
0000
1000
0001
0100
0000
0010
0000
,
0010
1000
0001
1000
0100
0100
1000
0001
,
0010
0001
1000
0100
0010
0000
0001
1000
,
0010
1000
0001
0010
0100
0000
1000
0010
,
0100
0001
1000
0001
0010
0000
0001
1000
,
0010
0100
0002
0000
1003
0000
1000
0100
,
1000
0010
0001
0010
1000
0001
0100
0001
,
0010
1000
0010
0001
0100
0010
1000
0100
,
1000
0001
0100
0001
1000
0100
0020
0000
,
0100
0000
0031
0001
2001
0000
3010
0000
,
1000
0000
0010
0000
1000
0000
0000
1000
0000
0000
0010
0000
0100
0000
0000
0000
,
0001
0000
0010
0000
0001
0000
0000
0001
0000
0000
0010
0000
0100
0000
0000
0000
,
1000
0000
0001
0000
0100
0000
0000
0100
0000
0000
0001
0000
0010
0000
0000
0000
,
0001
1000
0100
0100
1000
0001
0200
0000
,
0000
0000
0000
0302
,
0000
0000
0000
2003
,
0000
0000
0000
0000
3000
0000
1000
0100
,
0010
0000
0100
1000
0000
0001
1000
0000
0010
0000
0100
0000
0000
0000
0000
0000
;

//---------------dance-single - ----------------
#NOTES:
     dance-single:
     :
     Challenge:
     9:
     0.649036,0.600044,0.336234,0.123012,0.487949,498.000000,41.000000,15.000000,0.000000,0.000000,0.000000,0.649036,0.600044,0.336234,0.123012,0.487949,498.000000,41.000000,15.000000,0.000000,0.000000,0.000000:
// measure 0
0000
0000
0000
0000
,  // measure 1
0000
0000
0000
0000
,  // measure 2
0000
0000
0000
0000
,  // measure 3
0000
0000
0000
0000
,  // measure 4
1000
0100
0001
0100
1000
0100
0001
0100
,  // measure 5
1000
0010
0001
0010
1000
0010
0001
0010
,  // measure 6
1000
0100
0010
0001
1000
0010
0100
0001
,  // measure 7
0200
1000
0001
0310
,  // measure 8
0001
0000
1000
0000
0001
0100
0000
0100
0010
0000
1000
0000
0100
0000
1000
0000
,  // measure 9
0001
0000
1000
0000
0001
0010
0000
0010
0100
0000
1000
0000
1001
0000
0000
0000
,  // measure 10
1000
0000
0001
0000
1000
0100
0000
0100
0010
0000
0001
0100
0001
1000
0010
0000
,  // measure 11
1000
0000
0001
0000
1000
0010
0000
0010
0100
0000
0110
0000
1001
0000
0000
0000
,  // measure 12
0001
0000
1000
0000
0100
1000
0000
0100
0010
0000
0100
1000
0001
0010
0001
0000
,  // measure 13
1000
0000
0001
0000
0010
0100
0000
0100
1000
0000
0100
0000
1001
0000
0000
0000
,  // measure 14
1000
0000
0001
0000
0100
0001
0000
0100
0010
0000
0100
0001
1000
0001
0100
0000
,  // measure 15
0101
0000
0001
0000
1000
0000
1100
0000
1000
0000
0001
0000
0010
0100
0010
0100
,  // measure 16
1000
0100
1100
0000
0100
1000
0011
0000
,  // measure 17
0010
0001
0101
0000
0100
0001
1010
0000
,  // measure 18
0010
0100
1001
0000
1000
0001
0110
0000
,  // measure 19
0001
0000
1000
0100
1000
0000
0001
0010
0000
0000
1100
0000
1001
0000
0001
0000
,  // measure 20
0100
0000
0010
0000
1010
0000
0000
0000
0010
0000
0100
0000
0001
0000
1000
0100
,  // measure 21
0000
1000
0001
0000
1000
0010
0000
1000
0001
0000
0010
0100
0000
0010
0001
0000
,  // measure 22
1000
0001
0000
0001
0010
0000
0010
0100
0000
0100
1000
0000
1000
0010
0000
0010
,  // measure 23
0100
0000
0001
1000
0100
0000
1000
0001
0100
0001
0100
0000
0020
0000
0030
0000
,  // measure 24
2002
0000
0000
0000
0000
0000
0000
0000
0000
0000
0000
0000
3003
0000
0000
0000
0000
0000
1001
0000
0000
0000
0000
1000
,  // measure 25
0001
0000
0100
0001
0000
0000
1000
0000
0000
0001
0000
0000
0020
0000
0000
0030
0000
0000
0001
0000
0000
1000
0000
0000
,  // measure 26
0001
0000
0100
0000
0000
0100
0010
0000
1000
0010
0000
0000
0100
0000
0000
0001
0000
0000
1000
0000
0000
1000
0000
0100
,  // measure 27
0000
0101
0000
1100
0100
0010
0001
0100
,  // measure 28
0001
0000
1000
0000
0000
1000
0001
0000
0010
0001
0000
0000
0100
0000
0000
0000
0000
0000
0010
0000
0000
1000
0000
0001
,  // measure 29
0000
0000
1000
0000
0000
0010
0100
0000
0000
0001
0000
0000
0010
0000
0000
0010
0000
0000
0001
0000
0000
1000
0000
0000
,  // measure 30
0010
0000
0100
0000
0000
0010
1000
0000
0000
0001
0000
0000
0010
0000
0000
0100
0000
0000
1000
0000
0000
0001
0000
0000
,  // measure 31
1000
0001
1000
1100
0110
0011
0001
1000
,  // measure 32
0001
0000
0100
0000
0000
0001
1000
0000
0000
1000
0000
0000
0110
0000
0000
0001
0000
0000
1000
0000
0000
0100
0000
0010
,  // measure 33
0000
0000
0000
0000
0100
0000
0000
0000
0000
0000
1000
0000
0001
0000
0000
0000
0000
0000
0001
0000
0000
0000
0000
0000
0200
0000
0000
0300
0000
0000
0010
0000
0000
0000
0000
0000
1000
0000
0000
0000
0000
0000
0001
0000
0000
0000
0000
0000
,  // measure 34
0010
0000
0100
0000
0000
0010
0001
0000
0000
0001
0000
0000
0110
0000
0000
1000
0000
0000
0001
0000
0000
0001
0000
0100
,  // measure 35
0000
1100
0000
1010
1001
0101
1000
0001
,  // measure 36
0010
0000
0001
0000
0000
1000
0100
0000
0000
0100
0000
0000
1001
0000
0000
0001
0000
0000
0100
0000
0000
0000
0000
0010
,  // measure 37
1000
0000
0010
0000
0100
0000
0001
0000
0020
0030
0001
0000
1000
0000
0010
0000
,  // measure 38
0100
0000
0000
0000
0001
0000
0000
0000
0000
0000
0001
0000
0010
0000
0000
0000
0000
0000
0010
0000
0000
0000
0000
0000
1001
0000
0000
0000
0000
0000
1000
0000
0000
0000
0000
0000
0001
0000
0000
0100
0000
0000
0001
0000
0000
0000
0000
0000
,  // measure 39
1000
0100
1000
0000
0001
0000
0001
0000
0021
0000
0000
0000
0200
0000
0030
0000
,  // measure 40
0000
0000
0000
0000
0000
0000
0010
0000
0000
0000
0000
0000
0010
0000
0000
0000
0000
0000
1300
0000
0000
0100
0000
0010
,  // measure 41
0100
0000
0000
1000
0000
0000
0001
0000
0000
0010
0000
0000
0100
0000
1000
0001
0000
0000
0001
0000
0000
0100
0000
0010
,  // measure 42
0100
0000
0000
0001
0000
0000
0010
0000
0000
1000
0000
0000
0010
0000
0001
1000
0000
0000
0001
0000
0000
0100
0000
0001
,  // measure 43
0100
0000
0000
0010
0000
1000
0010
0000
0000
0100
0000
0000
1001
0000
0000
0000
0000
0000
0110
0000
0000
0000
0000
1000
,  // measure 44
0001
0000
0000
0000
0000
0001
0010
0000
0000
0001
0000
0000
1000
0000
0100
1000
0000
0000
0001
0000
0000
0010
0000
0100
,  // measure 45
0000
0000
0100
0010
0000
0000
0001
0000
0000
1000
0000
0000
0010
0000
1000
0100
0000
0000
1000
0000
0000
0001
0000
0100
,  // measure 46
0001
0000
0000
0010
0000
0000
0001
0000
0000
1000
0000
0000
0010
0000
1000
0010
0000
0000
1000
0000
0000
0001
0000
0000
,  // measure 47
0110
0000
1000
0001
1000
0001
1000
0000
0220
0000
0330
0000
1000
0000
0100
0000
,  // measure 48
1000
0000
0000
0001
0000
0100
0000
0000
0100
0010
0000
0000
1000
0000
0100
1000
0000
0000
0001
0000
0000
0100
0000
0010
,  // measure 49
0100
0000
0000
0100
0000
0001
0000
0000
0001
1000
0000
0000
0010
0000
1000
0001
0000
0000
0001
0000
0000
0010
0000
0000
,  // measure 50
0001
0000
0000
1000
0000
0010
0000
0000
0100
0000
0000
0010
1000
0000
0001
1000
0000
0000
0100
0000
0000
0010
0000
0001
,  // measure 51
0000
0000
0010
0100
0000
0000
1100
0000
0000
0001
0000
0000
0101
0000
0000
1000
0000
0000
0001
0000
0000
0010
0000
0000
,  // measure 52
0100
0000
0000
1000
0000
0100
0000
0000
1000
0001
0000
0000
0100
0000
0001
0100
0000
0000
0010
0000
0000
1000
0000
0001
,  // measure 53
1000
0000
0000
0100
0000
1000
0000
0000
0100
0010
0000
0000
0001
0000
0100
0010
0000
0000
1000
0000
0000
0001
0000
0000
,  // measure 54
0100
1000
0100
0001
0010
1000
0010
0010
,  // measure 55
1001
0000
0000
1000
0000
0001
0000
0000
0001
0100
0000
0000
0020
0000
0000
0000
0000
0000
0130
0000
0000
0001
0000
0000
,  // measure 56
1000
0000
0000
0001
0000
0100
0001
0000
0100
0001
0000
0000
0010
0000
0000
0000
0000
0010
0100
0000
0000
1000
0000
0000
,  // measure 57
0001
0000
0000
1000
0000
0100
1000
0000
0100
1000
0000
0000
0010
0000
0000
0000
0000
0010
0100
0000
0000
0001
0000
0000
,  // measure 58
1000
0000
0000
0001
0000
0100
0001
0000
1000
0001
0000
0000
0010
0000
0000
0000
0000
0010
0100
0000
0000
1000
0000
0000
,  // measure 59
0001
0000
0000
0000
0000
0001
0100
0000
0000
0001
0000
0000
1000
0000
0000
0001
0000
1000
0200
0000
0000
0000
0000
0000
,  // measure 60
0000
0000
0000
0320
,  // measure 61
0000
0000
0000
0032
,  // measure 62
0000
0000
0000
0000
0000
0000
1003
0100
,  // measure 63
0110
0000
0001
0010
0000
1000
0010
0000
1001
0000
0101
0000
0000
0000
0000
0000
;

//---------------dance-single - ----------------
#NOTES:
     dance-single:
     :
     Medium:
     5:
     0.342091,0.365244,0.139414,0.270627,0.016402,242.000000,17.000000,33.000000,0.000000,0.000000,0.000000,0.342091,0.365244,0.139414,0.270627,0.016402,242.000000,17.000000,33.000000,0.000000,0.000000,0.000000:
0000
0000
0000
0000
,
0000
0000
0000
0000
,
0000
0000
0000
0000
,
0000
0000
0000
0000
,
1000
0100
1000
0100
,
0010
0001
0010
0001
,
0100
0001
0100
0001
,
0100
0110
0010
0110
,
1000
0002
0103
0001
,
1000
0002
0013
0001
,
0100
0020
1030
1000
,
0100
0020
0031
1001
,
0001
2000
3100
1000
,
0001
2000
3010
1000
,
0010
0200
0301
0001
,
0010
0200
1300
1001
,
1000
0100
1000
0000
0000
0100
0010
0000
,
0000
0001
0001
0000
0000
0100
0010
0000
,
0000
1000
0001
0000
0000
0010
0100
0000
,
0000
0000
1000
0000
0100
0000
0000
1000
0000
0000
1000
0000
0010
0000
0000
0000
,
0000
0000
0100
0000
0100
0000
0000
0000
0000
0000
0001
0000
0010
0000
0000
0010
,
0000
0000
0010
0000
0000
0010
0000
0000
0010
0000
0000
0010
0000
0000
0020
0000
,
0000
0000
0000
0000
,
0000
0000
0000
0130
,
2002
0000
3003
1001
,
1000
0000
0001
0100
0001
0000
0000
0001
,
1000
0000
0100
1000
0100
0000
0220
0000
,
0000
0000
0000
0000
0330
0000
1000
0100
,
0000
0100
0010
0000
1001
0000
0001
0000
,
0100
0000
0010
1000
0010
0000
0000
1000
,
0001
0000
0010
0100
0010
0000
0002
0000
,
2003
0000
3002
0003
2000
3000
0001
0100
,
0010
0000
0100
0000
0001
0000
1000
0100
,
0010
0000
0100
0000
0100
0000
0000
1000
,
0001
0000
0001
1000
0010
0000
0100
0000
,
0100
0000
0100
0001
1000
0100
1000
0000
,
0001
0000
1000
0010
0100
0000
0001
0000
,
1000
0000
0001
0010
0100
0000
0010
0000
,
0001
0100
1000
0010
,
0010
0000
0010
0100
2000
0000
3002
0000
,
0000
0100
0100
0103
,
0001
1000
0001
0100
,
0010
1000
0010
0100
,
0001
1000
1000
0110
,
0100
0001
1000
0100
,
1000
0001
1000
0100
,
0010
0001
0010
0001
,
0100
0010
1000
1001
,
0001
0000
0100
0001
0100
0000
0010
0000
,
0010
0000
1000
0100
1000
0000
0100
0000
,
0010
0000
0001
0010
0001
0000
1000
0100
,
1000
0000
0001
0100
0001
0000
1000
0000
,
1200
0310
1100
0001
,
0201
0310
0101
1000
,
1200
0000
0310
0000
0011
0000
0001
0001
,
0200
0000
0310
1000
,
2000
3100
0200
1300
,
2000
3001
0002
0103
,
0200
0301
0002
0013
,
0020
0130
1001
0002
,
0000
0000
0003
0020
,
0000
0000
0030
0200
,
0000
0000
0000
0000
0300
0000
1000
0100
,
0010
0000
0001
0100
0010
0100
0000
0000
;

//---------------dance-single - ----------------
#NOTES:
     dance-single:
     :
     Beginner:
     1:
     0.112468,0.130188,0.024602,0.000000,0.000000,93.000000,3.000000,0.000000,0.000000,0.000000,0.000000,0.112468,0.130188,0.024602,0.000000,0.000000,93.000000,3.000000,0.000000,0.000000,0.000000,0.000000:
0000
0000
0000
0000
,
0000
0000
0000
0000
,
0000
0000
0000
0000
,
0000
0000
0000
0000
,
1000
0000
0000
0000
,
0001
0000
0000
0000
,
1000
0000
0000
0000
,
0010
0010
0010
0010
,
1000
0000
0001
0000
,
0000
0000
0100
0000
,
0000
0000
0010
0000
,
0000
0000
1000
0000
,
0000
0000
1000
0000
,
0000
0000
0100
0000
,
0000
0000
0010
0000
,
0000
0000
0001
0000
,
0000
1000
0000
0001
,
0000
0100
0000
0001
,
0000
1000
0000
0001
,
0000
0010
0000
0001
,
0000
1000
0000
0100
,
0000
0000
0000
0000
,
0000
0000
0000
0000
,
0000
0000
0000
0100
,
0010
0000
0000
0001
,
0000
0000
0001
1000
,
0000
0000
1000
0001
,
0000
0000
0000
1000
,
0000
0000
1000
0001
,
0000
0000
0001
1000
,
0000
0000
1000
0001
,
0000
0000
0000
1000
,
0000
0000
1000
0010
,
0000
0000
1000
0001
,
0000
0000
1000
0100
,
0000
0000
0000
1000
,
0000
0000
0001
0100
,
0000
0000
0001
1000
,
0000
0000
0001
0010
,
0000
0000
0000
1001
,
0000
0000
0000
1000
,
0000
0000
1000
0100
,
0000
0000
0010
0001
,
0000
0000
0000
1000
,
0000
0000
0001
0100
,
0000
0000
0100
0010
,
0000
0000
0010
1000
,
0000
0000
0000
1001
,
0000
0000
0000
0001
,
0000
0000
0001
0100
,
0000
0000
0001
0010
,
0000
0000
0000
0100
,
0000
0000
0100
1000
,
0000
0000
1000
0001
,
0000
0000
1000
0010
,
0000
0000
0000
1000
,
0000
1000
0000
0100
,
0000
0100
0000
0010
,
0000
0010
0000
0001
,
0000
0001
0000
1001
,
0000
0000
0000
0000
,
0000
0000
0000
0000
,
0000
0000
0000
0010
,
0010
0010
0010
0000
;

//---------------dance-single - ----------------
#NOTES:
     dance-single:
     :
     Easy:
     3:
     0.186276,0.208301,0.065607,0.057406,0.000000,144.000000,8.000000,7.000000,0.000000,0.000000,0.000000,0.186276,0.208301,0.065607,0.057406,0.000000,144.000000,8.000000,7.000000,0.000000,0.000000,0.000000:
0000
0000
0000
0000
,
0000
0000
0000
0000
,
0000
0000
0000
0000
,
0000
0000
0000
0000
,
0000
1000
0000
1000
,
0000
0001
0000
0001
,
0000
1000
0000
1000
,
0010
0010
0010
0010
,
1000
1000
0100
0000
,
0000
0001
0100
0000
,
0000
1000
0010
0000
,
0000
0001
0010
0000
,
0001
0001
0100
0000
,
0000
1000
0100
0000
,
0000
0001
0010
0000
,
0000
1000
0010
0000
,
1000
0001
0000
1001
,
0000
1000
0000
1001
,
0000
0010
0000
1001
,
0000
0100
0100
1001
,
0000
1000
0000
0100
,
0100
0100
0100
0100
,
0200
0000
0000
0000
,
0000
0000
0300
0010
,
1001
0000
0000
1000
,
0000
0001
0001
0100
,
0000
0001
0001
0010
,
0000
0000
0000
1001
,
0000
1000
1000
0001
,
0000
1000
1000
0100
,
0000
1000
1000
0010
,
0000
0010
0000
0000
,
1000
0000
1000
0000
,
0100
0000
0100
0000
,
0010
0000
0010
0000
,
0001
1000
1000
0000
,
0001
0000
0001
0000
,
0100
0000
0100
0000
,
0010
0000
0010
1000
,
0001
1000
1000
1001
,
0000
0000
0000
0001
,
0000
0100
0001
0100
,
0000
0010
0100
0010
,
0000
1000
1000
0100
,
0000
1000
0001
1000
,
0000
0001
0010
0001
,
0000
0100
0001
2000
,
3000
0000
0002
0000
0000
0003
1000
0000
,
0000
0100
1000
0100
,
0000
0010
0100
0010
,
0000
0001
0010
0001
,
0000
1000
1000
0001
,
0000
0100
0010
0100
,
0000
0010
1000
0010
,
0000
1000
0001
0100
,
0020
0030
0110
0000
,
1000
0000
1000
0000
,
0001
0000
0001
0000
,
1000
0000
1000
0000
,
0001
0000
0001
2000
,
0000
0000
3000
0002
,
0000
0000
0003
0200
,
0000
0000
0300
0010
,
0010
0010
0010
0000
;
