#VERSION:0.83;
#TITLE:Drink Up;
#SUBTITLE:;
#ARTIST:Tut Tut Child;
#TITLETRANSLIT:;
#SUBTITLETRANSLIT:;
#ARTISTTRANSLIT:;
#GENRE:;
#ORIGIN:;
#CREDIT:;
#BANNER:drinkup_bn.png;
#BACKGROUND:drinkup_bg.png;
#PREVIEWVID:;
#JACKET:drinkup_jacket.png;
#CDIMAGE:;
#DISCIMAGE:;
#LYRICSPATH:;
#CDTITLE:cdtitle.png;
#MUSIC:drinkup.ogg;
#OFFSET:0.000000;
#SAMPLESTART:50.454544;
#SAMPLELENGTH:17.454544;
#SELECTABLE:YES;
#BPMS:0.000=110.000;
#STOPS:;
#DELAYS:;
#WARPS:;
#TIMESIGNATURES:0.000=4=4;
#TICKCOUNTS:0.000=4;
#COMBOS:0.000=1;
#SPEEDS:0.000=1.000=0.000=0;
#SCROLLS:0.000=1.000;
#FAKES:;
#LABELS:0.000=Song Start;
#BGCHANGES:;
#KEYSOUNDS:;
#ATTACKS:
;

//---------------dance-single - ----------------
#NOTEDATA:;
#CHARTNAME:;
#STEPSTYPE:dance-single;
#DESCRIPTION:;
#CHARTSTYLE:;
#DIFFICULTY:Hard;
#METER:9;
#RADARVALUES:0.512170,0.704103,0.179260,0.187408,0.550001,440.000000,418.000000,22.000000,23.000000,0.000000,0.000000,2.000000,0.000000,0.000000,0.512170,0.704103,0.179260,0.187408,0.550001,440.000000,418.000000,22.000000,23.000000,0.000000,0.000000,2.000000,0.000000,0.000000;
#CREDIT:;
#OFFSET:0.000000;
#BPMS:0.000000=110.000000
;
#STOPS:;
#DELAYS:;
#WARPS:;
#TIMESIGNATURES:0.000000=4=4
;
#TICKCOUNTS:0.000000=4
;
#COMBOS:0.000000=1
;
#SPEEDS:0.000000=1.000000=0.000000=0
,28.000000=0.500000=0.100000=0
,29.000000=1.000000=3.000000=0
,92.750000=0.000000=3.000000=0
,93.000000=1.000000=3.000000=0
,108.000000=0.900000=0.250000=0
,108.250000=1.000000=0.250000=0
,108.750000=0.900000=0.250000=0
,109.000000=1.000000=0.250000=0
,109.500000=0.900000=0.250000=0
,109.750000=1.000000=0.250000=0
,124.000000=0.500000=0.100000=0
,125.000000=1.000000=3.000000=0
,140.000000=0.900000=0.250000=0
,140.250000=1.000000=0.250000=0
,140.750000=0.900000=0.250000=0
,141.000000=1.000000=0.250000=0
,141.500000=0.900000=0.250000=0
,141.750000=1.000000=0.250000=0
,156.000000=0.500000=0.100000=0
,157.000000=1.000000=3.000000=0
,188.000000=0.500000=1.000000=0
,189.937500=0.000000=0.000000=0
,190.000000=1.000000=2.000000=0
;
#SCROLLS:0.000000=1.000000
,28.000000=3.000000
,28.250000=1.000000
,124.000000=3.000000
,124.250000=1.000000
,156.000000=3.000000
,156.250000=1.000000
,188.000000=99.000000
,190.000000=1.000000
;
#FAKES:;
#LABELS:0.000000=Song Start
;
#NOTES:
// measure 0
0000
0000
0000
0000
,  // measure 1
0000
0000
0000
0000
,  // measure 2
0000
0000
0000
0000
,  // measure 3
0000
0000
0000
0000
,  // measure 4
0101
0000
0000
0000
0001
0000
0100
0010
0000
0000
1000
0000
0000
1000
0100
0000
,  // measure 5
0010
0000
0000
0000
0010
0000
0001
1000
0010
0000
0000
0000
0100
0000
0010
0000
,  // measure 6
0100
0000
0000
0000
0001
0000
1000
0100
0000
0000
1000
0000
0000
0001
0100
0000
,  // measure 7
0010
0000
0000
0000
0100
0000
0001
1000
0010
1000
0001
0000
0020
0000
0000
0000
,  // measure 8
0031
0010
0001
0010
0100
1000
0100
1000
0000
1000
0010
0100
0001
0010
0001
1000
,  // measure 9
0010
1000
0010
1000
0001
0100
0001
0100
0000
0001
0100
0010
1000
0100
1000
0100
,  // measure 10
0010
0001
0010
0001
1000
0010
1000
0010
0000
1000
0010
0100
0001
0010
0001
0010
,  // measure 11
0100
1000
0100
1000
0001
0100
0001
0100
0000
0010
0100
0001
1000
0010
0100
0001
,  // measure 12
1000
0000
1000
0000
0100
0000
0100
0000
0010
0000
0010
0000
0001
0000
0001
1000
,  // measure 13
0010
0000
0010
0000
0100
0000
0100
0000
0001
0000
0001
0000
1000
0000
1000
0100
,  // measure 14
1000
0001
1000
0001
0100
0001
0100
0001
0100
0010
0100
0010
1000
0010
1000
0010
,  // measure 15
4000
0004
0000
0000
0000
0000
0000
0000
0000
0000
0000
0000
0000
0000
3003
0000
,  // measure 16
1001
0000
0000
1000
0000
0000
1000
0000
0000
0000
0000
0010
0100
0000
0100
0000
,  // measure 17
0001
0000
0000
0001
0000
0000
0001
0000
0000
0000
0000
0010
0100
0000
0100
0000
,  // measure 18
0010
0000
0000
0010
0000
0000
0010
0000
0000
0000
0000
0010
0001
0000
0001
0000
,  // measure 19
0100
0000
0000
0100
0000
0000
0100
0000
0000
0000
0000
0010
1000
0000
1000
0000
,  // measure 20
0001
0100
0001
0100
0010
1000
0010
1000
,  // measure 21
0100
0001
0100
0001
1000
0010
1000
0010
,  // measure 22
0001
0010
0100
1000
0001
0010
0100
1000
0001
0100
0010
1000
0001
0100
0010
1000
,  // measure 23
0001
0000
0000
0000
,  // measure 24
1100
0000
0000
0000
1000
0100
0010
0000
0001
1000
0000
1000
0010
0000
0010
0000
,  // measure 25
0110
0000
0000
0000
0001
0100
0010
0000
1000
0001
0000
0001
0010
0000
0100
0000
,  // measure 26
1001
0000
0000
0000
0100
0010
0001
0000
0100
0010
0000
0010
1000
0000
1000
0000
,  // measure 27
1200
0000
0000
0001
0000
0000
1300
0000
0100
0000
0010
0000
0220
0000
0330
0000
,  // measure 28
0011
0000
0000
0000
0001
0100
0010
0000
1000
0001
0000
0001
0010
0000
0010
0000
,  // measure 29
0110
0000
0000
0000
1000
0100
0010
0000
0001
1000
0000
1000
0010
0000
0100
0000
,  // measure 30
1001
0000
0000
0000
0100
0010
1000
0000
0100
0010
0000
0010
0001
0000
0001
0000
,  // measure 31
0101
0000
0000
0000
0001
0000
1000
0010
0100
0000
0010
0000
0100
0010
0100
0010
,  // measure 32
0100
0000
0000
0000
0001
0100
1000
0100
0000
0010
0000
0010
1000
0000
1000
0000
,  // measure 33
1100
0000
0000
0000
1000
0100
0001
0100
0000
0010
0000
0010
0002
0000
0000
0000
,  // measure 34
0103
0000
0000
0000
0001
0010
1000
0010
0000
0100
0000
0100
1000
0000
0001
0000
,  // measure 35
0201
0000
0000
1000
0000
0000
0301
0000
0100
0000
0010
0000
0220
0000
0330
0000
,  // measure 36
1010
0000
0000
0000
1000
0100
0001
0100
0000
0010
0000
0010
0001
0000
0001
0000
,  // measure 37
0101
0000
0000
0000
0001
0100
1000
0100
0000
0010
0000
0010
1000
0000
0100
0000
,  // measure 38
1100
0000
0000
0000
1000
0010
0001
0010
0000
0100
0000
0100
0001
0000
1000
0000
,  // measure 39
1001
0000
0000
0000
0001
0000
0100
0010
1000
0000
0010
0000
0100
0000
0000
0000
,  // measure 40
0101
0000
2000
0000
3200
0302
0003
0200
,  // measure 41
0000
0000
0310
0000
0000
0000
0002
0000
0000
0000
1003
0000
0000
0000
1000
0001
,  // measure 42
0100
0000
0010
0000
0100
0000
0002
0000
0000
0000
0000
0000
1003
0000
0000
0100
0000
0000
2000
0000
0000
0000
0000
0000
,  // measure 43
3020
0000
0130
0010
0000
0010
1000
0001
,  // measure 44
0011
0000
0002
0023
2030
3020
0230
0320
,  // measure 45
0031
0000
0000
1000
0000
0000
0000
0000
0000
2000
0000
0000
0000
0000
0000
3000
0000
0000
0001
0000
0100
0000
0010
0000
,  // measure 46
1000
0000
0100
0000
1000
0000
0010
0000
1000
0100
0010
0000
0001
0100
0010
0000
,  // measure 47
0110
0000
0000
0000
,  // measure 48
1001
0000
0000
0000
1000
0000
0001
0100
0000
0000
0010
0000
0000
0100
0001
0000
,  // measure 49
1000
0000
0000
0000
0001
0000
0000
1000
0010
0000
0000
0000
0000
0000
0100
0000
,  // measure 50
0001
0000
0000
0000
1000
0000
0000
0100
0000
0000
1000
0000
0000
0001
1000
0000
,  // measure 51
0010
0000
0000
0000
0100
0000
0001
0100
0001
0010
0100
0000
0010
0000
0000
0000
,  // measure 52
0100
0000
0000
0000
0100
0000
1000
0010
0000
0000
0100
0000
0000
0010
0100
0000
,  // measure 53
0001
0000
0000
0000
1000
0000
0001
0010
0100
0000
0000
0000
0000
0000
1000
0000
,  // measure 54
0001
0000
0000
0000
0100
0000
0000
0010
0000
0000
0100
0000
0000
0001
1000
0000
,  // measure 55
0100
0000
0000
0000
0010
0000
0100
1000
0100
0010
0001
0000
1000
0000
0000
0000
;

//---------------dance-single - ----------------
#NOTEDATA:;
#CHARTNAME:;
#STEPSTYPE:dance-single;
#DESCRIPTION:;
#CHARTSTYLE:;
#DIFFICULTY:Easy;
#METER:3;
#RADARVALUES:0.207196,0.272556,0.057037,0.073333,0.000000,178.000000,171.000000,7.000000,9.000000,0.000000,0.000000,0.000000,0.000000,0.000000,0.207196,0.272556,0.057037,0.073333,0.000000,178.000000,171.000000,7.000000,9.000000,0.000000,0.000000,0.000000,0.000000,0.000000;
#CREDIT:;
#NOTES:
0000
0000
0000
0000
,
0000
0000
0000
0000
,
0000
0000
0000
0000
,
0000
0000
0000
0000
,
0001
0100
0001
0100
,
0010
1000
0010
1000
,
0100
1000
0100
1000
,
1001
0000
0000
0000
,
0002
0003
0000
0001
,
2000
3000
0000
1000
,
0020
0030
0000
0010
,
0200
0300
0000
0100
,
0010
0010
0100
0100
,
0001
0001
1000
1000
,
0010
0100
0001
1000
,
2002
0000
0000
3003
,
1001
0000
0000
0000
,
0000
0000
0000
0000
,
0000
0000
0000
0000
,
0000
0000
0000
0000
,
1000
1000
0001
0001
,
0100
0100
0010
0010
,
1000
0100
0010
0001
,
1001
0000
0000
0000
,
0101
0000
0100
0000
0100
0000
0010
1000
,
0010
0000
0100
0000
0001
0000
1000
0001
,
1000
0000
0100
0000
1000
0000
0001
0010
,
0001
0001
1000
1000
,
0100
0000
1000
0000
0010
0000
0100
0001
,
0100
0000
0001
0000
1000
0000
0100
0010
,
0100
0000
1000
0000
0001
0000
0100
0010
,
0100
0000
0000
0000
,
1001
0000
1000
0000
0100
0000
1000
0001
,
0100
0010
0100
0001
,
1000
0000
0100
0000
1000
0000
0001
1000
,
0010
0010
0100
0100
,
0001
0000
1000
0000
0100
0000
1000
0001
,
0010
0000
0001
0000
1000
0000
0010
1000
,
0001
0000
0100
0000
0010
0000
1000
0001
,
1000
0000
0000
0000
,
0001
0000
0002
0000
0003
0000
0000
2000
,
0000
3000
0000
0002
0000
0003
0000
0000
,
1000
0100
1000
0010
,
1000
0000
0001
0000
0000
1000
0001
1000
,
0000
0010
0100
0001
,
0000
1000
0000
0001
0000
0000
0100
0000
,
0001
0001
1000
1000
,
1001
0000
0000
0000
,
0010
0000
0010
0000
0000
0100
0000
0000
,
0010
0000
1000
0000
0001
0000
0000
1000
,
0001
0000
1000
0000
0000
0010
0000
0000
,
0100
0001
1000
0001
,
0010
0000
0001
0000
0000
1000
0000
0100
,
0010
0001
1000
0000
,
0100
0000
0100
0000
0000
1000
0000
0001
,
1000
0000
0010
0000
0100
0010
0100
0000
;

//---------------dance-single - ----------------
#NOTEDATA:;
#CHARTNAME:;
#STEPSTYPE:dance-single;
#DESCRIPTION:;
#CHARTSTYLE:;
#DIFFICULTY:Medium;
#METER:6;
#RADARVALUES:0.373652,0.408834,0.073333,0.032593,0.073333,321.000000,312.000000,9.000000,4.000000,0.000000,0.000000,0.000000,0.000000,0.000000,0.373652,0.408834,0.073333,0.032593,0.073333,321.000000,312.000000,9.000000,4.000000,0.000000,0.000000,0.000000,0.000000,0.000000;
#CREDIT:;
#NOTES:
0000
0000
0000
0000
,
0000
0000
0000
0000
,
0000
0000
0000
0000
,
0000
0000
0000
0000
,
1001
0000
0000
0000
1000
0000
0100
0000
0000
0000
0010
0000
0000
0100
0000
0000
,
0010
0000
0001
1000
0010
0000
1000
0100
,
1000
0000
0000
0000
1000
0000
0010
0000
0000
0100
0000
0000
0010
0000
0100
0000
,
0010
0000
0010
0100
0100
0001
1000
0000
,
0001
0100
0001
0001
0000
1000
0100
0100
,
1000
0100
0010
0010
0000
0010
0001
0001
,
0100
0001
1000
1000
0000
1000
0010
0010
,
0100
0001
1000
1000
0000
1000
0100
0100
,
1000
0100
1000
0100
0010
0001
0010
0001
,
1000
0010
1000
0010
0100
0001
0100
0001
,
1000
0100
0010
0001
0100
0010
1000
0002
,
2000
0000
0000
3003
,
1001
0000
0000
0001
0000
0000
1000
0000
0000
0000
0000
0100
0000
0000
0100
0000
,
1000
0000
0000
0010
0000
0000
0100
0000
0000
0000
0000
0010
0000
0000
0010
0000
,
0100
0000
0000
0001
0000
0000
1000
0000
0000
0000
0000
1000
0000
0000
0001
0000
,
0010
0000
0000
0100
0000
0000
1000
0000
0000
0000
0000
0001
0000
0000
0001
0000
,
1000
0100
0010
0100
1000
0001
0100
0010
,
0100
0001
0010
0100
1000
0010
0100
0010
,
1000
0100
0001
0100
1000
0010
0001
0010
,
0110
0000
0000
0000
,
1010
0000
1000
0100
1000
0010
0100
0100
,
0010
0000
0100
0001
1000
0100
1000
0010
,
0100
0000
0100
0001
0010
0100
1000
1000
,
0001
0000
0000
1000
0000
0000
0001
0000
1000
0000
0010
0000
2000
0000
0000
0000
,
3001
0000
0001
0100
0001
0010
0100
0100
,
0010
0000
0100
1000
0001
0100
0001
0010
,
0100
0000
0100
1000
0010
0100
0001
0001
,
1000
0000
0001
0100
0010
0100
0001
0000
,
0101
0000
0001
0100
0010
0001
0010
0100
,
0010
0000
0010
1000
0100
0001
0200
0000
,
1300
0000
0100
1000
0001
0100
1000
0100
,
0010
0000
0000
0100
0000
0000
0010
0000
0100
0000
0001
0000
1000
0000
0000
0000
,
1100
0000
1000
0100
0010
1000
0010
0100
,
0010
0000
0010
0001
0100
1000
0100
0001
,
0100
0000
0100
0001
1000
0100
0001
0100
,
0010
0000
0100
0010
0100
1000
0001
0000
,
0101
0000
0001
0000
0001
0100
0000
0010
,
0000
0100
0000
0010
0000
1000
0000
1000
,
0100
1000
0010
0000
0100
0001
0010
0000
,
0100
0000
1000
0100
0000
1000
0010
0100
,
0010
0000
0010
0100
1000
0100
0001
1000
,
0100
0010
0000
0100
0000
0000
0100
1000
,
0001
0100
0010
0100
0001
0010
0100
1000
,
1001
0000
0000
0000
,
0110
0000
0000
0000
1000
0000
0100
0000
0000
0000
0100
0000
0000
0010
0000
0000
,
0001
0000
1000
0010
0001
0000
0000
0010
,
0100
0000
0000
0000
0010
0000
0000
1000
0000
0000
0010
0000
0000
0100
0000
0000
,
0001
0000
0001
0010
1000
0010
0001
0000
,
0010
0000
0000
0000
0001
0000
1000
0000
0000
0000
0010
0000
0000
0100
0000
0000
,
0001
0000
0001
0100
1000
0000
0000
0100
,
0010
0000
0000
0000
0100
0000
0000
0010
0000
0000
1000
0000
0000
0001
0000
0000
,
0010
0000
0010
0100
1000
0001
1000
0000
;
