#TITLE:DOWNER & UPPER;
#SUBTITLE:;
#ARTIST:DJ TOTTO;
#TITLETRANSLIT:;
#SUBTITLETRANSLIT:;
#ARTISTTRANSLIT:;
#GENRE:;
#CREDIT:;
#MUSIC:DOWNER & UPPER.ogg;
#BANNER:DOWNER & UPPER.png;
#BACKGROUND:DOWNER & UPPER-bg.png;
#CDTITLE:;
#SAMPLESTART:59.886;
#SAMPLELENGTH:13.714;
#SELECTABLE:YES;
#OFFSET:0.001;
#BPMS:0.000=140.000;
#STOPS:;
#BGCHANGES:;
#FGCHANGES:;

//--------------- dance-single - Talkion ----------------
#NOTES:
     dance-single:
     Talkion:
     Medium:
     7:
     0,0,0,0,0:
0000
0000
0000
0000
,
1000
0010
1000
0000
0010
0100
0001
0000
,
0001
0100
0010
1000
0200
0000
0320
0000
,
0031
0000
0100
0000
0010
0000
0000
0000
1000
0010
1000
0000
0001
0000
0000
0000
,
0021
0000
0000
0230
0000
0000
2300
0000
0000
3002
0000
0000
1003
0000
0000
0000
,
0001
0100
0001
0000
0100
0010
1000
0000
,
1000
0010
0100
0001
0020
0000
0230
0000
,
1300
0010
0001
0000
0001
0010
1000
0000
,
1000
0100
0010
0001
1000
1000
0001
0001
,
0100
0010
1000
0000
0100
0010
0100
0000
,
1000
0001
0100
0010
0200
0000
0302
0000
,
1003
0000
0100
0000
0010
0000
0000
0000
0001
1000
0001
0000
0100
0000
0000
0000
,
0201
0000
0000
0320
0000
0000
2030
0000
0000
3002
0000
0000
1003
0000
0000
0000
,
0010
0100
0001
0000
0010
0100
0010
0000
,
0001
1000
0010
0100
0020
0000
2030
0000
,
3001
0010
1000
0000
1000
0010
0001
0000
,
0001
0100
0010
1000
0100
0100
0010
0010
,
0001
0000
1000
0000
0010
0100
0010
0000
,
1000
0000
0100
0000
0010
0001
1000
0000
,
0010
0000
0100
0000
0001
0010
0100
0000
,
0010
0000
0001
0000
0100
0010
1000
0000
,
0001
0000
0001
0000
0010
0100
0100
0000
,
1000
0000
1000
0000
0010
0100
0100
0000
,
0001
0000
0001
0000
0010
1000
0010
0000
,
0100
1000
0110
1001
,
0001
0000
0100
0010
1010
1000
0001
0000
,
1000
0000
0001
0010
0110
0100
1000
0000
,
0010
0000
0100
0001
0101
0100
0010
0000
,
1000
0000
0100
0010
0110
0100
1000
0000
,
0001
0101
1000
1100
,
0001
0011
1000
1010
,
0001
0010
0001
0010
0100
1000
0100
1000
,
0001
0001
0100
0100
0010
1000
1001
0000
,
1000
0010
0100
0001
0010
0100
0010
0000
,
0010
1000
0010
0001
1000
0000
1001
0000
,
0001
0100
0010
1000
0010
0100
0001
0000
,
0021
0000
0000
0230
0000
0000
2300
0000
0000
3020
0000
0000
0130
0000
0000
0000
,
0001
0100
0010
1000
0100
0010
0100
0000
,
0100
0001
0100
1000
0001
0000
1001
0000
,
1000
1000
0001
0001
,
0100
0100
0010
0010
1000
0100
0020
0030
,
0100
1000
0001
0100
1000
0100
0010
0000
,
0010
0001
0010
0100
0001
0000
0011
0000
,
0010
0100
1000
0100
0010
0001
1000
0000
,
1200
0000
0000
0320
0000
0000
0032
0000
0000
0203
0000
0000
0310
0000
0000
0000
,
0100
0001
1000
0100
0001
0100
0010
0000
,
0010
1000
0010
0100
1000
0000
1010
0000
,
0010
0100
0010
0100
0001
1000
0001
1000
,
0100
0100
0010
0010
0001
0001
1000
1000
,
0010
0000
0000
0000
;

//--------------- dance-single - Talkion ----------------
#NOTES:
     dance-single:
     Talkion:
     Hard:
     9:
     0,0,0,0,0:
0000
0000
0000
0000
,
1000
0000
0000
0100
0000
0000
1000
0000
0010
0100
0000
0010
0100
0000
0000
0001
0000
0000
0011
0000
0000
0000
0000
0000
,
0010
0000
0000
0100
0000
0000
1000
0000
0001
0100
0000
0001
0200
0000
0000
0000
0000
0000
0320
0000
0000
0000
0000
0000
,
0130
0000
0000
0000
0000
0000
0001
0000
0000
0000
0000
0000
1000
0000
0000
0000
0100
0000
1000
0000
0000
0000
0000
0000
0001
0000
0000
0100
0000
0000
0001
0000
0000
0100
0000
0000
0001
0000
0000
0000
0000
0000
0010
0000
0000
0000
0000
0000
,
2100
0000
0000
3020
0000
0000
0032
0000
0000
0203
0000
0000
1300
0000
0000
0000
,
0001
0000
0000
0010
0000
0000
0001
0000
0100
0010
0000
0100
0010
0000
0000
1000
0000
0000
1100
0000
0000
0000
0000
0000
,
0100
0000
0000
0010
0000
0000
0001
0000
1000
0010
0000
1000
0020
0000
0000
0000
0000
0000
0230
0000
0000
0000
0000
0000
,
0310
0000
0000
1000
0000
0000
0100
0000
0010
0000
0000
0010
0000
0000
0100
0000
0000
0100
0000
0000
1000
0001
0000
0000
,
0100
0000
0010
0100
0000
0000
0010
0000
1000
0001
0000
0000
0010
0000
0100
1000
0000
0100
1000
0000
0001
0100
0000
0001
,
0100
0000
0000
0010
0000
0000
1000
0000
0100
0010
0000
0100
1000
0000
0000
0001
0000
0000
0101
0000
0000
0000
0000
0000
,
0100
0000
0000
0010
0000
0000
1000
0000
0100
0010
0000
0100
0020
0000
0000
0000
0000
0000
0032
0000
0000
0000
0000
0000
,
0103
0000
0000
0000
0000
0000
0010
0000
0000
0000
0000
0000
1000
0000
0000
0000
0010
0000
1000
0000
0000
0000
0000
0000
0001
0000
0000
0010
0000
0000
0001
0000
0000
0010
0000
0000
0001
0000
0000
0000
0000
0000
0100
0000
0000
0000
0000
0000
,
2010
0000
0000
3200
0000
0000
0302
0000
0000
0023
0000
0000
1030
0000
0000
0000
,
0010
0000
0000
0100
0000
0000
0001
0000
0010
0100
0000
0010
0001
0000
0000
1000
0000
0000
1010
0000
0000
0000
0000
0000
,
0010
0000
0000
0100
0000
0000
0001
0000
0010
0100
0000
0010
0200
0000
0000
0000
0000
0000
2300
0000
0000
0000
0000
0000
,
3010
0000
0000
0100
0000
0000
0001
0000
0010
0000
0000
0010
0000
0000
0100
0000
0000
0100
0000
0000
1000
0001
0000
0000
,
0100
0000
0010
1000
0000
0000
0100
0000
0010
0001
0000
0000
1000
0000
0010
0100
0000
0001
1000
0000
0100
0010
0000
0001
,
1000
0001
0100
0010
0100
0001
2000
3000
,
0100
0020
0001
0031
0200
0010
0320
0030
,
2000
0100
3001
0001
0100
0010
0020
0030
,
0010
0200
0001
0301
0020
0100
0230
0300
,
1000
0001
0010
0100
0010
0001
2000
3000
,
0010
0200
0001
0301
2000
0100
3100
0000
,
0020
1000
1030
0010
0001
0100
0020
0030
,
0100
0001
1000
0100
0110
0010
1001
0000
,
0001
0000
0000
0100
0000
0000
0010
0000
0000
1000
0000
0100
1000
0000
0000
0010
0000
0000
0200
0000
0300
0000
0000
0000
,
0100
0000
0000
0010
0000
0000
1000
0000
0000
0100
0000
0010
0100
0000
0000
0010
0000
0000
0002
0000
0000
0003
0000
0000
,
0001
0000
0000
0010
0000
0000
0100
0000
0000
1000
0000
0010
1000
0000
0000
0100
0000
0000
0020
0000
0000
0030
0000
0000
,
0010
0000
0000
0001
0000
0000
1000
0000
0000
0010
0000
0100
0001
0000
0000
1000
0000
0000
0200
0000
0000
0300
0000
0000
,
0110
0010
0101
0000
0110
0010
1100
0000
,
0101
0010
1010
0000
1100
0010
0011
0000
,
1000
0000
0010
1000
0000
0000
0100
0000
0000
0010
0000
0000
0001
0000
0100
0001
0000
0000
0010
0000
0000
0100
0000
0000
,
1000
0000
0001
0100
0000
0001
0100
0000
0010
1000
0000
0010
1000
0000
0001
0010
0000
0000
0110
0000
0000
0000
0000
0000
,
1000
0000
1000
0010
0000
0000
0110
0000
0000
0001
0000
0000
0010
0000
0000
0100
0000
0100
0010
0000
0000
0001
0000
0000
,
1020
0000
0000
0130
0000
0000
0001
0000
1000
0100
0000
0001
0100
0000
0000
0010
0000
0000
0110
0000
0000
0000
0000
0000
,
0001
0000
0001
0010
0000
0000
0110
0000
0000
1000
0000
0000
0010
0000
0000
0100
0000
0001
0000
0000
0001
1000
0000
0000
,
1200
0000
0000
0302
0000
0000
2003
0000
0000
3200
0000
0000
0301
0000
0000
0000
,
0001
0000
0001
0100
0000
0000
0110
0000
0000
1000
0000
0000
0100
0000
0000
0010
0000
0010
0100
0000
0000
1000
0000
0000
,
0201
0000
0000
0310
0000
0000
1000
0000
0001
0010
0000
1000
0010
0000
0000
0100
0000
0000
0110
0000
0000
0000
0000
0000
,
0010
0001
1000
0000
0010
1000
0001
0000
,
0010
0000
0100
1000
0000
0100
1000
0000
0010
0100
0000
0010
0100
0000
0001
0010
0000
0001
0020
0000
0000
0030
0000
0000
,
0100
0000
0100
1000
0000
0000
1001
0000
0000
0001
0000
0000
0100
0000
0000
1000
0000
1000
0100
0000
0000
0010
0000
0000
,
1200
0000
0000
0310
0000
0000
0001
0000
1000
0010
0000
0100
1000
0000
0000
0100
0000
0000
0110
0000
0000
0000
0000
0000
,
0100
0000
0100
0001
0000
0000
1001
0000
0000
1000
0000
0000
0100
0000
0000
0010
0000
0001
0000
0000
0001
1000
0000
0000
,
1020
0000
0000
0032
0000
0000
2003
0000
0000
3020
0000
0000
0031
0000
0000
0000
,
0010
0000
0010
0001
0000
0000
1001
0000
0000
1000
0000
0000
0010
0000
0000
0001
0000
0001
0010
0000
0000
0100
0000
0000
,
0021
0000
0000
0130
0000
0000
1000
0000
0001
0100
0000
0010
0001
0000
0000
0010
0000
0000
0110
0000
0000
0000
0000
0000
,
0001
0000
0010
0001
0000
0000
1000
0000
0000
1000
0000
0000
0010
0000
0100
0010
0000
0000
0100
0000
0000
0100
0000
0000
,
0001
0000
0010
0100
0000
1000
0010
0000
0100
0001
0000
1000
0100
0000
0010
0001
0000
0100
0010
0000
1000
0001
0000
0100
,
0010
0000
0000
0000
;
