#TITLE:DEEP DOWN IN THE CITY;
#SUBTITLE:;
#ARTIST:MEMBERS OF MANGA;
#TITLETRANSLIT:;
#SUBTITLETRANSLIT:;
#ARTISTTRANSLIT:;
#GENRE:;
#CREDIT:;
#BANNER:;
#BACKGROUND:;
#LYRICSPATH:deepdowninthecity.lrc;
#CDTITLE:;
#MUSIC:deepdowninthecity.ogg;
#OFFSET:-0.983000;
#SAMPLESTART:12.351000;
#SAMPLELENGTH:11.980000;
#SELECTABLE:YES;
#BPMS:0.000000=168.899994
;
#STOPS:
;
#BGCHANGES:;
#KEYSOUNDS:;
#ATTACKS:;

//---------------dance-single - ----------------
#NOTES:
     dance-single:
     :
     Hard:
     8:
     0.604511,0.581842,0.309000,0.111583,0.055792,493.000000,457.000000,36.000000,13.000000,0.000000,0.000000,0.604511,0.581842,0.309000,0.111583,0.055792,493.000000,457.000000,36.000000,13.000000,0.000000,0.000000:
0000
0000
0000
0000
,
0000
0000
0000
0000
,
0000
0000
0000
0000
,
0000
0000
0000
0000
,
1000
0000
0000
1000
0001
0000
0010
0000
0001
0000
0010
0000
0100
0000
1000
0000
,
0001
0000
0000
0001
1000
0000
0010
0000
1000
0000
0001
0000
1000
0000
0100
0000
,
0010
0000
0000
0010
0001
0000
0010
0000
0001
0000
1000
0000
0001
0000
0100
0000
,
0020
1000
1000
1030
,
0001
0010
0000
0001
1000
0000
0011
0000
,
1000
0010
0000
1000
0001
0000
0100
0001
,
0010
0001
1000
0100
0010
0100
1000
0001
,
0010
0011
0000
1001
0000
0011
0000
0000
,
1000
0010
1000
0010
0100
0000
0110
0000
,
0001
0010
0001
0010
0100
0000
0110
0000
,
1000
0100
0010
0100
1000
0000
0001
0100
,
0010
1000
0010
1000
0001
0000
0010
0010
,
0001
1000
0000
0001
0100
0000
0001
1000
,
0010
1000
0000
0001
1000
0000
1010
0000
,
0001
0010
0000
0001
0100
0000
0001
1000
,
0010
1000
0000
1010
0000
1001
0000
0000
,
0001
1000
0010
1000
0100
1000
0001
0010
,
0100
1000
0000
0001
1000
0000
0001
0001
,
0010
0001
1000
0001
0010
0000
0001
1000
,
0010
1000
0000
1010
0000
1001
0000
0000
,
0020
0001
0000
0031
0010
0000
1001
0000
,
0200
1000
0000
1300
0100
0000
0010
0001
,
0010
0100
0010
0100
0000
0011
0000
1001
,
0000
1010
0000
0101
0000
1001
0000
0000
,
1000
0100
0000
1000
0100
0000
0011
0000
,
0001
0100
0000
0001
0100
0000
0010
1000
,
0100
0010
0001
1000
0000
1010
0000
1100
,
0000
0011
0000
0101
0000
0000
0000
0000
,
0002
1000
0000
1003
0010
0000
1001
0000
,
0020
0001
0000
0031
1000
0000
0001
0100
,
0010
1000
0001
1000
0010
0100
0001
0100
,
0010
0100
0000
0001
1000
0000
0001
0100
,
0001
0100
0000
0001
1001
0000
1000
0100
,
1000
0100
0000
0010
0011
0000
0001
1000
,
0100
0010
0001
0000
1001
0000
1010
0000
,
0001
2000
0000
0010
0000
3010
0000
0000
,
1000
0100
0010
0001
0010
1000
0010
0001
,
0010
0100
1000
0010
1000
0100
1000
0000
,
0001
0100
0010
1000
0010
0100
0001
0100
,
1000
0100
0001
0010
0100
1000
0100
0000
,
0010
0001
0100
0001
0010
0100
1000
0100
,
0001
0100
1000
0100
0010
0100
1000
0000
,
0010
1000
0100
1000
0010
0100
0001
0100
,
1000
0100
0001
0010
0001
0100
0001
0000
,
2000
0000
0100
0100
,
3002
0000
0000
0000
0013
0000
0001
1000
,
0001
1000
0020
0000
1000
0000
1000
0000
,
0230
0000
0000
0001
0000
0301
0000
0000
,
0010
0001
0000
0010
0001
0000
1001
0000
,
1000
0010
0000
1000
0010
0000
0000
0000
,
0100
0001
0000
0100
0001
0000
1000
0100
,
0010
0001
0000
1000
0001
0000
0100
0100
,
0001
1000
0001
1000
0001
0010
0100
1000
,
0010
1000
0000
0001
1000
0000
0000
0000
,
0010
1000
0010
1000
0100
0001
0010
0001
,
1000
0001
0000
1010
0000
1001
0000
0000
,
0100
0001
0100
0001
1000
0100
0010
0001
,
0010
0001
0000
1000
0001
0000
1000
0010
,
0001
0010
1000
0001
0010
0001
1000
0100
,
0010
0001
0000
1001
0000
1010
0000
0000
,
0001
0000
0000
0001
0010
0000
0001
0000
1000
0000
0001
0000
0010
0000
0001
0000
,
1000
0000
0000
1000
0010
0000
1000
0000
0100
0000
1000
0000
0010
0000
1000
0000
,
0010
0000
0000
0010
0100
0000
0001
0000
0010
0000
0001
0000
1000
0000
0001
0000
,
0010
0000
0000
0010
0100
0000
1000
0000
0010
0000
1000
0000
0010
0000
0100
0000
,
0010
0000
0000
1000
0001
0000
1000
0000
0001
0000
0010
0000
0001
0000
1000
0000
,
0001
0000
0000
0100
0010
0000
1000
0000
0010
0000
0100
0000
0001
0000
0100
0000
,
0010
0000
0000
1000
0001
0000
0010
0000
0001
0000
1000
0000
0100
0000
0010
0000
,
0001
0000
0000
1000
0010
0000
1000
0000
0010
0000
0100
0000
0001
0000
0100
0000
,
0020
0000
1000
1030
,
0001
0010
0000
0001
0010
0000
0001
1000
,
0010
0100
0001
0100
0000
0000
0001
1000
,
0100
0010
0000
1000
0001
0000
1000
0010
,
2000
0000
0010
0010
,
3020
0000
0000
0000
0130
0000
0001
1000
,
0001
0000
1000
0000
0010
0000
0000
1000
0010
0000
0000
1000
0010
0000
0000
0000
,
1010
1001
0110
1001
;

//---------------dance-single - ----------------
#NOTES:
     dance-single:
     :
     Medium:
     6:
     0.429166,0.477662,0.248916,0.051500,0.000000,350.000000,321.000000,29.000000,6.000000,0.000000,0.000000,0.429166,0.477662,0.248916,0.051500,0.000000,350.000000,321.000000,29.000000,6.000000,0.000000,0.000000:
0000
0000
0000
0000
,
0000
0000
0000
0000
,
0000
0000
0000
0000
,
0000
0000
0000
0000
,
1000
0000
0010
0000
0000
1000
0000
1000
,
0001
0000
0010
0000
0000
0001
0000
0001
,
1000
0100
1000
0010
,
0100
0010
0100
0001
,
1000
0010
0000
1000
0010
0000
0100
0000
,
0001
0010
0000
0001
0010
0000
0001
0000
,
1000
0010
0100
0000
0010
0000
0100
0000
,
0001
0011
1000
1010
,
0010
1000
0000
0010
1000
0000
0001
0000
,
0010
0001
0000
0010
0001
0000
1000
0000
,
1000
0100
0000
1000
0100
0000
0010
0000
,
0001
0100
0000
0001
0100
0000
0001
0000
,
1000
1000
0010
1000
,
0001
0100
0000
0001
0100
0000
0000
0000
,
0001
0001
0010
0001
,
1000
0100
0000
1000
0000
0100
0000
0000
,
0010
0010
0001
1000
,
0010
1000
0000
0010
1000
0000
0001
0100
,
0010
0010
1000
0001
,
0010
0001
0000
1000
0000
0001
0000
0000
,
1010
1010
0001
1000
,
0011
0000
0011
0000
1000
0000
0001
0010
,
0100
0000
1000
0001
0000
1000
0000
0010
,
0000
0100
0000
0001
0000
0100
0000
0000
,
0101
0011
1000
1000
,
1100
1010
0001
0010
,
0001
0000
1000
0010
0000
1000
0000
0100
,
0000
1000
0000
0010
0000
0000
0000
0000
,
1001
1001
0010
0001
,
1001
1001
0010
1000
,
0100
0010
0001
0010
,
0001
1000
0000
0001
1000
0000
1000
0000
,
0010
0010
1000
0001
,
1000
0000
0010
1000
0100
0000
0010
0000
,
0001
0001
1001
1001
,
2000
0010
0010
3010
,
1000
0000
0001
0000
1000
0000
0010
0010
,
0100
0001
0100
0000
,
0010
0000
1000
0000
0010
0000
1000
1000
,
0001
0010
0001
0000
,
1000
0000
0100
0000
0010
0000
0001
1000
,
0010
0100
0001
0000
,
0001
0000
0010
0000
0100
0000
1000
0001
,
0100
0010
0100
0000
,
0020
0000
1000
1000
,
2030
0000
3100
0010
,
0001
0010
0001
1000
,
2000
0000
3100
0000
,
1000
0010
1000
0010
,
0200
0001
0301
0000
,
0010
0001
0010
0001
,
1000
0100
0010
0100
,
1000
0001
0010
0010
,
0100
1000
0000
0100
1000
0000
0000
0000
,
0010
0010
1000
0001
,
0010
0001
0000
0010
0000
0001
0000
0000
,
1000
1000
0001
1000
,
0001
0100
0000
0001
0100
0000
0001
0000
,
0010
0001
1000
0100
,
0010
0001
0000
1000
0000
0001
0000
0000
,
0010
0000
0010
0000
0001
0100
0001
0100
,
0010
0000
0010
0000
1000
0010
1000
0010
,
1000
0000
0001
1000
0000
0001
0000
0011
,
0000
1000
0000
1010
0000
1001
0000
0000
,
0010
0000
1000
0000
0010
0100
0010
0100
,
0010
0000
0100
0000
0001
1000
0001
1000
,
0001
0000
1000
0010
0000
0100
0000
0101
,
0000
1000
0000
1100
0000
0000
0000
0000
,
0001
0000
0001
0000
0010
0001
1000
0001
,
1000
0000
1000
0000
0010
1000
0010
1000
,
0100
0010
0001
1000
,
1001
1001
1010
1010
,
0002
0010
0013
0100
,
1000
0100
0010
0001
,
1000
0001
1000
0110
,
0110
1001
1001
0000
;

//---------------dance-single - ----------------
#NOTES:
     dance-single:
     :
     Easy:
     4:
     0.343333,0.444938,0.154500,0.094417,0.000000,280.000000,262.000000,18.000000,11.000000,0.000000,0.000000,0.343333,0.444938,0.154500,0.094417,0.000000,280.000000,262.000000,18.000000,11.000000,0.000000,0.000000:
// measure 0
0000
0000
0000
0000
,  // measure 1
0000
0000
0000
0000
,  // measure 2
0000
0000
0000
0000
,  // measure 3
0000
0000
0000
0000
,  // measure 4
1000
1000
0000
0001
,  // measure 5
0010
0001
0000
1000
,  // measure 6
0001
1000
0010
0100
,  // measure 7
0010
0010
0010
0010
,  // measure 8
0020
0000
1000
1030
,  // measure 9
0001
0100
0001
0000
,  // measure 10
0010
0001
1000
0001
,  // measure 11
1000
0010
0100
0001
,  // measure 12
0200
0000
0010
0310
,  // measure 13
1000
0001
1000
0000
,  // measure 14
0020
0000
0100
0130
,  // measure 15
0001
0010
0100
1000
,  // measure 16
0010
1000
0010
1000
,  // measure 17
0001
1000
0100
0000
,  // measure 18
0010
0001
0010
0001
,  // measure 19
1000
0001
0100
0000
,  // measure 20
0010
1000
0001
0100
,  // measure 21
0010
0100
0010
1000
,  // measure 22
0010
0001
0010
1000
,  // measure 23
0100
0010
0001
0000
,  // measure 24
0011
0011
0001
0001
,  // measure 25
1010
1010
1000
1000
,  // measure 26
0001
1000
0001
0100
,  // measure 27
0010
0100
0001
1000
,  // measure 28
1001
1001
1000
1000
,  // measure 29
1100
1100
0100
0010
,  // measure 30
0001
0010
0100
1000
,  // measure 31
0001
1000
0010
0000
,  // measure 32
1010
1010
0010
0100
,  // measure 33
0101
0101
0001
1000
,  // measure 34
0100
0010
0001
0100
,  // measure 35
0010
1000
0001
0000
,  // measure 36
0020
0000
0001
0031
,  // measure 37
1000
0010
1000
0100
,  // measure 38
0010
0001
1000
0001
,  // measure 39
1001
0000
0110
0000
,  // measure 40
1000
1000
0010
1000
,  // measure 41
0200
0010
0310
0000
,  // measure 42
0001
0001
0100
0001
,  // measure 43
2000
0010
3010
0000
,  // measure 44
0001
0010
0001
1000
,  // measure 45
0020
0100
0130
0000
,  // measure 46
0001
1000
0001
1000
,  // measure 47
0010
0010
0010
0010
,  // measure 48
0200
0000
0000
0300
,  // measure 49
0100
0000
0001
0000
,  // measure 50
1000
0010
1000
0100
,  // measure 51
0010
0000
0100
0000
,  // measure 52
1000
0001
1000
0001
,  // measure 53
0010
0000
0001
0000
,  // measure 54
2000
0000
3000
1000
,  // measure 55
0010
1000
0100
0000
,  // measure 56
0020
0000
0001
0031
,  // measure 57
1000
0010
0100
0000
,  // measure 58
0020
0000
1000
1030
,  // measure 59
0001
0010
0001
0000
,  // measure 60
1000
0100
0010
0001
,  // measure 61
1000
0010
1000
0000
,  // measure 62
0001
0100
0010
0100
,  // measure 63
0010
1000
0001
0000
,  // measure 64
1000
0010
1000
0010
,  // measure 65
0100
0001
0010
0001
,  // measure 66
1000
0100
0010
0001
,  // measure 67
1000
0001
1001
0000
,  // measure 68
1000
0100
1000
0100
,  // measure 69
0010
0001
0100
0010
,  // measure 70
1000
0010
0100
0001
,  // measure 71
0100
1000
0100
0000
,  // measure 72
0001
0001
0001
0011
,  // measure 73
1000
0001
1000
0000
,  // measure 74
0010
1000
0010
0100
,  // measure 75
0001
0010
0001
1000
,  // measure 76
1001
0000
0010
0010
,  // measure 77
1000
0000
0001
0000
,  // measure 78
1000
0100
0010
0001
,  // measure 79
0010
0100
0010
1001
;
