#TITLE:Broken Down;
#SUBTITLE:;
#ARTIST:lapix;
#TITLETRANSLIT:;
#SUBTITLETRANSLIT:;
#ARTISTTRANSLIT:;
#GENRE:Hybrid Trap;
#CREDIT:;
#BANNER:[Directions] - Broken Down.png;
#BACKGROUND:[Directions] - Broken Down-bg.png;
#LYRICSPATH:;
#CDTITLE:cdtitle.png;
#MUSIC:[Directions] - Broken Down.ogg;
#OFFSET:-0.044000;
#SAMPLESTART:28.486002;
#SAMPLELENGTH:14.222221;
#SELECTABLE:YES;
#BPMS:0.000000=135.000000
,125.000000=67.500000
,133.000000=135.000000
;
#STOPS:60.000000=1.333000,
145.000000=0.889000
;
#BGCHANGES:;
#KEYSOUNDS:;
#ATTACKS:;

//---------------dance-single - ----------------
#NOTES:
     dance-single:
     10-15:
     Challenge:
     10:
     0.736867,0.871285,0.359687,0.397952,0.960442,674.000000,627.000000,47.000000,52.000000,22.000000,0.000000,0.736867,0.871285,0.359687,0.397952,0.960442,674.000000,627.000000,47.000000,52.000000,22.000000,0.000000:
// measure 0
0000
0000
0000
0000
,  // measure 1
0000
0000
0000
0000
,  // measure 2
0000
0000
0000
0000
,  // measure 3
0000
0000
0000
0000
,  // measure 4
1000
0000
0000
0100
0000
0000
1000
0000
0000
0000
0001
0000
0000
0100
0001
0100
,  // measure 5
0001
0000
0000
0011
0000
0000
1001
0000
0000
0000
2010
0000
0000
0000
0001
0000
,  // measure 6
3001
0000
0000
0100
0000
0000
0001
0000
0000
0000
1000
0000
0000
0100
1000
0100
,  // measure 7
1000
0000
0000
0001
0000
0000
0102
0000
0000
0000
1003
0000
0100
0000
0010
0000
,  // measure 8
0001
0000
0010
0002
0103
0000
0001
0200
,  // measure 9
1300
0000
0100
2000
3010
0000
1000
0020
,  // measure 10
0031
0000
0100
0002
0013
0000
0001
0020
,  // measure 11
1030
0000
0010
2000
3100
0000
1000
0200
,  // measure 12
0301
0100
0010
0100
0010
0100
0001
1000
0001
1000
0100
0010
0100
0010
0001
1000
,  // measure 13
0001
1000
0010
1000
0010
1000
0100
1000
0100
1000
0001
0010
0001
0010
0001
0100
,  // measure 14
0001
1000
0010
1000
0100
0010
0001
0100
0010
1000
0001
0010
0100
1000
0010
0100
,  // measure 15
0001
0000
0000
0000
0101
0000
0000
1100
0000
0000
0201
0000
0000
0000
0310
1000
,  // measure 16
0100
1000
0010
1000
0001
0000
0000
0011
0M00
0010
1000
0000
0100
0000
1100
00M0
,  // measure 17
0101
0000
0000
0000
0110
0000
0000
1010
0000
0000
1001
0000
0000
1000
0100
0000
,  // measure 18
0010
0100
1000
0001
0100
0000
0100
0010
0000
0010
1000
0000
0001
0010
0001
0000
,  // measure 19
1000
0010
1000
0000
1100
0000
0000
0101
0000
0000
1200
0000
0000
0000
0310
0001
,  // measure 20
0100
0001
0010
0001
1000
0000
0000
1010
0M00
0010
0001
0000
0100
0000
0101
00M0
,  // measure 21
1100
0000
0000
0000
0110
0000
0000
0011
0000
0000
1001
0000
0000
0001
0100
0000
,  // measure 22
0010
0100
0001
1000
0200
0000
0302
0000
2003
0000
3020
0000
0031
0100
0010
0000
,  // measure 23
0110
0000
1000
0000
0001
0100
0001
1000
0100
1000
0001
0100
0001
0010
0001
0100
,  // measure 24
0000
0100
0010
1000
0001
0010
0001
1000
0010
1000
0100
1000
0010
0000
0100
0000
,  // measure 25
0102
0000
0000
0000
1003
0100
1000
0001
0100
0001
1000
0100
1000
0010
1000
0100
,  // measure 26
0000
0100
0010
0001
1000
0010
1000
0001
0010
0001
0100
0010
1000
0001
0010
0000
,  // measure 27
0110
0000
0010
0000
0001
0100
0001
1000
0010
1000
0001
1000
0100
1000
0010
0100
,  // measure 28
0000
0010
0100
0001
1000
0100
1000
0001
0010
0001
0100
0010
1000
0000
0100
0000
,  // measure 29
0210
0000
0000
0000
1300
0100
1000
0001
0010
0001
1000
0001
0100
0001
0010
0100
,  // measure 30
0000
0010
0100
1000
0020
0000
0032
0000
2003
0000
3100
0001
0100
0010
1000
0000
,  // measure 31
1001
0000
0000
0000
0100
0000
0000
0000
0001
0000
0000
0000
0001
0000
0001
0000
0001
0000
0000
0100
0000
0100
0010
0000
2000
0000
0000
0000
0000
0000
0000
0000
,  // measure 32
3002
0000
0000
0000
0000
0000
0000
0000
1003
0000
0000
0000
1000
0000
1000
0000
1000
0000
0000
0100
0000
0100
0010
0000
0002
0000
0000
0000
0000
0000
0000
0000
,  // measure 33
2003
0000
0000
0000
3001
0000
0100
0000
1000
0000
0100
0000
0001
0000
0100
0010
,  // measure 34
0000
0100
0010
0000
1000
0000
0100
0000
0001
0000
0100
0000
1000
0000
0100
0010
,  // measure 35
0000
0100
0010
0000
0001
0100
0010
0100
0001
1000
0001
0100
0010
1000
0100
0010
,  // measure 36
0001
0100
0010
1000
0001
0000
0000
0000
1000
0001
1000
0000
1001
0000
0000
1000
,  // measure 37
0100
0000
0000
0000
1000
0000
0000
0000
1000
0000
0000
0000
0010
0000
0000
0000
1000
0000
0000
0000
1000
0000
0000
0000
0001
0000
0000
0000
0000
0000
M000
0000
0000
M000
0000
0000
0001
0000
0000
0000
1000
0000
0000
0000
1000
0000
0000
0000
,  // measure 38
0100
0000
0000
0000
1000
0000
0000
0000
1000
0000
0000
0000
0010
0000
0000
0000
1000
0000
0000
0000
1000
0000
0000
0000
0100
0000
0000
0000
0000
0000
1000
0000
0000
0000
0000
0000
1001
0000
0000
0000
0000
0000
0000
0000
0000
0001
0000
0000
,  // measure 39
0010
0000
0000
0000
0001
0000
0000
0000
0001
0000
0000
0000
1000
0000
0000
0000
0001
0000
0000
0000
0001
0000
0000
0000
0100
0000
0000
0000
0000
0000
000M
0000
0000
000M
0000
0000
0100
0000
0000
0000
0001
0000
0000
0000
0001
0000
0000
0000
,  // measure 40
1000
0000
0000
0000
0001
0000
0000
0000
0001
0000
0000
0000
0010
0000
0000
0000
0000
0000
0100
0000
0000
1000
0000
0000
0010
0000
0000
1000
0000
0000
0100
0000
0000
0000
0000
0000
1001
0000
0000
0000
0000
0000
0000
0000
0000
0001
0000
0000
,  // measure 41
0100
0000
0000
0000
0001
0000
0000
0000
0001
0000
0000
0000
0010
0000
0000
0000
0001
0000
0000
0000
0001
0000
0000
0000
1000
0000
0000
0000
0000
0000
000M
0000
0000
000M
0000
0000
1000
0000
0000
0000
0001
0000
0000
0000
0001
0000
0000
0000
,  // measure 42
0100
0000
0000
0000
0001
0000
0000
0000
0001
0000
0000
0000
0010
0000
0000
0000
0001
0000
0000
0000
0001
0000
0000
0000
0100
0000
0000
0000
0000
0000
0001
0000
0000
0000
0000
0000
1001
0000
0000
0000
0000
0000
0000
0000
0000
1000
0000
0000
,  // measure 43
0010
0000
0000
0000
1000
0000
0000
0000
1000
0000
0000
0000
0001
0000
0000
0000
1000
0000
0000
0000
1000
0000
0000
0000
0100
0000
0000
0000
0000
0000
M000
0000
0000
M000
0000
0000
0100
0000
0000
0000
1000
0000
0000
0000
0010
0000
0000
0000
,  // measure 44
0010
0000
0000
0000
0010
0000
0000
0000
0010
0000
0000
0000
1000
0000
0000
0010
0000
0000
0100
0000
0000
0001
0000
0000
0010
0000
0000
0100
0000
0000
1000
0000
0000
0000
0000
0000
1001
0000
0000
0000
0000
0000
0000
0000
0000
1000
0000
0000
,  // measure 45
0001
0000
0000
0000
0100
0000
0000
0000
0100
0000
0000
0000
0010
0000
0000
0000
0100
0000
0000
0000
0100
0000
0000
0000
1000
0000
0000
0000
0000
0000
0M00
0000
0000
0M00
0000
0000
1000
0000
0000
0000
0100
0000
0000
0000
0100
0000
0000
0000
,  // measure 46
0010
0000
0000
0000
0100
0000
0000
0000
0100
0000
0000
0000
0001
0000
0000
0000
0100
0000
0000
0000
0100
0000
0000
0000
0010
0000
0000
0000
0000
0000
1000
0000
0000
0000
0000
0000
1001
0000
0000
0000
0000
0000
0000
0000
0000
1000
0000
0000
,  // measure 47
0100
0000
0000
0000
1000
0000
0000
0000
1000
0000
0000
0000
0100
0000
0000
0000
0001
0000
0000
0000
0001
0000
0000
0000
0100
0000
0000
0000
0000
0000
000M
0000
0000
000M
0000
0000
0100
0000
0000
0000
0001
0000
0000
0000
0001
0000
0000
0000
,  // measure 48
0100
0000
0000
0000
1000
0000
0000
0000
1000
0000
0000
0000
0010
0000
0000
0000
0000
0000
1000
0000
0000
0000
0000
0000
0100
0000
0000
0010
0000
0000
0100
0000
0000
0000
0000
0000
1001
0000
0000
0000
0000
0000
0000
0000
0000
0001
0000
0000
,  // measure 49
1000
0000
0000
0000
0010
0000
0000
0000
0010
0000
0000
0000
0100
0000
0000
0000
0010
0000
0000
0000
0010
0000
0000
0000
0001
0000
0000
0000
0000
0000
00M0
0000
0000
00M0
0000
0000
0001
0000
0000
0000
0010
0000
0000
0000
0010
0000
0000
0000
,  // measure 50
0100
0000
0000
0000
0010
0000
0000
0000
0010
0000
0000
0000
1000
0000
0000
0000
0010
0000
0000
0000
0010
0000
0000
0000
0100
0000
0000
0000
0000
0000
0001
0000
0000
0000
0000
0000
1001
0000
0000
0000
0000
0000
0000
0000
0000
0001
0000
0000
,  // measure 51
0010
0000
0000
0000
0001
0000
0000
0000
0001
0000
0000
0000
0010
0000
0000
0000
1000
0000
0000
0000
1000
0000
0000
0000
0010
0000
0000
0000
0000
0000
M000
0000
0000
M000
0000
0000
0010
0000
0000
0000
0001
0000
0000
0000
0100
0000
0000
0000
,  // measure 52
0100
0000
0000
0000
0100
0000
0000
0000
0100
0000
0000
0000
0010
0000
0000
0100
0000
0000
0001
0000
0000
1000
0000
0000
0100
0000
0000
0010
0000
0000
0001
0000
0000
0000
0000
0000
1001
0000
0000
0000
0000
0000
0000
0000
0000
1000
0000
0000
,  // measure 53
0010
0000
0100
0000
0000
0000
0010
0000
1010
0000
0100
0000
0001
0000
0000
1000
,  // measure 54
0010
1000
0100
0000
0000
0000
0010
0000
0011
0000
0100
0000
1000
0000
0000
0001
,  // measure 55
0100
0000
0010
0000
0000
0000
0100
0000
0101
0000
0010
0000
1000
0000
0001
0010
,  // measure 56
0001
0000
1000
0000
0000
0110
0000
0000
1001
0000
0000
0000
1000
0000
0000
0001
,  // measure 57
0010
0000
0100
0000
0000
0000
0010
0000
0011
0000
0100
0000
1000
0000
0000
0001
,  // measure 58
0010
0001
0100
0000
0000
0000
0010
0000
1010
0000
0100
0000
0001
0000
0000
1000
,  // measure 59
0100
0000
0010
0000
0000
0000
0100
0000
1100
0000
0010
0000
0001
0000
0000
0001
,  // measure 60
0100
0000
0000
0000
0001
0000
0100
0000
0010
0000
1000
0000
0001
0000
0000
0000
1000
0000
0000
0000
0200
0000
0000
0300
0110
0000
0000
0000
0000
0000
0010
0000
,  // measure 61
0001
0000
0200
0000
1300
0000
0100
0000
0001
0000
0020
0000
0130
0000
0000
0100
,  // measure 62
1000
0001
0020
0000
1030
0000
0010
0000
0001
0000
2000
0000
3010
0000
0000
0010
,  // measure 63
1000
0000
0200
0000
0301
0000
0100
0000
1000
0000
0020
0000
0130
0000
0100
0001
,  // measure 64
1000
0000
0000
0000
0020
0000
0000
0000
0030
0000
0001
0000
0000
0000
0000
0000
0010
0000
0000
0000
2000
0000
0000
0000
3001
0000
0000
0000
0020
0000
0100
0030
,  // measure 65
0010
0000
2000
0000
3010
0000
0200
0000
0310
0000
0002
0000
0103
0000
0020
0100
,  // measure 66
0030
0100
2000
0000
3100
0000
0020
0000
0130
0000
0002
0000
0023
0000
2030
0000
,  // measure 67
3020
0000
0032
0000
0203
0000
2300
0000
3002
0000
0023
0000
1030
0100
1000
0001
,  // measure 68
0100
0001
1000
0100
0010
0001
0100
0000
0101
0000
0M0M
0000
2020
0000
0000
0000
,  // measure 69
3030
0000
0000
0000
;

//---------------dance-single - ----------------
#NOTES:
     dance-single:
     09-12:
     Hard:
     9:
     0.553197,0.580857,0.505093,0.176017,0.267852,506.000000,440.000000,66.000000,23.000000,8.000000,0.000000,0.553197,0.580857,0.505093,0.176017,0.267852,506.000000,440.000000,66.000000,23.000000,8.000000,0.000000:
// measure 0
0000
0000
0000
0000
,  // measure 1
0000
0000
0000
0000
,  // measure 2
0000
0000
0000
0000
,  // measure 3
0000
0000
0000
0000
,  // measure 4
0001
0000
0000
0100
0000
0000
0001
0000
0000
0000
1000
0000
0000
0000
1000
0000
,  // measure 5
0100
0000
0000
0011
0000
0000
1001
0000
0000
0000
0102
0000
0000
0000
1000
0000
,  // measure 6
1003
0000
0000
0100
0000
0000
1000
0000
0000
0000
0001
0000
0000
0000
0001
0000
,  // measure 7
0100
0000
0000
0110
0000
0000
1002
0000
0000
0000
1003
0000
0100
0000
0010
0000
,  // measure 8
0001
0000
1000
0010
1000
0000
1000
0001
,  // measure 9
1000
0000
1000
0100
1000
0000
1000
0001
,  // measure 10
1000
0000
0001
0010
0001
0000
0001
1000
,  // measure 11
0001
0000
0001
0100
0001
0000
0001
1000
,  // measure 12
0100
0010
0100
0010
0001
1000
0001
1000
,  // measure 13
0010
0100
0010
0100
0001
1000
0001
1000
,  // measure 14
0001
0010
1000
0010
0001
0100
1000
0100
,  // measure 15
0001
0000
0000
0000
1001
0000
0000
1001
0000
0000
1001
0000
0000
0000
1000
0010
,  // measure 16
1000
0000
0100
0000
0002
0000
0000
0203
0000
0000
2300
0000
0000
0000
3020
0000
,  // measure 17
0000
0000
0230
0000
0301
0000
0000
1010
0000
0000
0101
0000
0000
0000
1000
0001
,  // measure 18
1000
0000
0100
0000
0110
0000
0000
1MM1
0000
0000
0110
0000
0100
0000
0001
0000
,  // measure 19
0010
0000
0001
0000
1001
0000
0000
1001
0000
0000
1001
0000
0000
0000
0001
0010
,  // measure 20
0001
0000
0100
0000
2000
0000
0000
3200
0000
0000
0302
0000
0000
0000
0023
0000
,  // measure 21
0000
0000
0230
0000
1300
0000
0000
0011
0000
0000
1100
0000
0000
0000
0001
1000
,  // measure 22
0001
0000
0100
0000
0020
0000
0000
0000
0000
0000
0000
0000
0130
0010
0100
0000
,  // measure 23
0010
0000
1000
0000
1001
0000
0000
1100
0000
0000
1001
0000
0001
0000
0100
00M0
,  // measure 24
0100
0000
1000
0000
1001
0000
0000
1010
0000
0000
1001
0000
0001
0000
0010
0000
,  // measure 25
0011
0000
0000
0000
1001
0000
0000
0101
0000
0000
1001
0000
1000
0000
0100
00M0
,  // measure 26
0100
0000
0001
0000
1001
0000
0000
0011
0000
0000
1001
0000
1000
0000
0010
0000
,  // measure 27
0001
0000
0010
0000
1010
0000
0000
0110
0000
0000
0101
0000
0001
0000
0010
0M00
,  // measure 28
0010
0000
1000
0000
1100
0000
0000
1001
0000
0000
1010
0000
0010
0000
1000
0000
,  // measure 29
1001
0000
0000
0000
0011
0000
0000
0110
0000
0000
1100
0000
1000
0000
0010
0M00
,  // measure 30
0010
0000
0001
0000
0200
0000
0000
0000
0000
0000
0000
0000
0310
0100
0010
0000
,  // measure 31
1000
0000
0000
0000
0001
0000
0000
0000
0010
0000
0000
0000
0001
0000
1000
0000
0001
0000
0000
0100
0000
0000
0001
0000
0200
0000
0000
0000
0000
0000
0000
0000
,  // measure 32
0300
0000
0000
0000
0000
0000
0000
0000
0010
0000
0000
0000
1000
0000
0001
0000
1000
0000
0000
0100
0000
0000
1000
0000
0200
0000
0000
0000
0000
0000
0000
0000
,  // measure 33
0300
0000
0000
0000
1000
0000
0100
0000
0010
0000
0001
0000
0100
0000
0010
1000
,  // measure 34
0000
0010
1000
0000
0001
0000
0100
0000
0010
0000
1000
0000
0100
0000
0010
0001
,  // measure 35
0000
0010
0001
0000
1000
0000
0010
0000
0001
0000
0010
0000
1000
0000
0100
0000
,  // measure 36
0001
0000
0100
0000
1000
0000
0000
0000
1000
0001
1000
0000
1001
0000
0000
0001
,  // measure 37
0100
0000
0001
0000
0100
0000
1000
0000
0100
0000
0000
0000
0110
0000
0000
0001
,  // measure 38
0100
0000
0001
0000
1000
0000
0001
0000
0010
0000
0000
0000
1001
0000
0000
1000
,  // measure 39
0100
0000
1000
0000
0100
0000
0001
0000
0100
0000
0000
0000
0100
0000
1000
0100
,  // measure 40
1000
0000
0001
0000
1000
0000
0010
0M00
0010
0000
0001
0000
1001
0000
0000
1000
,  // measure 41
0010
0000
1000
0000
0010
0000
0001
0000
0010
0000
0000
0000
0110
0000
0000
1000
,  // measure 42
0010
0000
0100
0000
0001
0000
1000
0000
0100
0000
0000
0000
0110
0000
0000
0001
,  // measure 43
0010
0001
0010
1000
0010
0000
0220
0000
,  // measure 44
0330
0000
0000
0000
0010
0000
0001
0000
0100
0010
0100
0000
1001
0000
0000
0001
,  // measure 45
0100
0000
1000
0000
0100
0000
0001
0000
0100
0000
0000
0000
0110
0000
0000
0100
,  // measure 46
0001
0000
0010
0000
1000
0000
0010
0000
0001
0000
0000
0000
1100
0000
0000
1000
,  // measure 47
0100
0000
0001
0000
0100
0000
1000
0000
0010
0000
0000
0000
0010
0000
1000
0010
,  // measure 48
1000
0000
0001
0000
1000
0000
0100
00M0
0100
0000
0001
0000
1001
0000
0000
1000
,  // measure 49
0100
0000
0001
0000
0100
0000
1000
0000
0010
0000
0000
0000
0110
0000
0000
0010
,  // measure 50
0001
0000
0010
0000
1000
0000
0100
0000
0010
0000
0000
0000
0110
0000
0000
0001
,  // measure 51
0010
1000
0010
0001
0100
0000
0220
0000
,  // measure 52
0330
0000
0000
0000
0010
0000
1000
0000
0100
0010
0100
0000
1001
0000
0000
0001
,  // measure 53
0010
0000
0100
0000
0000
0000
0100
0000
1100
0000
0000
0000
0001
0000
0000
1000
,  // measure 54
0010
1000
0010
0000
0000
0000
0100
0000
0101
0000
0000
0000
1000
0000
0000
1000
,  // measure 55
0100
0000
0010
0000
0000
0000
0100
0000
1100
0000
0000
0000
0001
0000
1000
0001
,  // measure 56
1000
0000
0010
0000
0000
0010
0000
0000
1001
0000
0000
0000
0001
0000
0000
1000
,  // measure 57
0010
0000
0100
0000
0000
0000
0100
0000
0101
0000
0000
0000
1000
0000
0000
0001
,  // measure 58
0010
0001
0010
0000
0000
0000
0100
0000
1100
0000
0000
0000
0001
0000
0000
0001
,  // measure 59
0100
0000
0010
0000
0000
0000
0100
0000
0101
0000
0000
0000
1000
0000
0000
1000
,  // measure 60
0001
0000
1000
0000
0100
0010
0100
0000
0010
0000
0001
0000
1001
0000
0000
0000
,  // measure 61
0001
0100
1000
0000
0100
1000
0010
0000
,  // measure 62
1000
0010
0001
0000
0010
0001
0100
0000
,  // measure 63
0001
0010
1000
0000
0010
1000
0100
0000
,  // measure 64
1000
0100
0001
0000
0100
0001
1000
0100
,  // measure 65
1000
0100
0001
0100
0001
0100
1000
0010
,  // measure 66
1000
0010
0001
0010
0001
0010
1000
0100
,  // measure 67
0001
1000
0010
0001
0100
0010
2000
0000
,  // measure 68
0000
0000
0000
0000
3001
1000
0001
0000
0011
0000
0000
0000
2200
0000
0000
0000
,  // measure 69
3300
0000
0000
0000
;

//---------------dance-single - ----------------
#NOTES:
     dance-single:
     06-09:
     Medium:
     6:
     0.407792,0.448844,0.275505,0.183670,0.030612,373.000000,337.000000,36.000000,24.000000,0.000000,0.000000,0.407792,0.448844,0.275505,0.183670,0.030612,373.000000,337.000000,36.000000,24.000000,0.000000,0.000000:
// measure 0
0000
0000
0000
0000
,  // measure 1
0000
0000
0000
0000
,  // measure 2
0000
0000
0000
0000
,  // measure 3
0000
0000
0000
0000
,  // measure 4
0001
0100
0001
0100
,  // measure 5
0101
1010
0101
1001
,  // measure 6
1000
0100
1000
0100
,  // measure 7
1100
0000
0011
0000
1001
0000
1000
0001
,  // measure 8
0100
0000
0010
1000
0010
0000
1000
0001
,  // measure 9
1000
0000
0100
1000
0100
0000
1000
0001
,  // measure 10
1000
0000
0001
0010
0001
0000
1000
0001
,  // measure 11
1000
0000
0001
0100
0001
0000
1000
0001
,  // measure 12
0000
0101
0000
1001
0000
0011
0000
1001
,  // measure 13
0000
1010
0000
1001
0000
1100
0000
1000
,  // measure 14
0001
0100
0010
1000
0001
0100
0010
1000
,  // measure 15
0100
0000
0000
0000
1000
0000
0000
1000
0000
0000
1000
0000
0000
0000
0020
0000
,  // measure 16
0230
0000
0300
0000
0001
0000
0000
0010
0000
0000
0100
0000
0000
0000
0010
0000
,  // measure 17
0001
0000
0000
0000
1000
0000
0000
1000
0000
0000
1000
0000
0000
0000
0002
0000
,  // measure 18
0103
0000
0000
0000
1000
0000
0000
0100
0000
0000
0001
0000
0100
0000
0001
0000
,  // measure 19
1000
0000
0000
0000
0001
0000
0000
0001
0000
0000
0001
0000
0000
0000
0020
0000
,  // measure 20
0230
0000
0300
0000
1000
0000
0000
0010
0000
0000
0100
0000
0000
0000
0010
0000
,  // measure 21
1000
0000
0000
0000
0001
0000
0000
0001
0000
0000
0001
0000
0000
0000
2000
0000
,  // measure 22
3100
0000
0220
0000
0330
0000
0001
1000
,  // measure 23
0001
0000
1000
0000
1000
0000
0010
1000
,  // measure 24
0010
0001
0010
0000
0010
0000
1000
0001
,  // measure 25
0010
0000
0001
0000
0001
0000
0010
1000
,  // measure 26
0010
0001
0010
0000
0010
0000
0100
1000
,  // measure 27
0010
0100
0001
0000
0001
0000
0100
1000
,  // measure 28
0100
0001
0100
0000
0100
0000
0010
1000
,  // measure 29
0001
0000
1000
0000
1000
0000
0100
0001
,  // measure 30
0100
1000
0200
0000
0300
0000
0010
0001
,  // measure 31
1000
0002
0203
0320
,  // measure 32
0030
2000
3200
0320
,  // measure 33
0030
0000
0001
0100
0001
0000
1000
0100
,  // measure 34
1000
0000
0001
0100
0001
0000
1000
0100
,  // measure 35
1000
0000
0001
0100
0010
1000
0001
0100
,  // measure 36
0010
1000
0100
0000
1000
0001
1000
0000
,  // measure 37
0001
0000
0001
0100
1000
0000
0100
0000
,  // measure 38
0100
0000
1000
0100
0001
0000
0110
0000
,  // measure 39
1000
0000
1000
0100
0001
0000
0100
0000
,  // measure 40
0100
0000
0010
0001
0100
0010
1001
0000
,  // measure 41
1000
0000
1000
0010
0001
0000
0010
0000
,  // measure 42
0010
0000
0001
0010
1000
0000
0110
0000
,  // measure 43
0001
0000
0001
0010
1000
0000
0220
0000
,  // measure 44
0000
0330
0000
0100
0010
0100
1001
0000
,  // measure 45
1000
0000
1000
0100
0001
0000
0010
0000
,  // measure 46
0010
0000
0001
0010
1000
0000
0110
0000
,  // measure 47
0001
0000
0001
0100
1000
0000
0010
0000
,  // measure 48
0010
0000
0001
0100
0010
0100
1001
0000
,  // measure 49
0001
0000
0001
0010
1000
0000
0100
0000
,  // measure 50
0100
0000
1000
0100
0001
0000
0110
0000
,  // measure 51
1000
0000
1000
0010
0001
0000
0220
0000
,  // measure 52
0000
0330
0000
0100
0010
0100
1001
0000
,  // measure 53
0001
0010
0000
0010
0001
0000
1000
0000
,  // measure 54
0001
0100
0000
1000
0100
0000
0001
0000
,  // measure 55
1000
0010
0000
0010
1000
0000
0001
0000
,  // measure 56
1000
0000
0100
0000
0000
0110
0000
0000
1001
0000
0000
0000
1000
0000
0000
0000
,  // measure 57
0001
0100
0000
0100
0001
0000
1000
0000
,  // measure 58
0001
0010
0000
1000
0010
0000
0001
0000
,  // measure 59
1000
0100
0000
0100
1000
0000
2002
0000
,  // measure 60
3003
0000
0001
1000
0001
0010
0001
0000
,  // measure 61
1000
0010
0100
0000
0001
0010
0100
0000
,  // measure 62
1000
0010
0100
0000
0010
1000
0100
0000
,  // measure 63
0010
0001
0100
0000
0010
1000
0100
0000
,  // measure 64
0010
0001
0100
0000
0010
1000
0001
0010
,  // measure 65
0000
1100
0000
0011
0000
1010
0000
0101
,  // measure 66
0000
1100
0000
0011
0000
0001
1000
0010
,  // measure 67
0100
0001
0010
0100
1000
0010
0200
0000
,  // measure 68
0000
0000
0301
1000
1001
0000
0220
0000
,  // measure 69
0330
0000
0000
0000
;

//---------------dance-single - ----------------
#NOTES:
     dance-single:
     05-06:
     Easy:
     5:
     0.286438,0.316831,0.198976,0.168364,0.000000,262.000000,236.000000,26.000000,22.000000,0.000000,0.000000,0.286438,0.316831,0.198976,0.168364,0.000000,262.000000,236.000000,26.000000,22.000000,0.000000,0.000000:
// measure 0
0000
0000
0000
0000
,  // measure 1
0000
0000
0000
0000
,  // measure 2
0000
0000
0000
0000
,  // measure 3
0000
0000
0000
0000
,  // measure 4
1000
0100
1000
0100
,  // measure 5
0010
0010
0001
1000
,  // measure 6
0001
0100
0001
0100
,  // measure 7
0010
0010
1000
0001
,  // measure 8
2002
3003
0000
1000
0000
0000
0000
0100
,  // measure 9
0000
0000
0000
0010
0000
0000
0000
0001
,  // measure 10
0000
0000
0000
1000
0000
0000
0000
0010
,  // measure 11
0000
0000
0000
0100
0000
0000
0000
0001
,  // measure 12
0000
1000
0000
1000
0000
0100
0000
0100
,  // measure 13
0000
0001
0000
0001
0000
0010
0000
0010
,  // measure 14
1000
0100
0001
0010
,  // measure 15
1000
0000
2002
0000
0000
3003
0000
0001
,  // measure 16
0010
0001
0001
0100
,  // measure 17
0010
0000
2002
0000
0000
3003
0000
0001
,  // measure 18
1000
0000
0010
0000
1000
0000
0100
0010
,  // measure 19
0100
0000
2002
0000
0000
3003
0000
1000
,  // measure 20
0010
1000
1000
0100
,  // measure 21
0010
0000
2002
0000
0000
3003
0000
1000
,  // measure 22
0001
0000
0200
0000
0300
0000
0010
0100
,  // measure 23
0010
1000
1000
0100
,  // measure 24
0010
0000
0001
0000
0001
0000
1000
0010
,  // measure 25
1000
0001
0001
0010
,  // measure 26
0100
0000
1000
0000
0010
0000
0100
0001
,  // measure 27
0100
0001
0001
0100
,  // measure 28
0010
0000
1000
0000
1000
0000
0001
0010
,  // measure 29
0001
1000
1000
0010
,  // measure 30
0100
0001
0010
0100
,  // measure 31
1000
0002
0003
0200
,  // measure 32
0300
0020
0030
2000
,  // measure 33
3000
0001
0100
1000
,  // measure 34
0100
0001
0100
1000
,  // measure 35
0100
0001
0001
1000
,  // measure 36
1000
0100
0110
1001
,  // measure 37
0001
0100
1000
1000
,  // measure 38
1000
0100
0001
1001
,  // measure 39
1000
0100
0001
0100
,  // measure 40
1000
0000
0010
1000
0010
0000
1001
0000
,  // measure 41
0001
0010
1000
1000
,  // measure 42
1000
0010
0001
1001
,  // measure 43
1000
0010
0100
0002
,  // measure 44
0000
0000
0003
1000
0001
0000
1001
0000
,  // measure 45
1000
0100
0010
1000
,  // measure 46
1000
0010
0001
1001
,  // measure 47
0001
0100
1000
0100
,  // measure 48
0001
0000
0010
0001
0010
0000
1001
0000
,  // measure 49
0001
0100
0010
0001
,  // measure 50
0001
0010
1000
1001
,  // measure 51
1000
0100
0010
0002
,  // measure 52
0000
0000
0003
1000
0001
0000
0100
0000
,  // measure 53
0101
0000
0101
1000
,  // measure 54
1100
0000
1100
0001
,  // measure 55
0011
0000
0011
1000
,  // measure 56
0010
0100
0010
1000
,  // measure 57
1001
0000
1001
0010
,  // measure 58
1001
0000
1000
0110
,  // measure 59
0001
0000
0001
2002
,  // measure 60
3003
0000
1000
0001
1000
0000
0001
0000
,  // measure 61
0000
0010
0000
0000
0000
1000
0000
0000
,  // measure 62
0000
0010
0000
0000
0000
0001
0000
0000
,  // measure 63
0000
0100
0000
0000
0000
1000
0000
0000
,  // measure 64
0000
0100
0000
0000
0000
0001
0000
0001
,  // measure 65
0000
0010
0000
0010
0000
1000
0000
1000
,  // measure 66
0000
0100
0000
0100
0000
0001
0010
0000
,  // measure 67
1000
0100
0001
0020
,  // measure 68
0000
0000
0031
1000
0001
0000
2002
0000
,  // measure 69
3003
0000
0000
0000
;

//---------------dance-single - ----------------
#NOTES:
     dance-single:
     02-03:
     Beginner:
     2:
     0.169458,0.184818,0.038265,0.122447,0.000000,155.000000,150.000000,5.000000,16.000000,0.000000,0.000000,0.169458,0.184818,0.038265,0.122447,0.000000,155.000000,150.000000,5.000000,16.000000,0.000000,0.000000:
// measure 0
0000
0000
0000
0000
,  // measure 1
0000
0000
0000
0000
,  // measure 2
0000
0000
0000
0000
,  // measure 3
0000
0000
0000
0000
,  // measure 4
1000
0000
1000
0000
,  // measure 5
0001
0000
0001
0000
,  // measure 6
1000
0000
1000
0000
,  // measure 7
0001
0000
0001
0000
,  // measure 8
0010
0000
0000
0000
,  // measure 9
0100
0000
0000
0000
,  // measure 10
0010
0000
0000
0000
,  // measure 11
0100
0000
0000
0000
,  // measure 12
0010
0000
0100
0000
,  // measure 13
0010
0000
0100
0000
,  // measure 14
0010
0010
0010
0010
,  // measure 15
0000
0000
2002
0000
0000
3003
0000
0000
,  // measure 16
0000
1000
0000
0010
,  // measure 17
0000
0000
2002
0000
0000
3003
0000
0000
,  // measure 18
0000
0100
0000
0100
,  // measure 19
0000
0000
2002
0000
0000
3003
0000
0000
,  // measure 20
0000
0001
0000
0010
,  // measure 21
0000
0000
2002
0000
0000
3003
0000
0000
,  // measure 22
0000
0220
0000
0330
,  // measure 23
0000
0001
0001
0001
,  // measure 24
0000
0010
0010
0010
,  // measure 25
0000
1000
1000
1000
,  // measure 26
0000
0100
0100
0100
,  // measure 27
0000
1000
1000
1000
,  // measure 28
0000
0010
0010
0010
,  // measure 29
0000
0001
0001
0001
,  // measure 30
0000
0100
0100
0100
,  // measure 31
0000
0002
0000
0003
,  // measure 32
0000
2000
0000
3000
,  // measure 33
0000
0001
0000
0001
,  // measure 34
0000
1000
0000
1000
,  // measure 35
0000
0100
0100
0100
,  // measure 36
0100
0000
0000
1000
,  // measure 37
1000
1000
0000
0010
,  // measure 38
0010
0010
0000
1000
,  // measure 39
1000
1000
0000
0100
,  // measure 40
0100
0100
0000
1000
,  // measure 41
1000
1000
0000
0010
,  // measure 42
0010
0010
0000
1000
,  // measure 43
1000
1000
0000
0002
,  // measure 44
0000
0003
0000
0001
,  // measure 45
0001
0001
0000
0010
,  // measure 46
0010
0010
0000
0001
,  // measure 47
0001
0001
0000
0100
,  // measure 48
0100
0100
0000
0001
,  // measure 49
0001
0001
0000
0010
,  // measure 50
0010
0010
0000
0001
,  // measure 51
0001
0001
0000
2000
,  // measure 52
0000
3000
0000
0100
,  // measure 53
0100
0000
1000
1000
,  // measure 54
1000
0000
0001
0001
,  // measure 55
0001
0000
0100
0100
,  // measure 56
0100
0000
0010
0010
,  // measure 57
0010
0000
1000
1000
,  // measure 58
1000
0000
0001
0001
,  // measure 59
0001
0000
0010
0020
,  // measure 60
0000
0030
0000
0001
,  // measure 61
0000
0001
0000
0100
,  // measure 62
0000
0100
0000
1000
,  // measure 63
0000
1000
0000
0010
,  // measure 64
0000
0010
0000
0001
,  // measure 65
0000
1000
0000
0001
,  // measure 66
0000
1000
0000
0010
,  // measure 67
0010
0010
0010
0000
,  // measure 68
0000
0010
0010
0200
,  // measure 69
0300
0000
0000
0000
;
