#VERSION:0.83;
#TITLE:shadowgraph;
#SUBTITLE:;
#ARTIST:MYTH & ROID;
#TITLETRANSLIT:;
#SUBTITLETRANSLIT:;
#ARTISTTRANSLIT:;
#GENRE:;
#ORIGIN:;
#CREDIT:;
#BANNER:shadowgraph.png;
#BACKGROUND:shadowgraph-bg.png;
#PREVIEWVID:;
#JACKET:shadowgraph-jacket.png;
#CDIMAGE:;
#DISCIMAGE:;
#LYRICSPATH:;
#CDTITLE:;
#MUSIC:shadowgraph.ogg;
#OFFSET:-2.150000;
#SAMPLESTART:49.913181;
#SAMPLELENGTH:15.599998;
#SELECTABLE:YES;
#BPMS:0.000=125.000;
#STOPS:;
#DELAYS:;
#WARPS:;
#TIMESIGNATURES:0.000=4=4;
#TICKCOUNTS:0.000=4;
#COMBOS:0.000=1;
#SPEEDS:0.000=1.000=0.000=0;
#SCROLLS:0.000=1.000;
#FAKES:;
#LABELS:0.000=Song Start;
#BGCHANGES:;
#KEYSOUNDS:;
#ATTACKS:
;

//---------------dance-single - ----------------
#NOTEDATA:;
#CHARTNAME:;
#STEPSTYPE:dance-single;
#DESCRIPTION:;
#CHARTSTYLE:;
#DIFFICULTY:Challenge;
#METER:5;
#RADARVALUES:0.314644,0.377572,0.367084,0.398548,0.000000,210.000000,175.000000,35.000000,38.000000,0.000000,0.000000,0.000000,0.000000,0.000000,0.314644,0.377572,0.367084,0.398548,0.000000,210.000000,175.000000,35.000000,38.000000,0.000000,0.000000,0.000000,0.000000,0.000000;
#CREDIT:;
#NOTES:
// measure 0
0000
0000
0000
0000
,  // measure 1
0000
0000
0000
0000
,  // measure 2
0000
0000
0000
0000
,  // measure 3
0000
0000
0000
0000
,  // measure 4
1000
1000
0001
0001
,  // measure 5
1000
0001
1000
0000
,  // measure 6
1000
0001
0100
0100
,  // measure 7
0001
1000
0100
0020
,  // measure 8
0130
0000
0100
0000
0100
1000
0001
0000
,  // measure 9
0001
0000
0001
0000
0001
0100
0010
0000
,  // measure 10
0020
0100
0100
0100
,  // measure 11
0130
0010
0010
0100
0010
0010
0100
0000
,  // measure 12
0010
0000
0010
0000
0010
1000
0001
0000
,  // measure 13
0001
0000
0001
0000
0001
0010
0100
0000
,  // measure 14
0200
0010
0010
0010
,  // measure 15
0310
0100
1000
0001
1000
0100
0010
0000
,  // measure 16
1002
0000
0013
0000
,  // measure 17
0021
0001
0000
0000
0130
0000
0000
0100
,  // measure 18
0120
0001
0130
0000
,  // measure 19
0210
0010
0000
0000
1300
1000
0002
0000
,  // measure 20
0103
0100
0001
0001
,  // measure 21
1000
1000
0010
0010
,  // measure 22
2000
3002
2003
0100
,  // measure 23
3002
2003
3002
0010
,  // measure 24
2000
0000
0000
3003
,  // measure 25
1002
0103
2001
3100
,  // measure 26
1002
0100
1003
0000
,  // measure 27
1100
0101
2100
3001
,  // measure 28
1100
0101
2100
3001
,  // measure 29
1200
0310
0120
0031
,  // measure 30
0012
1003
2002
3003
,  // measure 31
1000
0100
0010
0001
1000
0100
0010
0001
,  // measure 32
1000
0001
0001
1000
0001
0000
0000
0000
,  // measure 33
2001
3010
1002
0013
,  // measure 34
2001
0010
3001
0000
,  // measure 35
0011
1010
0012
1003
,  // measure 36
0011
1010
0012
1003
,  // measure 37
0021
0130
0210
1300
,  // measure 38
2100
3001
2002
3003
,  // measure 39
0001
0010
0100
1000
0010
0000
0010
1000
,  // measure 40
0001
0010
0100
1000
0001
0000
0001
0000
,  // measure 41
2000
0001
0001
0001
,  // measure 42
0001
0001
3001
0001
,  // measure 43
0011
1010
1100
0101
,  // measure 44
0012
0000
1000
0000
0100
0000
1000
2000
,  // measure 45
3003
0000
0000
0000
;
