#VERSION:0.83;
#TITLE:U.S.A. ;
#SUBTITLE:(Extended Vocal Remix);
#ARTIST:Joe Yellow;
#TITLETRANSLIT:;
#SUBTITLETRANSLIT:;
#ARTISTTRANSLIT:;
#GENRE:;
#CREDIT:;
#MUSIC:Joe Yellow - USA (Extended Vocal Remix).ogg;
#BANNER:;
#BACKGROUND:;
#CDTITLE:;
#SAMPLESTART:0.000;
#SAMPLELENGTH:0.000;
#SELECTABLE:YES;
#OFFSET:-0.315;
#BPMS:0.000=140.171
,60.000=140.171
,93.000=140.235
,169.000=140.297
;
#STOPS:;
#DISPLAYBPM:140.000;
#BGCHANGES:;
#FGCHANGES:;

//--------------- dance-single - ----------------
#NOTEDATA:;
#STEPSTYPE:dance-single;
#DESCRIPTION:;
#DIFFICULTY:Hard;
#METER:8;
#RADARVALUES:0,0,0,0,0;
#NOTES:
0000
0000
0000
0000
,
0000
0000
0000
0000
,
0000
0000
0000
0000
,
0000
0000
0000
0000
,
0000
0000
0000
0000
,
0000
0000
0000
0000
,
1000
0000
0100
0000
2000
0000
0000
0010
0000
0000
3010
0000
1000
0000
0010
0000
,
0100
0000
0001
0000
0020
0000
0000
0001
0000
0000
0031
0000
1000
0000
0001
0000
,
0100
0010
0000
1000
0001
0000
1000
0100
0000
0010
0001
0000
0100
0000
0010
0000
,
0100
0101
1001
1100
,
1000
0000
0010
0000
0200
0000
0000
0010
0000
0000
0310
0000
1000
0000
0100
0000
,
0001
0000
0100
0000
2000
0000
0000
0100
0000
0000
3100
0000
0010
0000
0001
0000
,
0100
0010
0000
0100
0001
0000
1000
0010
0000
0100
0010
0000
1000
0000
0100
0000
,
1000
0011
0101
0110
,
1001
1010
2100
0000
,
3200
0000
0320
0000
,
0032
0000
0000
0000
0000
0000
0000
0000
1003
0100
0000
0100
0001
0000
0000
0000
,
1000
0010
0000
0010
0001
0000
0100
0000
0001
0010
0000
0001
0010
0000
0001
0000
,
0110
1100
2010
0000
,
3020
0000
0230
0000
,
0302
0000
0000
0000
0000
0000
0000
0000
1003
0010
0000
0010
0001
0000
0000
0000
,
1000
0100
0000
0100
0001
0000
1000
0000
0001
0100
0000
0010
1000
0000
0100
0000
,
0001
0000
0100
0000
1000
0000
0000
0001
0000
0000
0010
0000
0100
0000
1000
0000
,
0010
0000
0100
0000
0001
0000
0000
0010
0000
0000
0001
0000
0100
0000
0010
0000
,
1000
0001
0000
1000
0001
0000
0100
0010
0000
0100
0010
0000
1000
0000
0100
0000
,
1100
0110
0011
1001
,
0100
0000
0010
0000
0100
0000
0000
0001
0000
0000
0010
0000
0001
0000
0100
0000
,
0010
0000
1000
0000
0100
0000
0000
1000
0000
0000
0100
0000
0010
0000
0001
0000
,
0100
0010
0000
0100
0001
0000
0010
0100
0000
0010
0001
0000
0100
0000
0010
0000
,
1010
1001
0011
0110
,
0011
0000
1001
0000
0202
0000
0303
0100
,
0000
1000
0100
0001
0010
1000
0010
0001
,
0100
0020
0000
1030
0100
2000
0000
3100
,
0010
0001
0010
1000
0100
0001
1000
0010
,
0110
0000
1010
0000
2200
0000
3300
1000
,
0000
0001
0100
1000
0100
0001
0100
0010
,
0100
0002
0000
1003
0001
0020
0000
0031
,
0100
0010
1000
0100
1000
0001
0010
0100
,
1001
0000
0011
0000
0220
0000
0330
0100
,
0000
0010
0001
0100
1000
0100
0001
1000
,
0010
2000
0000
3100
1000
0200
0000
1300
,
0001
1000
0010
0100
0010
1000
0100
0010
,
0101
0000
0110
0000
2200
0000
3300
0010
,
0000
0001
0100
0001
0010
1000
0010
0001
,
0100
0020
0000
1030
0100
0020
0000
0031
,
0100
0010
0100
0001
0100
1000
0010
0001
,
0200
0000
0302
0000
0023
0000
0031
1000
,
0100
1000
0000
2200
0000
3300
0000
0100
,
1000
0100
0001
0100
1000
0010
0100
0001
,
0020
0000
0130
0220
0000
0000
0330
0000
,
0002
0000
0203
0000
0320
0000
1030
0100
,
0010
0001
0000
0022
0000
0033
0001
0100
,
0010
1000
0100
1000
0010
0000
1001
0000
,
1000
0100
0001
0010
2000
0000
0000
3000
,
0110
0101
0011
1001
,
0010
0000
0100
0000
0010
0000
0001
0000
0010
0100
0000
1000
0010
0000
0100
0000
,
0010
1000
0001
0010
0100
1000
0100
0001
,
0100
1000
0010
0010
0100
0100
0001
0001
,
0011
0101
1010
1100
,
1000
0000
0100
0000
0010
0000
0001
0000
0100
0010
0000
1000
0100
0000
1000
0000
,
0010
0001
0010
1000
2020
0000
0000
3030
,
0100
0001
0010
0022
0000
0000
0033
0000
,
0101
0110
1010
1001
,
0010
0000
0001
0000
0100
0000
0010
0000
1000
0100
0000
1000
0100
0000
1000
0000
,
0010
0100
0001
0100
1000
0100
0001
0010
,
1000
0010
0001
0001
0100
0100
0010
0010
,
1010
1100
0110
0101
,
0001
0000
0010
0000
0100
0000
1000
0000
0001
0010
0000
0001
0100
0000
0010
0000
,
1000
0100
0001
0100
2000
0000
0000
3000
,
0001
0010
0100
2200
0000
0000
3300
0000
,
1000
0000
0010
0000
0100
0000
0000
0010
0000
0000
0100
0000
0001
0000
0100
0000
,
0010
0000
1000
0000
0100
0000
0000
0010
0000
0000
0001
0000
1000
0000
0010
0000
,
1000
0010
0000
0010
0001
0000
1000
0100
0000
0100
0001
0000
0010
0000
0001
0000
,
0200
0320
2030
3001
,
0100
0000
0010
0000
0100
0000
0000
0001
0000
0000
0010
0000
0001
0000
0100
0000
,
0001
0000
1000
0000
0010
0000
0000
1000
0000
0000
0100
0000
1000
0000
0001
0000
,
1000
0100
0000
0100
0001
0000
1000
0010
0000
0010
0001
0000
0010
0000
0100
0000
,
1000
1100
0110
0011
,
2002
0000
0000
0000
,
3003
0000
0000
0000
;
