#VERSION:0.83;
#TITLE:SAIKOU;
#SUBTITLE:;
#ARTIST:Tokyo Machine;
#TITLETRANSLIT:;
#SUBTITLETRANSLIT:;
#ARTISTTRANSLIT:;
#GENRE:;
#ORIGIN:;
#CREDIT:;
#BANNER:bn.png;
#BACKGROUND:bg.png;
#PREVIEWVID:;
#JACKET:jacket.png;
#CDIMAGE:;
#DISCIMAGE:;
#LYRICSPATH:;
#CDTITLE:;
#MUSIC:SAIKOU.ogg;
#OFFSET:-0.081000;
#SAMPLESTART:46.954494;
#SAMPLELENGTH:14.999996;
#SELECTABLE:YES;
#BPMS:0.000=128.000;
#STOPS:64.000=0.234,
64.500=0.234,
65.000=0.234,
65.500=0.234,
190.000=0.234,
190.500=0.234,
191.000=0.234,
191.500=0.234;
#DELAYS:;
#WARPS:;
#TIMESIGNATURES:0.000=4=4;
#TICKCOUNTS:0.000=4;
#COMBOS:0.000=1;
#SPEEDS:0.000=1.000=0.000=0;
#SCROLLS:0.000=1.000;
#FAKES:;
#LABELS:0.000=Song Start;
#BGCHANGES:;
#KEYSOUNDS:;
#ATTACKS:
;

//---------------dance-single - ----------------
#NOTEDATA:;
#CHARTNAME:;
#STEPSTYPE:dance-single;
#DESCRIPTION:;
#CHARTSTYLE:;
#DIFFICULTY:Hard;
#METER:8;
#RADARVALUES:0.421010,0.488839,0.272877,0.124744,0.265080,378.000000,343.000000,35.000000,16.000000,0.000000,0.000000,0.000000,0.000000,0.000000,0.421010,0.488839,0.272877,0.124744,0.265080,378.000000,343.000000,35.000000,16.000000,0.000000,0.000000,0.000000,0.000000,0.000000;
#CREDIT:;
#NOTES:
0000
0000
0000
0000
,
0000
0000
0000
0000
,
0000
0000
0000
0000
,
0000
0000
0000
0000
,
0000
0000
0000
0000
,
1001
0000
0001
0010
0001
0000
0001
0010
,
0001
1000
0100
0010
0100
0000
0000
0000
,
1001
0000
1000
0100
1000
0000
1000
0100
,
1000
0100
0001
0100
1000
0100
0001
0100
,
1002
1000
1000
1003
,
2001
0001
0001
3001
,
0210
0010
0010
0310
,
0120
0100
0100
0130
,
0100
0010
1000
0000
0010
0100
0001
0000
,
0010
0100
1000
0000
0100
0010
0001
0000
,
0100
0010
1000
0100
1000
0001
0100
0001
,
0020
0000
0000
0000
0000
0000
0000
0000
0000
0030
0000
0000
1001
0000
0000
0000
0000
0000
0000
0000
0000
0001
0000
0100
,
0001
0000
0000
0000
0000
0000
0000
0000
0000
0100
0000
0010
0100
0000
0000
0010
0000
0000
1000
0000
0000
0100
0000
0000
,
0010
0000
0000
0000
0000
0000
1001
0000
0000
0000
0000
0000
0110
0000
0000
0000
0000
0000
0000
0000
0000
0100
0000
0010
,
1000
0000
0000
0000
0000
0000
0000
0000
0000
0001
0000
0010
0001
0000
0000
1000
0000
0000
0010
0000
0000
1000
0000
0000
,
0001
0000
0000
0000
0000
0000
0000
0000
0000
0000
0000
0000
0110
0000
0000
0000
0000
0000
0000
0000
0000
1000
0000
0001
,
0010
0000
0000
0000
0000
0000
0000
0000
0000
0001
0000
1000
0010
0000
0000
0100
0000
0000
0001
0000
0000
0010
0000
0000
,
0100
0000
0000
0000
0000
0000
1001
0000
0000
0000
0000
0000
0110
0000
0000
0000
0000
0000
0000
0000
0000
0100
0000
0010
,
1000
0000
0000
0000
0000
0000
0000
0000
0000
0001
0000
0010
0001
0000
0000
0100
0000
0000
1000
0000
0000
0100
0000
0000
,
0001
0000
0000
0100
0000
0000
1000
0000
0000
0010
0000
0000
1001
0000
0000
0000
0000
0000
1000
0000
0000
0001
0000
0010
,
0001
0000
0000
0000
0000
0000
0100
0000
0000
0010
0000
0100
0001
0000
0000
0010
0000
0000
0001
0000
0000
1000
0000
0000
,
0010
0000
0000
0000
0000
0000
1001
0000
0000
0000
0000
0000
0110
0000
0000
0000
0000
0000
0010
0000
0000
1000
0000
0010
,
1000
0000
0000
0000
0000
0000
0001
0000
0000
0010
0000
0001
0010
0000
0000
1000
0000
0000
0010
0000
0000
0001
0000
0000
,
1000
0000
0000
0000
0000
0000
0010
0000
0000
0000
0000
0000
1001
0000
0000
0000
0000
0000
1000
0000
0000
0001
0000
0010
,
0001
0000
0000
0000
0000
0000
1000
0000
0000
0010
0000
1000
0010
0000
0000
0100
0000
0000
0001
0000
0000
0010
0000
0000
,
0100
0000
0000
0000
0000
0000
1001
0000
0000
0000
0000
0000
0110
0000
0000
0000
0000
0000
1000
0000
0000
0100
0000
0010
,
0100
0000
0000
0000
0000
0000
1000
0000
0000
0001
0000
0100
0001
0000
0000
0010
0000
0000
0001
0000
0000
0010
0000
0000
,
0001
0010
0001
0010
2002
0000
0000
0000
,
0000
0000
0000
0000
,
0000
0000
0000
0000
,
0000
0000
0000
0000
,
0000
0000
3003
0000
1000
0000
0001
0100
,
0010
0000
0100
0010
1000
0001
0010
0001
,
1000
0001
0001
1000
0001
0000
0100
0001
,
0010
0000
0100
0010
0001
1000
0001
1000
,
0001
1000
0001
1000
2001
0000
0001
0000
,
0001
3001
1002
1000
,
1000
1003
0210
0010
,
0010
0310
0120
0100
,
0100
0000
0130
0000
0010
0100
0010
0000
,
1000
0010
1000
0000
0001
0100
0001
0000
,
0010
0001
0010
0000
0001
0010
0100
1000
,
0001
0010
0100
1000
0002
0000
0000
0003
,
1010
0000
0000
0000
0001
0100
0010
0000
0000
0000
0100
0001
,
1000
0000
0001
0100
0000
0100
0010
0000
0000
1001
0000
0000
,
0110
0000
0000
0000
0010
1000
0100
0000
0000
0000
0010
0100
,
1000
0000
0001
1000
0000
0001
0010
0000
0000
1001
0000
0000
,
0110
0000
0000
0000
1000
0010
0100
0000
0000
0000
0010
0100
,
0001
0000
0010
0001
0000
0001
1000
0000
0000
0000
0000
0000
,
1001
0000
0000
0000
0001
0100
0010
0000
0000
0000
0100
0010
,
1000
0000
0001
1000
0000
1000
0001
0000
0001
1000
0000
1000
,
0010
0000
0000
0100
0010
1000
0001
0000
0000
0010
0001
0100
,
0010
0000
0100
0010
0000
0010
1000
0000
0000
1001
0000
0000
,
0201
0000
0000
0301
0100
0010
1000
0000
0000
0001
0100
0010
,
1000
0000
0010
0100
0000
0100
0010
0000
0000
1001
0000
0000
,
0120
0000
0000
1030
0010
0100
0001
0000
0000
0001
0010
0100
,
1000
0000
0100
1000
0000
1000
0010
0000
0000
0110
0000
0000
,
2001
0000
0000
3001
1000
0100
0010
0000
0000
0100
0010
0001
,
0100
0000
0001
0100
0000
0001
0100
0000
0001
0100
0000
0001
,
0020
0000
0000
0000
,
0000
0000
0000
0000
,
0030
0000
0000
0000
;

//---------------dance-single - ----------------
#NOTEDATA:;
#CHARTNAME:;
#STEPSTYPE:dance-single;
#DESCRIPTION:;
#CHARTSTYLE:;
#DIFFICULTY:Medium;
#METER:6;
#RADARVALUES:0.335249,0.405417,0.389824,0.093558,0.000000,301.000000,251.000000,50.000000,12.000000,0.000000,0.000000,0.000000,0.000000,0.000000,0.335249,0.405417,0.389824,0.093558,0.000000,301.000000,251.000000,50.000000,12.000000,0.000000,0.000000,0.000000,0.000000,0.000000;
#CREDIT:;
#NOTES:
0000
0000
0000
0000
,
0000
0000
0000
0000
,
0000
0000
0000
0000
,
0000
0000
0000
0000
,
0000
0000
0000
0000
,
1001
0001
0100
0001
,
0100
0000
0010
0000
1000
0000
0001
1000
,
0100
1000
1000
0100
,
1000
0010
0100
0001
1000
0010
0100
0001
,
2000
0010
0010
3010
,
0200
0001
0001
0301
,
0002
0010
0010
0013
,
0200
1000
1000
1300
,
0100
1000
0100
0000
1000
0000
0010
0000
,
0100
0010
0100
0000
0010
0000
1000
0000
,
0001
1000
0001
0000
1000
0001
1000
0000
,
0020
0000
0000
0030
0110
0000
0000
0010
,
1000
0000
0000
0010
1000
0000
0010
0000
,
0100
0000
0101
0000
1001
0000
0000
0001
,
0010
0000
0000
0001
0100
0000
0010
0000
,
1000
0000
1001
0000
0101
0000
0000
0001
,
1000
0000
0000
0001
1000
0000
0100
0000
,
1000
0000
1010
0000
1001
0000
0000
0001
,
0010
0000
0000
0001
0010
0000
0100
0000
,
1000
0000
0100
1000
1010
0000
0010
0100
,
0001
0000
0100
0010
1000
0000
0001
0000
,
0010
0000
0011
0000
1100
0000
0100
1000
,
0010
0000
0100
0010
1000
0000
1000
0000
,
0001
0000
0101
0000
1001
0000
0100
1000
,
0100
0000
0010
0001
0100
0000
0010
0000
,
0100
0000
0001
0100
0010
0000
0100
0010
,
1000
0000
0010
0100
0001
1000
0001
1000
,
0001
1000
0001
1000
1001
0000
0000
0000
,
0000
0000
0000
0000
,
0000
0000
0000
0000
,
0000
0000
0000
0000
,
0000
0000
0010
0000
1000
0000
0010
1000
,
0010
0000
0001
0100
0001
0000
0010
0000
,
0100
0010
0001
1000
0100
0000
1000
0010
,
1000
0000
0001
0100
0001
0010
0100
1000
,
0001
0010
0100
1000
0002
0000
0100
0000
,
0100
0103
0020
1000
,
1000
1030
2000
0100
,
0100
3100
0020
0001
,
0001
0000
0130
0000
0010
0001
0100
0000
,
0010
1000
0100
0000
0010
0001
0100
0000
,
0010
1000
0100
0000
0010
0001
0100
0010
,
1000
0100
0010
0001
2000
0000
0000
3000
,
0101
0000
1001
0000
,
1100
1001
0101
0000
,
0010
0000
1001
0000
,
0101
1010
1001
0000
,
1000
0000
0011
0000
,
0101
1001
1100
0000
,
0100
0000
1100
0000
,
1000
0010
0100
0001
,
1001
0010
1001
0100
,
1001
1010
1001
1000
,
1001
0001
0011
0001
,
0101
1010
0101
1000
,
0101
0001
1100
0001
,
1010
0101
1001
0001
,
1100
0100
0110
0010
,
0011
1100
0011
1100
,
2002
0000
0000
0000
,
3003
0000
0000
0000
;

//---------------dance-single - ----------------
#NOTEDATA:;
#CHARTNAME:;
#STEPSTYPE:dance-single;
#DESCRIPTION:;
#CHARTSTYLE:;
#DIFFICULTY:Easy;
#METER:3;
#RADARVALUES:0.170409,0.257284,0.116947,0.116947,0.000000,153.000000,138.000000,15.000000,15.000000,0.000000,0.000000,0.000000,0.000000,0.000000,0.170409,0.257284,0.116947,0.116947,0.000000,153.000000,138.000000,15.000000,15.000000,0.000000,0.000000,0.000000,0.000000,0.000000;
#CREDIT:;
#NOTES:
0000
0000
0000
0000
,
0000
0000
0000
0000
,
0000
0000
0000
0000
,
0000
0000
0000
0000
,
0000
0000
0000
0000
,
1000
0000
0001
0000
,
1000
0001
1000
0000
,
0010
0000
0100
0000
,
0010
1000
0001
0100
,
0002
0000
0000
0003
,
2000
0000
0000
3000
,
0200
0000
0000
0300
,
0020
0000
0000
0030
,
0100
0000
0010
0000
,
0001
0000
1000
0000
,
0010
1000
0001
0100
,
2002
0000
0000
3003
1001
0000
0000
0000
,
0010
0000
0100
0001
,
0010
0000
0100
0000
,
0010
0000
0001
0001
,
1000
0000
0010
0000
,
0100
0000
0001
0100
,
0010
0000
1000
0000
,
0100
0000
1000
1000
,
0100
0100
0010
0000
,
0100
0000
0010
0001
,
0100
0010
1000
0000
,
0001
0000
0010
0010
,
0001
1000
0001
0000
,
0100
0000
0010
1000
,
0001
0010
0001
0000
,
0100
0000
0010
0010
,
0010
0010
2002
0000
,
0000
0000
0000
0000
,
0000
0000
0000
0000
,
0000
0000
0000
0000
,
0000
3003
0001
0000
,
0000
0000
1000
0000
,
0000
0000
0010
0000
,
0000
0000
0100
0010
,
1000
0001
1001
0000
,
0000
0000
2000
0000
,
0000
3000
0020
0000
,
0000
0030
0200
0000
,
0000
0300
0010
0000
,
1000
0000
0001
0000
,
0100
0000
0010
0100
,
0001
0000
1000
0000
2002
0000
0000
3003
,
1001
0000
0110
0000
,
0100
0010
1000
0000
,
1001
0000
0001
0000
,
0010
0001
0010
0001
,
1001
0000
1000
0000
,
0010
1000
0100
0000
,
1001
0000
0010
0000
,
1000
0100
0010
0001
,
1000
0001
0100
0001
,
0100
0100
0001
0000
,
1001
0000
1000
0000
,
0010
0010
1000
0001
,
0011
0000
0001
0000
,
0100
0100
0100
0110
,
1001
0000
1000
0000
,
0100
0100
0100
0100
,
2002
0000
0000
0000
,
0000
0000
0000
0000
,
3003
0000
0000
0000
;

//---------------dance-single - ----------------
#NOTEDATA:;
#CHARTNAME:;
#STEPSTYPE:dance-single;
#DESCRIPTION:;
#CHARTSTYLE:;
#DIFFICULTY:Beginner;
#METER:1;
#RADARVALUES:0.098013,0.149692,0.062372,0.000000,0.000000,88.000000,80.000000,8.000000,0.000000,0.000000,0.000000,0.000000,0.000000,0.000000,0.098013,0.149692,0.062372,0.000000,0.000000,88.000000,80.000000,8.000000,0.000000,0.000000,0.000000,0.000000,0.000000,0.000000;
#CREDIT:;
#NOTES:
0000
0000
0000
0000
,
0000
0000
0000
0000
,
0000
0000
0000
0000
,
0000
0000
0000
0000
,
0000
0000
0000
0000
,
0010
0000
0000
0000
,
0000
0000
0000
0000
,
0100
0000
0000
0000
,
0000
0000
0000
0000
,
1000
0000
0000
0000
,
0100
0000
0000
0000
,
0010
0000
0000
0000
,
0001
0000
0000
0000
,
1000
0000
0001
0000
,
0100
0000
0010
0000
,
1000
0000
0010
0000
,
0000
0000
0010
0000
,
1000
0000
0001
0000
,
0000
0000
1000
0000
,
0100
0000
1000
0000
,
0000
0000
0001
0000
,
0100
0000
0001
0000
,
0000
0000
0010
0000
,
0001
0000
1000
0000
,
0000
0000
1001
0000
,
0001
0000
1000
0000
,
0000
0000
0010
0000
,
0100
0000
0001
0000
,
0000
0000
1001
0000
,
1000
0000
0010
0000
,
0000
0000
0100
0000
,
0010
0000
1000
0000
,
1000
0000
1001
0000
,
0000
0000
0000
0000
,
0000
0000
0000
0000
,
0000
0000
0000
0000
,
0000
0000
0010
0000
,
0000
0000
0100
0000
,
0000
0000
0001
0000
,
0000
0000
1000
0000
,
0100
0000
0110
0000
,
0000
0000
0100
0000
,
0000
0000
0010
0000
,
0000
0000
0001
0000
,
0000
0000
0100
0000
,
0010
0000
1000
0000
,
0001
0000
0010
0000
,
0001
0000
0000
0000
,
0110
0000
0100
0000
,
0010
0000
0000
0000
,
1000
0000
0001
0000
,
0010
0000
0000
0000
,
1001
0000
0001
0000
,
1000
0000
0000
0000
,
0010
0000
0100
0000
,
0001
0000
0001
0000
,
1001
0000
1000
0000
,
0010
0000
0000
0000
,
0100
0000
0010
0000
,
0100
0000
0000
0000
,
0001
0000
1000
0000
,
0010
0000
0000
0000
,
0100
0000
0001
0000
,
1000
0000
1000
0000
,
0110
0000
0000
0000
;

//---------------dance-double - ----------------
#NOTEDATA:;
#CHARTNAME:;
#STEPSTYPE:dance-double;
#DESCRIPTION:;
#CHARTSTYLE:;
#DIFFICULTY:Challenge;
#METER:8;
#RADARVALUES:0.402076,0.456094,0.116947,0.038982,0.265080,361.000000,346.000000,15.000000,5.000000,0.000000,0.000000,0.000000,0.000000,0.000000,0.402076,0.456094,0.116947,0.038982,0.265080,361.000000,346.000000,15.000000,5.000000,0.000000,0.000000,0.000000,0.000000,0.000000;
#CREDIT:;
#NOTES:
// measure 0
00000000
00000000
00000000
00000000
,  // measure 1
00000000
00000000
00000000
00000000
,  // measure 2
00000000
00000000
00000000
00000000
,  // measure 3
00000000
00000000
00000000
00000000
,  // measure 4
00000000
00000000
00000000
00000000
,  // measure 5
10100000
00000000
00010000
00100000
00010000
00000000
00100000
00010000
,  // measure 6
00100000
00001000
00010000
00000100
00000010
00000000
00002000
00000000
,  // measure 7
00003010
00000000
00000100
00000001
00000100
00000000
00000010
00001000
,  // measure 8
00000100
00000001
00000100
00001000
00000100
00000001
00000100
00001000
,  // measure 9
00000010
00000010
00001000
00001000
,  // measure 10
00000100
00000100
00010000
00010000
,  // measure 11
00001000
00001000
01000000
01000000
,  // measure 12
00100000
00100000
10000000
10000000
,  // measure 13
01000000
10000000
01000000
00000000
01000000
00100000
01000000
00000000
,  // measure 14
01000000
00010000
01000000
00000000
01000000
00100000
01000000
00000000
,  // measure 15
00100000
00010000
00100000
00001000
00010000
00001000
00010000
00000100
,  // measure 16
00002000
00000000
00000000
00000000
00000000
00000000
00000000
00000000
00000000
00000000
00000000
00000000
00003010
00000000
00000000
00000000
00000000
00000000
00000000
00000000
00000000
00001000
00000000
00000010
,  // measure 17
00001000
00000000
00000000
00000000
00000000
00000000
00000000
00000000
00000000
00001000
00000000
00000001
00001000
00000000
00000000
00000100
00000000
00000000
00010000
00000000
00000000
00001000
00000000
00000000
,  // measure 18
00100000
00000000
00000000
00000000
00000000
00000000
01000000
00000000
00000000
00000000
00000000
00000000
00110000
00000000
00000000
00000000
00000000
00000000
00000000
00000000
00000000
10000000
00000000
00010000
,  // measure 19
10000000
00000000
00000000
00000000
00000000
00000000
00000000
00000000
00000000
00010000
00000000
01000000
00010000
00000000
00000000
00100000
00000000
00000000
00010000
00000000
00000000
00100000
00000000
00000000
,  // measure 20
01000000
00000000
00000000
00000000
00000000
00000000
00100000
00000000
00000000
00000000
00000000
00000000
00110000
00000000
00000000
00000000
00000000
00000000
00000000
00000000
00000000
00100000
00000000
00001000
,  // measure 21
00100000
00000000
00000000
00000000
00000000
00000000
00000000
00000000
00000000
00001000
00000000
00010000
00001000
00000000
00000000
00010000
00000000
00000000
00000100
00000000
00000000
00001000
00000000
00000000
,  // measure 22
00000010
00000000
00000000
00000000
00000000
00000000
00000100
00000000
00000000
00000000
00000000
00000000
00001001
00000000
00000000
00000000
00000000
00000000
00000000
00000000
00000000
00000001
00000000
00000100
,  // measure 23
00000001
00000000
00000000
00000000
00000000
00000000
00000000
00000000
00000000
00000001
00000000
00001000
00000100
00000000
00000000
00010000
00000000
00000000
00001000
00000000
00000000
00010000
00000000
00000000
,  // measure 24
00001000
00000000
00000000
00100000
00000000
00000000
01000000
00000000
00000000
00100000
00000000
00000000
00010000
00000000
00000000
00000000
00000000
00000000
01000000
00000000
00000000
00010000
00000000
01000000
,  // measure 25
00100000
00000000
00000000
00000000
00000000
00000000
10000000
00000000
00000000
01000000
00000000
00100000
00010000
00000000
00000000
00100000
00000000
00000000
00001000
00000000
00000000
00010000
00000000
00000000
,  // measure 26
00000100
00000000
00000000
00000000
00000000
00000000
00001000
00000000
00000000
00000000
00000000
00000000
00000101
00000000
00000000
00000000
00000000
00000000
00000001
00000000
00000000
00000010
00000000
00000001
,  // measure 27
00000100
00000000
00000000
00000000
00000000
00000000
00000000
00000000
00000000
00000100
00000000
00000010
00000100
00000000
00000000
00000010
00000000
00000000
00000100
00000000
00000000
00000010
00000000
00000000
,  // measure 28
00001000
00000000
00000000
00000000
00000000
00000000
00000100
00000000
00000000
00000000
00000000
00000000
00011000
00000000
00000000
00000000
00000000
00000000
00001000
00000000
00000000
00100000
00000000
00010000
,  // measure 29
01000000
00000000
00000000
00000000
00000000
00000000
00100000
00000000
00000000
10000000
00000000
00010000
00100000
00000000
00000000
00001000
00000000
00000000
00010000
00000000
00000000
00000100
00000000
00000000
,  // measure 30
00001000
00000000
00000000
00000000
00000000
00000000
00000100
00000000
00000000
00000000
00000000
00000000
00010100
00000000
00000000
00000000
00000000
00000000
00000100
00000000
00000000
00001000
00000000
00000010
,  // measure 31
00000100
00000000
00000000
00000000
00000000
00000000
00000010
00000000
00000000
00000100
00000000
00000010
00001000
00000000
00000000
00000100
00000000
00000000
00010000
00000000
00000000
00001000
00000000
00000000
,  // measure 32
00010000
00000100
00010000
00001000
00200000
00000000
00000000
00000000
,  // measure 33
00000000
00000000
00000000
00000000
,  // measure 34
00000000
00000000
00000000
00000000
,  // measure 35
00000000
00000000
00000000
00000000
,  // measure 36
00000000
00000000
01300000
00000000
10000000
00000000
00010000
10000000
,  // measure 37
00010000
00000000
00010000
00100000
01000000
00100000
00010000
00100000
,  // measure 38
00001000
00010000
00000100
00001000
00000010
00000000
00000100
00000001
,  // measure 39
00000100
00000000
00000100
00000001
00000010
00001000
00000010
00000001
,  // measure 40
00000010
00001000
00000010
00000100
00001100
00000000
00000100
00000000
,  // measure 41
00001000
00001000
00000010
00000100
,  // measure 42
00000001
00000001
00001000
00000010
,  // measure 43
00000100
00000100
00000010
00001000
,  // measure 44
00000100
00000000
00010100
00000000
00001000
00010000
00001000
00000000
,  // measure 45
00001000
00100000
00001000
00000000
00010000
01000000
00010000
00000000
,  // measure 46
10000000
00100000
10000000
00000000
00010000
00100000
01000000
10000000
,  // measure 47
00010000
00100000
01000000
10000000
00200000
00000000
00000000
00000000
,  // measure 48
01300000
00000000
00000000
00000000
00100000
10000000
00010000
00000000
00000000
00000000
00100000
00010000
,  // measure 49
00100000
00000000
00001000
00010000
00000000
00000100
00001000
00000000
00000000
00000010
00000000
00000000
,  // measure 50
00001001
00000000
00000000
00000000
00000001
00000010
00000100
00000000
00000000
00000000
00000010
00000001
,  // measure 51
00000100
00000000
00000010
00001000
00000000
00000100
00010000
00000000
00000000
00001000
00000000
00000000
,  // measure 52
01010000
00000000
00000000
00000000
00100000
10000000
01000000
00000000
00000000
00000000
00100000
01000000
,  // measure 53
10000000
00000000
00010000
00100000
00000000
00100000
00001000
00000000
00000000
00010000
00000000
00000000
,  // measure 54
00010100
00000000
00000000
00000000
00000100
00010000
00001000
00000000
00000000
00000000
00010000
00000100
,  // measure 55
00001000
00000000
00001000
00000010
00000000
00000010
00000100
00000000
00000100
00000001
00000000
00000001
,  // measure 56
00001000
00000000
00000000
00000010
00000100
00000001
00001000
00000000
00000000
00000100
00001000
00000010
,  // measure 57
00000100
00000000
00000010
00010000
00000000
00001000
00010000
00000000
00000000
00001000
00000000
00000000
,  // measure 58
00110000
00000000
00000000
00010000
01000000
00100000
10000000
00000000
00000000
00100000
01000000
00010000
,  // measure 59
10000000
00000000
10000000
01000000
00000000
01000000
00100000
00000000
00000000
01000000
00000000
00000000
,  // measure 60
10010000
00000000
00000000
00010000
00100000
01000000
00100000
00000000
00000000
01000000
00100000
00010000
,  // measure 61
00100000
00000000
00001000
00010000
00000000
00010000
00000100
00000000
00000000
00001000
00000000
00000000
,  // measure 62
00000101
00000000
00000000
00000001
00001000
00000010
00000100
00000000
00000000
00000010
00001000
00000001
,  // measure 63
00000010
00000000
00000100
00000010
00000000
00000100
00000010
00000000
00000100
00000010
00000000
00000100
,  // measure 64
00002000
00000000
00000000
00000000
,  // measure 65
00003000
00000000
00000000
00000000
;
