#TITLE:Pod Lyod;
#SUBTITLE:;
#ARTIST:LOBODA;
#TITLETRANSLIT:;
#SUBTITLETRANSLIT:;
#ARTISTTRANSLIT:;
#GENRE:;
#CREDIT:;
#BANNER:[CAPS LOCK] - Pod Lyod-bn.png;
#BACKGROUND:[CAPS LOCK] - Pod Lyod-bg.png;
#LYRICSPATH:;
#CDTITLE:;
#MUSIC:[CAPS LOCK] - Pod Lyod.ogg;
#OFFSET:0.938000;
#SAMPLESTART:59.062000;
#SAMPLELENGTH:15.000000;
#SELECTABLE:YES;
#BPMS:0.000000=128.000000
;
#STOPS:
;
#BGCHANGES:0.000=Pod Led-bg.png=1.000=0=0=0=StretchNoLoop====,
2.000=Pod Led-bg.png=1.000=0=0=1=====,
8.000=Pod Lyod-bg.png=1.000=0=0=1=====,
9.000=Pod Lyod-bg.png=1.000=0=0=1=====,
9.500=Pod Lyod.avi=1.000=0=0=1=====,
10.000=Pod Lyod.avi=1.000=0=0=1=====,
10.500=Pod Lyod.avi=1.000=0=0=1=====,
11.000=Pod Lyod.avi=1.000=0=0=1=====,
12.000=Pod Lyod.avi=1.000=0=0=1=====,
260.000=Pod Led-bg.png=1.000=0=0=1=====,
99999=-nosongbg-=1.000=0=0=0 // don't automatically add -songbackground-
;
#KEYSOUNDS:;
#ATTACKS:;

//---------------dance-single - X Scale 1----------------
#NOTES:
     dance-single:
     X Scale 1:
     Beginner:
     1:
     0.077962,0.158759,0.090956,0.049612,0.000000,66.000000,55.000000,11.000000,6.000000,0.000000,0.000000,0.077962,0.158759,0.090956,0.049612,0.000000,66.000000,55.000000,11.000000,6.000000,0.000000,0.000000:
0000
0000
0000
0000
,
0000
0000
0000
0000
,
0000
0000
0000
0000
,
0000
0000
0000
0000
,
0000
0000
0000
0000
,
0010
0000
0000
0000
,
0000
0000
0000
0000
,
0100
0000
0000
0000
,
0000
0000
0000
0000
,
0010
0000
0000
0000
,
0000
0000
0000
0000
,
0100
0000
0000
0000
,
0000
0000
0000
0000
,
0001
0000
0000
0000
,
0000
0000
0000
0000
,
1000
0000
0000
0000
,
0000
0000
0000
0000
,
0001
0000
0001
0000
,
0002
0000
0000
0003
,
1000
0000
1000
0000
,
2000
0000
0000
3000
,
0010
0000
0010
0000
,
0020
0000
0000
0030
,
0100
0000
0100
0000
,
0200
0000
0000
0300
,
0001
0000
1000
0000
,
0002
0000
0000
0003
,
0100
0000
0010
0000
,
0200
0000
0000
0300
,
1001
0000
0000
0000
,
1001
0000
0000
0000
,
0110
0000
0000
0000
,
0000
0000
0000
0000
,
0010
0000
0000
0000
,
0000
0000
0000
0000
,
0100
0000
0000
0000
,
0000
0000
0000
0000
,
0001
0000
0000
0000
,
0000
0000
0000
0000
,
1000
0000
0000
0000
,
0000
0000
0000
0000
,
0100
0000
0000
0000
,
0010
0000
0000
0000
,
0001
0000
1000
0000
,
0001
0000
0010
0000
,
0100
0000
0000
0000
,
0010
0000
0000
0000
,
1000
0000
0001
0000
,
1000
0000
0010
0000
,
0100
0000
0000
0000
,
0000
0000
0000
0000
,
0010
0000
0000
0000
,
0000
0000
0000
0000
,
0001
0000
0000
0000
,
0000
0000
0000
0000
,
1000
0000
0000
0000
,
0000
0000
0000
0000
,
0110
0000
0000
0000
,
1001
0000
0000
0000
,
0110
0000
0000
0000
,
1001
0000
0000
0000
,
0110
0000
0000
0000
,
1001
0000
0000
0000
,
0110
0000
0000
0000
,
1001
0000
0000
0000
;

//---------------dance-single - X Scale 3----------------
#NOTES:
     dance-single:
     X Scale 3:
     Easy:
     2:
     0.132299,0.266666,0.173643,0.049612,0.000000,112.000000,91.000000,21.000000,6.000000,0.000000,0.000000,0.132299,0.266666,0.173643,0.049612,0.000000,112.000000,91.000000,21.000000,6.000000,0.000000,0.000000:
0000
0000
0000
0000
,
0000
0000
0000
0000
,
0000
0000
0000
0000
,
0000
0000
0000
0000
,
0000
0000
0000
0000
,
0010
0000
0010
0000
,
0000
0000
0000
0000
,
0100
0000
0100
0000
,
0000
0000
0000
0000
,
0010
0000
0010
0000
,
0000
0000
0000
0000
,
0100
0000
0100
0000
,
0000
0000
0000
0000
,
0001
0000
0001
0000
,
0000
0000
0000
0000
,
1000
0000
1000
0000
,
0000
0000
0000
0000
,
0001
0001
0001
0000
,
0002
0000
0000
0003
,
1000
1000
1000
0000
,
2000
0000
0000
3000
,
0010
0010
0010
0000
,
0020
0000
0000
0030
,
0100
0100
0100
0000
,
0200
0000
0000
0300
,
0001
0000
1000
0000
,
0002
0000
0000
0003
,
0100
0000
0010
0000
,
0200
0000
0000
0300
,
1001
0000
1001
0000
,
1001
0000
1001
0000
,
0110
0000
0000
0000
,
0000
0000
0000
0000
,
0010
0000
0010
0000
,
0000
0000
0000
0000
,
0100
0000
0100
0000
,
0000
0000
0000
0000
,
0001
0000
0001
0000
,
0000
0000
0000
0000
,
1000
0000
1000
0000
,
0000
0000
0000
0000
,
0000
0100
0100
0100
,
0000
0010
0010
0010
,
0000
0001
0000
1000
,
0000
0001
0000
0010
,
0000
0100
0100
0100
,
0000
0010
0010
0010
,
0000
1000
0000
0001
,
0000
1000
0000
0010
,
0100
0000
0100
0000
,
0000
0000
0000
0000
,
0010
0000
0010
0000
,
0000
0000
0000
0000
,
0001
0000
0001
0000
,
0000
0000
0000
0000
,
1000
0000
1000
0000
,
0000
0000
0000
0000
,
0110
0000
0110
0000
,
1001
0000
1001
0000
,
0110
0000
1001
0000
,
0110
0000
1001
0000
,
0110
0000
0110
0000
,
1001
0000
1001
0000
,
0110
0000
1001
0000
,
0110
0000
1001
0000
;

//---------------dance-single - X Scale 7----------------
#NOTES:
     dance-single:
     X Scale 7:
     Medium:
     5:
     0.279955,0.348681,0.049612,0.413435,0.070284,237.000000,231.000000,6.000000,50.000000,0.000000,0.000000,0.279955,0.348681,0.049612,0.413435,0.070284,237.000000,231.000000,6.000000,50.000000,0.000000,0.000000:
0000
0000
0000
0000
,
0020
0000
0000
0000
0000
0000
0030
0000
0010
0000
0000
1000
0000
0000
0000
0000
,
0200
0000
0000
0300
1000
0010
0100
0010
,
0200
0000
0000
0000
0000
0000
0300
0000
0100
0000
0000
0001
0000
0000
0000
0000
,
0020
0000
0000
0230
0000
0000
0300
1000
,
0020
0000
0000
0000
0000
0000
0030
0000
0010
0000
0000
1000
0000
0000
0000
0000
,
0200
0000
0000
0300
1000
0000
0010
0010
,
0200
0000
0000
0000
0000
0000
0300
0000
0100
0000
0000
0001
0000
0000
0000
0000
,
0020
0000
0000
0030
0200
0000
0000
0300
,
0020
0000
0000
0000
0000
0000
0030
0000
0010
0000
0000
0001
0000
0000
0000
0000
,
0200
0000
0000
0300
0001
0010
0100
0010
,
0200
0000
0000
0000
0000
0000
0300
0000
0100
0000
0000
1000
0000
0000
0000
0000
,
0020
0000
0000
0030
0200
0000
0000
0301
,
0020
0000
0000
0000
0000
0000
0030
0000
0010
0000
0000
0001
0000
0000
0000
0000
,
0200
0000
0000
0300
0001
0000
0010
0010
,
0200
0000
0000
0000
0000
0000
0300
0000
0100
0000
0000
1000
0000
0000
0000
0000
,
0020
0000
0000
0030
0200
0000
0000
0300
,
0010
1000
0100
0000
0010
0001
0100
0000
,
0020
0000
0000
0000
0000
0030
0100
0001
,
0010
0000
0100
0000
0010
0000
0100
2000
,
0000
0000
0000
0000
3000
0001
0100
0010
,
0100
0001
0010
0000
0010
0001
0100
0000
,
0020
0000
0000
0000
0000
0030
0100
0001
,
0010
0000
0100
0000
0010
0000
0100
2000
,
0000
0000
0000
0000
3000
0000
0100
0010
,
0001
0000
0100
0000
0010
1000
0010
0000
,
0200
0000
0000
0000
0000
0300
0001
0010
,
0100
0000
1000
0000
0100
0000
1000
0010
,
0000
0000
0000
0000
0000
0000
0000
0000
0000
0000
0100
0000
0000
0010
0000
0000
,
1001
0000
0110
0000
,
1001
0000
0110
0000
,
1001
0000
0000
0000
,
1001
0000
0010
0100
,
0020
0000
0000
0000
0000
0000
0030
0000
0010
0000
0000
1000
0000
0000
0000
0000
,
0200
0000
0000
0300
1000
0010
0100
0010
,
0200
0000
0000
0000
0000
0000
0300
0000
0100
0000
0000
0001
0000
0000
0000
0000
,
0020
0000
0000
0030
0200
0000
0000
0300
,
0020
0000
0000
0000
0000
0000
0030
0000
0010
0000
0000
0001
0000
0000
0000
0000
,
0200
0000
0000
0300
0001
0000
0010
0010
,
0200
0000
0000
0000
0000
0000
0300
0000
0100
0000
0000
1000
0000
0000
0000
0000
,
0020
0000
0000
0030
0200
0000
0000
0300
,
0000
0000
0100
0001
0010
0001
0100
0000
,
0000
0000
0010
0010
0000
0100
0100
0000
,
0020
0000
0000
0030
0010
1000
0010
0100
,
0020
0000
0000
0030
0100
0001
0010
0001
,
0000
0000
0100
1000
0010
1000
0100
0000
,
0000
0000
0010
0010
0000
0100
0100
0000
,
0020
0000
0000
0030
0010
0001
0010
0100
,
0020
0000
0000
0030
0100
1000
0010
1000
,
0020
0000
0000
0000
0000
0000
0030
0000
0010
0000
0000
1000
0000
0000
0000
0000
,
0200
0000
0000
0300
1000
0010
0100
0010
,
0200
0000
0000
0000
0000
0000
0300
0000
0100
0000
0000
0001
0000
0000
0000
0000
,
0020
0000
0000
0030
0200
0000
0000
0300
,
0020
0000
0000
0000
0000
0000
0030
0000
0010
0000
0000
0001
0000
0000
0000
0000
,
0200
0000
0000
0300
0001
0000
0000
0000
,
0200
0000
0000
0000
0000
0000
0300
0000
0001
0000
0000
0100
0000
0000
0000
0000
,
0020
0000
0000
0030
0200
0000
0000
0300
,
0000
0000
0001
0100
0000
0000
0010
1000
,
0100
0010
0000
0000
0001
0100
0001
0000
,
0000
0000
1000
0100
0100
0000
0000
0000
,
0000
0010
0100
1000
0100
0000
0010
0000
,
0000
0000
0001
0001
0001
0100
0010
0000
,
0000
0010
0010
0010
1000
0100
0010
0001
,
0000
0000
0100
0001
0100
0000
0010
0100
,
0010
0000
0010
0000
2000
0000
0000
3000
;

//---------------dance-single - X Scale 11----------------
#NOTES:
     dance-single:
     X Scale 11:
     Hard:
     8:
     0.413435,0.429972,0.016537,0.140568,0.343151,350.000000,348.000000,2.000000,17.000000,0.000000,0.000000,0.413435,0.429972,0.016537,0.140568,0.343151,350.000000,348.000000,2.000000,17.000000,0.000000,0.000000:
// measure 0
0000
0000
0000
0000
,  // measure 1
0010
0000
0000
0000
0100
0000
0000
0000
0010
1000
0000
0001
0000
0000
1000
0000
,  // measure 2
0200
0000
0000
0000
0000
0000
0300
0000
0010
0001
0000
0100
0000
0000
1000
0000
,  // measure 3
0100
0000
0000
0000
0010
0000
0000
0000
0100
0001
0000
1000
0000
0000
0001
0000
,  // measure 4
0100
0000
0010
0010
0000
1000
1000
0100
,  // measure 5
0010
0000
0000
0000
0100
0000
0000
0000
0010
0001
0000
1000
0000
0010
1000
0010
,  // measure 6
0200
0000
0000
0000
0000
0000
0300
0000
0010
1000
0000
0100
0000
0100
0001
0000
,  // measure 7
0100
0000
0000
0000
0010
0000
0000
0000
0100
1000
0000
0001
0000
0000
1000
0000
,  // measure 8
0100
0000
0010
0000
0001
0010
0100
1000
,  // measure 9
0010
0000
0000
0000
0100
0000
0000
0000
0010
1000
0000
0001
0000
0000
1000
0000
,  // measure 10
0200
0000
0000
0000
0000
0000
0300
0000
0010
0001
0000
0100
0000
0000
1000
0000
,  // measure 11
0100
0000
0000
0000
0010
0000
0000
0000
0100
0001
0000
1000
0000
0000
0001
0000
,  // measure 12
0100
0000
0010
0000
0010
1000
1000
0100
,  // measure 13
0010
0000
0000
0000
0100
0000
0000
0000
0010
0001
0000
1000
0000
0010
1000
0010
,  // measure 14
0100
0000
0000
0000
0000
0000
0000
0000
0010
1000
0000
0100
0000
0100
0001
0000
,  // measure 15
0100
0000
0000
0000
0010
0000
0000
0000
0100
1000
0000
0001
0000
0000
1000
0000
,  // measure 16
0100
0000
0010
0010
0000
0000
0100
0100
,  // measure 17
1000
0000
0000
0001
0000
0000
1000
0000
0100
0000
0010
0000
0001
0000
0000
0200
,  // measure 18
0000
0000
0000
0000
0300
0000
0010
0100
,  // measure 19
0001
0000
0000
1000
0000
0000
0001
0000
0010
0000
0000
0000
0100
0000
2000
0000
,  // measure 20
0000
0000
0000
0000
0000
3010
0100
0010
,  // measure 21
1000
0000
0000
0001
0000
0000
1000
0000
0100
0000
1000
0000
0001
0000
0000
0020
,  // measure 22
0000
0000
0000
0000
0030
0000
0100
0010
,  // measure 23
0001
0000
0000
1000
0000
0000
0001
0000
0100
0000
0000
0001
0000
0000
0020
0000
,  // measure 24
0000
0000
0000
0000
0030
0000
0001
0100
,  // measure 25
0010
0000
0000
0100
0000
0000
0010
0000
1000
0000
0001
0000
0100
0000
0000
0100
,  // measure 26
0002
0000
0000
0000
0003
0000
0100
0001
,  // measure 27
0010
0000
0100
0001
0100
0000
1000
0002
,  // measure 28
0000
0000
0000
0000
0000
0000
0000
0000
0000
0000
0013
0000
0000
0001
0000
0000
,  // measure 29
0100
0000
0000
0010
0000
0000
1000
0000
0100
0000
0000
0010
0000
0000
0001
0000
,  // measure 30
0100
0000
0000
0010
0000
0000
1000
0000
0100
0000
0000
0010
0000
0000
0001
2000
,  // measure 31
0000
0000
0000
3000
0100
0000
0000
0000
,  // measure 32
0000
0000
0010
0000
0000
0100
0000
0000
1000
0000
0000
0010
0000
0100
0010
0000
,  // measure 33
0100
0000
0000
0000
0010
0000
0000
0000
0100
0001
0000
1000
0000
0000
0001
0000
,  // measure 34
0020
0000
0000
0000
0000
0000
0030
0000
0100
0001
0000
0100
0000
0000
1000
0000
,  // measure 35
0010
0000
0000
0000
0100
0000
0000
0000
0010
1000
0000
0001
0000
0000
1000
0000
,  // measure 36
0010
0000
0100
0000
0000
1000
0000
0000
0100
0000
0000
0001
0000
0000
0010
0000
,  // measure 37
0100
0000
0000
0000
0010
0000
0000
0000
0100
1000
0000
0001
0000
0100
0001
0100
,  // measure 38
0020
0000
0000
0000
0000
0000
0030
0000
0100
1000
0000
0100
0000
0010
1000
0000
,  // measure 39
0010
0000
0000
0000
0100
0000
0000
0000
0010
1000
0000
0001
0000
0000
1000
0000
,  // measure 40
0010
0000
0100
0000
0001
0100
0010
1000
,  // measure 41
0000
0000
1000
0100
0010
0100
1000
0000
,  // measure 42
0000
0000
0001
0100
0000
0010
0100
0000
,  // measure 43
0000
0000
0001
1000
0001
1000
0100
0010
,  // measure 44
0100
0010
0001
1000
0001
1000
0010
0100
,  // measure 45
0000
0000
0001
0010
0100
0010
0001
0000
,  // measure 46
0000
0000
1000
0010
0000
0100
0010
0000
,  // measure 47
0000
0000
1000
0001
1000
0001
0010
0100
,  // measure 48
0010
0100
1000
0001
1000
0001
0100
0010
,  // measure 49
0100
0000
0000
0000
0010
0000
0000
0000
0100
0001
0000
1000
0000
0000
0000
0000
,  // measure 50
0020
0000
0000
0000
0000
0000
0030
0000
0100
1000
0000
0100
0000
0000
0001
0000
,  // measure 51
0010
0000
0000
0000
0100
0000
0000
0000
0010
0001
0000
1000
0000
0000
0000
0000
,  // measure 52
0020
0000
0000
0000
0000
0030
0000
0010
,  // measure 53
0010
0000
0000
0000
0100
0000
0000
0000
0010
0100
0000
0001
0000
1000
0001
1000
,  // measure 54
0200
0000
0000
0000
0000
0000
0300
0000
0100
1000
0000
0010
0000
0000
0100
0000
,  // measure 55
0010
0000
0000
0000
0100
0000
0000
0000
0010
0100
0000
0001
0000
0000
1000
0000
,  // measure 56
0200
0000
0000
0000
0000
0300
0100
0000
,  // measure 57
0000
0000
1000
0001
0000
0000
0010
0001
,  // measure 58
0010
0011
0000
0000
0100
1000
1100
0000
,  // measure 59
0000
0000
0100
0010
0001
0000
0000
0000
,  // measure 60
0000
0100
0010
1000
0100
0000
0200
0000
,  // measure 61
0300
0000
0100
0010
0001
0010
0100
0000
,  // measure 62
0000
1000
0001
0010
0100
0010
0100
1000
,  // measure 63
0000
0000
0100
0010
0001
0000
0001
0100
,  // measure 64
0010
0000
0000
0010
0000
0000
0010
0000
0100
0000
0100
0001
0100
0001
0100
0001
,  // measure 65
0100
0000
0000
0000
;
