#TITLE:내가 돌아;
#SUBTITLE:;
#ARTIST:BoA;
#TITLETRANSLIT:NEGA DOLA;
#SUBTITLETRANSLIT:;
#ARTISTTRANSLIT:;
#GENRE:K-POP;
#CREDIT:;
#BANNER:[CAPS LOCK] - NEGA DOLA.png;
#BACKGROUND:[CAPS LOCK] - NEGA DOLA-bg.png;
#LYRICSPATH:;
#CDTITLE:CDTitle.png;
#MUSIC:[CAPS LOCK] - NEGA DOLA.ogg;
#OFFSET:-0.253822;
#SAMPLESTART:8.115984;
#SAMPLELENGTH:17.455498;
#SELECTABLE:YES;
#BPMS:0.000000=109.994003
;
#STOPS:
;
#BGCHANGES:4.000=[CAPS LOCK] - NEGA DOLA.mp4=1.000=1=0=1=Centered==CrossFade==,
99999=-nosongbg-=1.000=0=0=0 // don't automatically add -songbackground-
;
#KEYSOUNDS:;
#ATTACKS:;

//---------------dance-single - ----------------
#NOTES:
     dance-single:
     :
     Hard:
     9:
     0.618748,0.636176,0.352067,0.360254,0.831041,529.000000,486.000000,43.000000,44.000000,0.000000,0.000000,0.618748,0.636176,0.352067,0.360254,0.831041,529.000000,486.000000,43.000000,44.000000,0.000000,0.000000:
// measure 0
0000
0000
0000
0000
,  // measure 1
0000
0000
0000
0000
,  // measure 2
0000
0000
0000
0000
,  // measure 3
0000
0000
0000
0000
0000
0000
0000
0000
0000
0000
0001
0100
0010
1000
0001
0000
,  // measure 4
0200
0000
0000
0301
1000
0000
0100
0000
0010
0000
0100
1000
0010
0100
0001
0000
,  // measure 5
0020
0000
0000
0031
1000
0000
0010
0000
0100
0000
0010
1000
0001
0100
0001
0000
,  // measure 6
1000
0000
0000
0000
0010
0000
0000
0000
1000
0000
0000
0000
0100
0000
0000
0000
0000
0000
0010
0000
0000
0001
0000
0000
0000
0000
0000
1000
0000
0000
0000
0000
0000
0001
0000
0000
0000
0000
0000
0010
0000
0000
0000
0000
0000
0100
0000
0000
,  // measure 7
2000
0000
0000
3001
0100
0000
0000
0000
0010
0000
1000
0100
0010
0001
1000
0000
,  // measure 8
0002
0000
0000
0000
0000
0000
0000
0000
0000
0013
0000
0000
0100
0000
0000
0000
0000
0000
0100
0000
0000
0000
0000
0000
1100
0000
0000
0000
1000
0000
0000
0000
0010
0000
0000
0000
0100
0000
0000
0000
0000
0000
0001
0000
0000
1000
0000
0000
,  // measure 9
0000
0000
0100
1000
0100
1000
0100
0000
0110
0010
0000
0000
0011
0001
0000
0000
,  // measure 10
1001
0001
0100
0110
0000
0000
1010
0010
0100
0102
0000
0000
,  // measure 11
1003
0000
0000
0000
0000
0000
0001
0000
0000
1000
0000
0000
0000
0000
0000
0001
0000
0000
1000
0000
0000
0000
0000
0000
2001
0000
0000
0000
0000
0000
0000
0000
0000
3000
0001
0100
0002
0000
0000
0000
0000
0000
0000
0000
0000
0000
0000
0000
,  // measure 12
1003
0001
0000
0001
0100
0001
0100
0001
0010
0000
0001
0010
0000
0001
0000
0001
,  // measure 13
1000
0000
0000
0000
0010
0000
0000
0000
0010
0000
0000
0000
0100
0000
0000
0000
0001
0000
0000
0000
0001
0000
0000
0000
1000
0000
0000
0100
0000
0000
0000
0000
0000
0000
0000
0000
0100
0000
0000
0010
0000
0000
0000
0000
0000
0010
0000
0000
,  // measure 14
0001
0100
0010
1000
0000
0000
1000
0010
0100
0002
0000
0000
,  // measure 15
0103
1010
0101
2000
,  // measure 16
3001
0010
0000
0010
0100
1000
0100
1000
0010
0000
1000
0001
0000
0100
0000
0010
,  // measure 17
1000
0000
0000
0000
1000
0000
0000
0000
0100
0000
0000
0000
0010
0000
0000
0000
0010
0000
0000
0000
0001
0000
0000
0000
1000
0000
0000
0010
0000
0000
0000
0000
0000
0000
0000
0000
0010
0000
0000
0100
0000
0000
0000
0000
0000
0100
0000
0000
,  // measure 18
0001
1000
0100
1000
0000
1000
0001
0010
0001
2001
0000
0000
,  // measure 19
3100
0000
0200
0000
0000
0000
0310
0001
0010
0001
2000
0000
0001
0000
3002
0000
,  // measure 20
1003
0000
0000
1000
0001
0100
0002
0000
1003
0000
0000
0000
0001
0010
0002
0000
,  // measure 21
1003
0000
0000
1000
0010
1000
0200
0000
0310
0000
0010
0001
0010
0100
2000
0000
,  // measure 22
3010
0000
0010
1000
0010
0100
0001
1000
0001
0010
0100
1000
0001
0100
0002
0000
,  // measure 23
1003
0000
0000
1000
0010
1000
0100
1000
0001
0000
0001
0100
0001
0100
0010
0000
,  // measure 24
1010
0000
1000
0001
0100
0000
0101
0000
0001
1000
0100
0000
1100
0000
0040
0000
,  // measure 25
0031
0000
1000
0010
0100
0000
0110
0000
0010
1000
0001
0000
1001
0000
0004
0000
,  // measure 26
0013
0000
0100
0010
0001
0000
0011
0000
0001
0100
0010
0000
1010
0000
4000
0000
,  // measure 27
3001
0000
0000
0001
0000
0000
1001
0000
0001
0000
1000
0001
0100
0010
1000
0000
,  // measure 28
0020
0000
0000
1030
0001
0000
0010
0000
0100
0000
0010
0001
0100
0010
1000
0000
,  // measure 29
0200
0000
0000
1300
0001
0000
0100
0000
0010
0000
0100
0001
1000
0010
1000
0000
,  // measure 30
0001
0000
0000
0000
0100
0000
0000
0000
0001
0000
0000
0000
0010
0000
0000
0000
0000
0000
0100
0000
0000
1000
0000
0000
0000
0000
0000
0001
0000
0000
0000
0000
0000
1000
0000
0000
0000
0000
0000
0100
0000
0000
0000
0000
0000
0010
0000
0000
,  // measure 31
0002
0000
0000
1003
0010
0000
0000
0000
0100
0000
0001
0010
0100
1000
0001
0000
,  // measure 32
2000
0000
0000
0000
0000
0000
0000
0000
0000
3100
0000
0000
0010
0000
0000
0000
0000
0000
0010
0000
0000
0000
0000
0000
0011
0000
0000
0000
0001
0000
0000
0000
0100
0000
0000
0000
0010
0000
0000
0000
0000
0000
1000
0000
0000
0001
0000
0000
,  // measure 33
0000
0000
0010
0001
0010
0001
0010
0000
0110
0100
0000
0000
1100
1000
0000
0000
,  // measure 34
1001
1000
0010
0110
0000
0000
0101
0100
0010
2010
0000
0000
,  // measure 35
3100
0000
0010
0100
0000
0010
0200
0000
1300
0000
0001
1000
0000
0001
2000
0000
,  // measure 36
3001
0000
0000
0000
1000
0100
1000
0100
1000
0000
1000
0010
0000
0100
0000
0002
,  // measure 37
0000
0203
0320
1000
,  // measure 38
0230
0000
0000
0000
0000
0000
0000
0000
0000
0000
0000
0000
0000
0000
0000
0000
0000
0000
0000
0000
0000
0000
0000
0000
0000
0000
0000
0000
0000
0000
0000
0000
0000
0000
0000
0000
0000
0000
0000
0000
0000
0000
0000
0000
0000
0000
0000
0000
0301
0000
0000
0000
0000
0000
0000
0000
0000
0000
0000
0000
0010
0000
0000
0000
0000
0000
0000
0000
0000
0000
0000
0000
0001
0000
0000
0000
0000
0000
0000
0000
0000
0000
0000
0000
0100
0000
0000
0000
0000
0000
0000
0000
0000
0000
0000
0000
0010
0000
0000
0000
0000
0000
0000
0000
0000
0000
0000
0000
0000
0000
0000
0000
0000
0000
0000
0000
0000
0000
0000
0000
1000
0000
0000
0000
0000
0000
0000
0000
0000
0000
0000
0000
0100
0000
0000
0000
0000
0000
0000
0000
0000
0000
0000
0000
0000
0000
0000
0000
0000
0000
0000
0000
0000
0000
0000
0000
0000
0000
0000
0000
0010
0000
0000
0000
0000
0000
0000
0000
0000
0000
0000
0000
0000
0000
0000
0000
0000
0000
0000
0000
0000
0000
0000
0000
0000
0000
0002
0000
0000
0000
0000
0000
,  // measure 39
0000
0000
0000
0000
2003
0000
0000
0200
0000
0000
0000
0000
3300
0000
0000
0000
,  // measure 40
0010
0001
0010
0100
1000
0000
1000
0000
0010
0000
0100
0001
0000
0100
0010
0000
,  // measure 41
2000
0000
0001
0000
3002
0000
0000
0103
0000
0010
0100
0000
0110
0000
0000
0000
,  // measure 42
1010
0000
0000
0010
0100
0000
0100
0001
0000
1000
0000
0001
0010
0000
0010
0100
,  // measure 43
0000
1000
0000
0000
1010
0000
0000
0000
0101
0000
1000
0100
1000
0100
0010
0000
,  // measure 44
0001
1000
0000
1000
0001
0000
0100
0000
0110
0000
0010
1000
0010
0100
0001
0000
,  // measure 45
1000
0100
0000
0100
1000
0000
0001
0000
0011
0000
0010
0001
0010
0001
1000
0000
,  // measure 46
0010
0000
0000
0000
1000
0000
0000
0000
1000
0000
0000
0000
0001
0000
0000
0000
0000
0000
0100
0000
0000
0000
0000
0000
0110
0000
0000
0000
0000
0000
0010
0000
0000
0100
0000
0000
0000
0000
0000
0001
0000
0000
0000
0000
0000
0010
0000
0000
,  // measure 47
0200
0000
0000
0310
0000
0000
0001
0000
1001
0000
1000
0100
1000
0100
1000
0000
,  // measure 48
0001
0000
0000
0100
0000
0000
0000
0000
0000
0100
0000
0000
0010
0000
0000
0000
0000
0000
1000
0000
0000
0000
0000
0000
1001
0000
0000
0000
0001
0000
0000
0000
1000
0000
0000
0000
0010
0000
0000
0000
0000
0000
0100
0000
0000
0001
0000
0000
,  // measure 49
0000
0000
1000
0010
1000
0010
1000
0000
0101
0100
0000
0000
0110
0010
0000
0000
,  // measure 50
1001
0001
0010
0110
0000
0000
0011
0001
1000
1200
0000
0000
,  // measure 51
1300
0000
0000
0000
0000
0000
1000
0000
0000
0001
0000
0000
0000
0000
0000
1000
0000
0000
0001
0000
0000
0000
0000
0000
2000
0000
0000
0000
0000
0000
0000
0000
0000
0000
0000
0000
0000
0000
0000
0000
0000
0000
3100
0000
0010
0000
0100
0000
,  // measure 52
0020
0000
0000
0031
0000
0000
0010
0001
0200
0000
0000
0310
0000
0000
2000
0000
,  // measure 53
3001
0000
0000
0000
1000
0000
0001
0000
0000
0000
1000
0000
0001
0000
0000
0000
1002
0000
0000
0000
0000
0000
0000
0000
0000
0000
0000
0000
0013
0100
0010
0100
,  // measure 54
0020
0000
0000
0031
0000
0000
0100
0001
0020
0000
0000
0130
0000
0000
2000
0000
,  // measure 55
3010
0000
0100
0010
0000
0100
0010
0000
1001
0000
0000
0000
0000
0000
0000
0000
;

//---------------dance-single - ----------------
#NOTES:
     dance-single:
     :
     Easy:
     3:
     0.222235,0.272647,0.147377,0.327504,0.008188,190.000000,172.000000,18.000000,40.000000,0.000000,0.000000,0.222235,0.272647,0.147377,0.327504,0.008188,190.000000,172.000000,18.000000,40.000000,0.000000,0.000000:
// measure 0
0000
0000
0000
0000
,  // measure 1
0000
0000
0000
0000
,  // measure 2
0000
0000
0000
0000
,  // measure 3
0000
0000
0000
0000
,  // measure 4
2002
3003
0001
0100
,  // measure 5
0220
0330
1000
0100
,  // measure 6
0010
0010
0001
0001
,  // measure 7
2002
3003
1000
0100
,  // measure 8
0220
0330
0001
0100
,  // measure 9
0010
0000
0110
0110
,  // measure 10
0100
0100
0001
0001
,  // measure 11
1000
0001
2002
3003
,  // measure 12
0000
0001
0100
0010
,  // measure 13
0100
0100
0001
0000
,  // measure 14
1000
1000
0001
0001
,  // measure 15
1000
2000
0002
3003
,  // measure 16
0000
1000
0100
0010
,  // measure 17
0100
0100
1000
0000
,  // measure 18
0001
0001
1000
1000
,  // measure 19
0002
0000
0000
0000
2000
0000
0000
3003
,  // measure 20
0000
0000
1000
1000
0000
0000
0001
0001
,  // measure 21
0000
0000
0100
0100
0000
0000
0010
0010
,  // measure 22
0000
0000
0100
0000
0001
0000
1000
1000
,  // measure 23
0000
0000
0100
0000
1000
0000
0001
0001
,  // measure 24
0010
0100
1000
0010
,  // measure 25
0001
0010
1000
0100
,  // measure 26
0001
0100
1000
0001
,  // measure 27
1000
0000
0000
1000
0000
0000
0000
0000
0001
0000
0000
0001
0000
0000
0000
0000
,  // measure 28
2002
3003
0100
0010
,  // measure 29
0220
0330
0100
0010
,  // measure 30
0100
1000
0001
0100
,  // measure 31
0010
0000
0100
0001
,  // measure 32
2002
3003
1000
0100
,  // measure 33
0010
0000
0110
0110
,  // measure 34
1000
1000
0001
0001
,  // measure 35
0100
0100
0200
0000
,  // measure 36
0320
0030
0200
0301
,  // measure 37
2000
0000
0200
3300
,  // measure 38
2000
3000
0010
0100
,  // measure 39
0002
0000
0020
0033
,  // measure 40
0200
0300
1000
0001
,  // measure 41
0100
0100
0010
0010
,  // measure 42
2000
0100
0000
0010
,  // measure 43
0000
3002
0203
0320
,  // measure 44
2030
0001
0100
0100
,  // measure 45
3002
1000
0100
0103
,  // measure 46
0010
1000
0100
0010
,  // measure 47
0110
0000
0010
0001
,  // measure 48
1001
0001
0010
0100
,  // measure 49
1000
1000
1001
0110
,  // measure 50
0010
0010
1000
1000
,  // measure 51
0100
0100
0200
0300
,  // measure 52
0020
0030
0200
0300
,  // measure 53
1000
0001
1001
0000
,  // measure 54
0200
0300
0020
0030
,  // measure 55
1000
0001
1001
0000
;

//---------------dance-single - ----------------
#NOTES:
     dance-single:
     :
     Medium:
     6:
     0.353236,0.386250,0.180127,0.302941,0.216971,302.000000,280.000000,22.000000,37.000000,0.000000,0.000000,0.353236,0.386250,0.180127,0.302941,0.216971,302.000000,280.000000,22.000000,37.000000,0.000000,0.000000:
// measure 0
0000
0000
0000
0000
,  // measure 1
0000
0000
0000
0000
,  // measure 2
0000
0000
0000
0000
,  // measure 3
0000
0000
0000
0000
,  // measure 4
1000
0001
0000
0000
0100
0000
0010
0000
1000
0000
0000
1000
0000
0000
0001
0000
,  // measure 5
0000
0000
0010
0000
0100
0000
0010
0000
0001
1000
0000
0000
1000
0001
0000
0000
,  // measure 6
0101
0000
0000
0000
0100
0000
0010
0000
1000
0000
0000
0100
0000
0000
1000
0000
,  // measure 7
0000
0010
0100
0010
0100
0000
0110
0000
,  // measure 8
1000
0001
0000
0000
1000
0000
0100
0000
0010
0000
0000
0100
0000
0000
1000
0000
,  // measure 9
0000
0000
0001
0000
0100
0000
0001
0000
0100
0010
0000
0000
0010
1000
0000
0000
,  // measure 10
1100
0000
0000
0000
0100
0000
1000
0000
0001
0000
0000
1000
0000
0000
1001
0000
,  // measure 11
0000
0000
0000
0000
0000
0000
0000
0000
0020
0000
0000
0000
0000
0030
0000
0000
,  // measure 12
1000
0100
0000
0000
1000
0000
0001
0000
0100
0000
0000
0010
0000
0000
1000
0000
,  // measure 13
0100
0000
0000
0000
1000
0000
0000
0000
0100
0010
0000
0000
0010
0001
0000
0000
,  // measure 14
0001
1000
0000
0000
0100
0000
0010
0000
0100
0000
0000
1000
0000
0000
0010
0000
,  // measure 15
1000
1010
0110
0002
,  // measure 16
1003
0100
0000
0000
0010
0000
0100
0000
1000
0000
0000
0001
0000
0000
1000
0000
,  // measure 17
0001
0000
0000
0000
0100
0000
0000
0000
0010
1000
0000
0000
1000
0100
0000
0000
,  // measure 18
0010
0100
0000
0000
0010
0000
0001
0000
0010
0000
0000
0100
0000
0000
1000
0000
,  // measure 19
0000
0000
0000
0001
0001
0000
2000
0000
,  // measure 20
3200
0000
0000
0000
1300
0000
0001
0000
0100
0000
0000
0100
0000
0000
0000
0000
,  // measure 21
0020
0000
0000
0000
0130
0000
0001
0000
0010
0000
0000
0010
0000
0000
0000
0000
,  // measure 22
0002
0000
0000
0000
0013
0000
0100
0000
1000
0000
0000
1000
0000
0000
0000
0000
,  // measure 23
0200
0000
2300
0000
3001
1000
0100
1000
,  // measure 24
0100
0000
0010
0000
0100
0000
1000
0000
0010
0000
0000
0010
0000
0000
0100
0000
,  // measure 25
0001
0000
0100
0000
0010
0000
1000
0000
0100
0000
0000
0100
0000
0000
0010
0000
,  // measure 26
0001
0000
0100
0000
0001
0000
0010
0000
0100
0000
0000
0100
0000
0000
0000
0000
,  // measure 27
1000
0000
0000
1000
0000
0000
0000
0000
0001
0000
0000
0001
0000
0000
0000
0000
,  // measure 28
1000
0001
0000
0000
0001
0000
0100
0000
0001
0000
0000
1000
0000
0000
0001
0000
,  // measure 29
0000
0010
0100
0010
0100
0000
0110
0000
,  // measure 30
1000
0000
0000
0000
0010
0000
0100
0000
0001
0000
0000
0100
0000
0000
0101
0000
,  // measure 31
0000
0100
0001
1000
0100
0000
1100
0000
,  // measure 32
1000
0010
0000
0000
0100
0000
0010
0000
1000
0000
0000
0001
0000
0000
1001
0000
,  // measure 33
0000
0000
0001
0000
1000
0000
0010
0000
0100
0010
0000
0000
0010
1000
0000
0000
,  // measure 34
1001
0000
0000
0000
1000
0000
0100
0000
0010
0000
0000
0001
0000
0000
1001
0000
,  // measure 35
0000
0000
0000
0000
0000
0000
0000
0000
2000
0000
0000
0000
0000
3000
0000
0000
,  // measure 36
0001
0000
0100
0010
2000
0000
3100
0010
,  // measure 37
0002
0103
0220
0330
,  // measure 38
0002
0000
0013
0100
2000
0000
3010
0100
,  // measure 39
0002
1003
2002
3003
,  // measure 40
2000
0000
3010
0100
0002
0000
1003
0100
,  // measure 41
0020
0230
2300
0000
,  // measure 42
3002
0010
0000
0100
,  // measure 43
0000
2003
3200
0320
,  // measure 44
0032
0000
0000
0000
1000
0000
1000
0000
1000
0000
0000
0100
0000
0000
1000
0000
,  // measure 45
0003
0000
0001
0000
0010
0000
0100
0000
1000
0010
0000
0000
0010
1000
0000
0000
,  // measure 46
1100
0000
0000
0000
0010
0000
0001
0000
0100
0000
0000
0010
0000
0000
1010
0000
,  // measure 47
0000
0001
0010
0001
0010
0000
0110
0000
,  // measure 48
0100
1000
0000
0000
0010
0000
0100
0000
0001
0000
0000
1000
0000
0000
1001
0000
,  // measure 49
0000
0000
0001
0000
0100
0000
0010
0000
1000
0100
0000
0000
0100
0010
0000
0000
,  // measure 50
0110
0000
0000
0000
0001
0000
0010
0000
0100
0000
0000
1000
0000
0000
1001
0000
,  // measure 51
0000
0000
0002
0000
,  // measure 52
0203
0000
0000
0310
0000
0000
1000
0000
0200
0000
0000
0310
0000
0000
0200
0000
,  // measure 53
1300
0000
0000
0001
0000
0000
1000
0000
2002
0000
0000
0000
0000
3003
0000
0000
,  // measure 54
2000
0000
0000
3001
0000
0000
0100
0000
0020
0000
0000
1030
0000
0000
0200
0000
,  // measure 55
0310
0000
0000
0010
0000
0000
0010
0000
1001
0000
0000
0000
0000
0000
0000
0000
;
