#TITLE:Megalara Garuda;
#SUBTITLE:;
#ARTIST:SYUNN;
#TITLETRANSLIT:;
#SUBTITLETRANSLIT:;
#ARTISTTRANSLIT:;
#GENRE:;
#CREDIT:;
#BANNER:Megalara Garuda-bn.png;
#BACKGROUND:Megalara Garuda-bg.png;
#LYRICSPATH:;
#CDTITLE:;
#MUSIC:Megalara Garuda.ogg;
#OFFSET:2.250000;
#SAMPLESTART:32.416668;
#SAMPLELENGTH:20.000000;
#LASTBEATHINT:1.875000;
#SELECTABLE:YES;
#DISPLAYBPM:90.000000:360.000000;
#BPMS:0.000000=90.000000
,20.000000=180.000000
,84.000000=360.000000
,244.000000=180.000000
,248.000000=90.000000
,264.000000=180.000000
,296.000000=90.000000
,312.000000=360.000000
,376.000000=90.000000
;
#STOPS:
;
#BGCHANGES:;
#KEYSOUNDS:;
#ATTACKS:;

//---------------dance-single - X Scale 17----------------
#NOTES:
     dance-single:
     :
     Hard:
     10:
     0.939712,1.730897,0.620727,0.689697,0.694007,763.000000,691.000000,72.000000,80.000000,0.000000,0.000000,0.939712,1.730897,0.620727,0.689697,0.694007,763.000000,691.000000,72.000000,80.000000,0.000000,0.000000:
0000
0000
0000
0000
,
0000
0000
0000
0000
,
0000
0000
0000
0000
,
0001
2000
0000
0010
0000
0100
0000
3001
0000
1000
0010
1000
0000
0010
0100
0001
,
0000
0200
0000
0310
0000
0100
0001
1000
0000
0002
0000
0103
0000
0001
1000
0010
,
1000
0020
0000
1000
0000
0001
0000
0130
,
0000
0010
0100
0010
0000
1000
0001
1000
,
0000
0002
0000
1003
0000
0100
1000
0010
,
0000
0200
0000
0301
0000
0100
0010
1000
,
1001
0010
0100
0000
0001
1000
0010
0000
,
1000
0100
0001
0000
0100
0010
1000
0000
,
0001
0010
0100
0000
1000
0001
0100
0000
,
0101
0000
0000
0000
0000
0000
0000
0000
0000
1100
0000
0000
0000
0000
0000
0000
0000
0000
0010
0000
0000
0100
0000
0000
0001
0000
0000
0000
0010
0000
0000
0000
0100
0000
0000
0000
1000
0000
0000
0000
0100
0000
0000
0000
0010
0000
0000
0000
,
0001
1000
0010
0200
0000
0301
0100
0020
,
0000
0000
1030
0000
0010
0100
0010
0100
0010
0000
1000
0000
0001
0000
0100
0000
,
0001
0010
1000
0010
0001
0100
1000
0100
,
0001
0000
1000
0000
0100
0010
0100
0010
0100
0000
1000
0000
0010
0000
0001
0000
,
1000
0001
0010
0002
0000
0103
0010
2000
,
0000
0000
3001
0000
1000
0000
0020
0000
0000
0000
0130
0010
0100
0000
0001
0000
,
1000
0010
0100
0010
1000
0100
0010
0002
,
0000
0000
0013
0000
0001
1000
0001
1000
0001
0000
0010
0000
0100
0000
1000
0000
,
1001
0010
0200
0300
,
0001
0010
0001
0010
0001
0010
0001
0010
,
0100
1000
0010
1000
0002
0000
0003
0000
,
0011
0000
0010
0001
0100
0001
1000
0100
,
2000
0010
0002
3003
,
0100
0010
0100
0010
1000
0001
1000
0001
,
0200
0000
0010
0000
2000
0000
3300
0100
,
0001
1000
0010
1000
0001
0000
0100
0000
,
0202
0303
2200
3300
,
0010
0100
0010
0100
0001
0010
0100
1000
,
0100
1000
0100
1000
0001
0000
0010
0000
,
0110
0000
0110
0000
0100
1000
0010
0100
,
0020
1030
0020
0130
,
0001
0100
0001
0100
0001
0000
1000
0000
,
1010
0000
1000
0100
0001
0100
1000
0000
,
0101
0000
0101
0000
0010
0100
0010
0000
,
2000
3200
0320
0032
,
0103
0010
0100
0010
0100
0010
0100
0010
,
1000
0001
0100
0001
1000
0000
0010
0000
,
0100
0001
1000
0000
0010
0000
0100
0000
,
0002
0023
0230
2300
,
3010
1000
0010
1000
0001
0100
0001
0100
,
0001
0101
1000
1100
,
0010
0100
0001
0010
0100
1000
0001
1000
,
0020
0230
0302
2003
,
3001
0010
0100
1000
0001
0100
0010
1000
,
0100
1000
0001
1000
0010
0000
0100
0000
,
0001
0000
1000
0010
0100
0010
1000
0000
,
1001
0101
1001
1100
,
0001
0010
0001
0010
0001
0000
0100
0000
,
0001
1000
0010
0100
0010
0100
0001
1000
,
0100
1000
0001
0010
1000
0001
0100
0010
,
0200
0300
0110
0110
,
0101
0101
2000
3000
,
1001
1001
1100
1100
,
0011
0000
0011
0000
0100
0010
0100
0010
,
0200
0300
0110
0110
,
1010
1010
1001
1001
,
0011
0011
1100
1100
,
0011
0101
1010
1100
,
2002
0000
0000
3003
0000
0000
1000
0100
0010
0001
0010
0100
,
1000
0000
0100
0000
0010
0000
0002
0000
0000
0000
0103
0000
0010
0000
2000
0000
0000
0000
3001
0000
1000
0100
1000
0100
1000
0000
0010
0000
0100
0000
0001
0000
,
1000
0000
0010
0000
0001
0000
0010
0000
1000
0000
0100
0000
0001
0000
0100
0000
1000
0000
0010
0000
0100
0001
0100
0001
0100
0000
0010
0000
1000
0000
0001
0000
,
0100
0000
0010
0000
1000
0000
0002
0000
0000
0000
0013
0000
0001
0000
0200
0000
0000
0000
0310
0000
1000
0000
0020
0000
0000
0000
1030
0001
1000
0000
0010
0000
,
0100
0000
0001
0000
0100
0000
0010
0000
1000
0000
0010
0000
1000
0000
0002
0000
0000
0000
0103
0000
0010
1000
0010
1000
0010
0000
0100
0000
0001
0000
1000
0000
,
1100
0000
1000
0000
0001
0000
0201
0000
0000
0000
0310
0100
0010
0000
2010
0000
,
0000
0000
3001
1000
0001
0010
0100
1000
0010
0000
0100
0000
0001
0000
1000
0000
,
1010
1000
0001
0012
0000
0103
1001
0010
,
1000
0000
1000
0000
1000
0100
0010
0001
0100
0000
0001
0000
0100
0000
0010
0000
,
1010
0000
1000
0000
0010
0000
0210
0000
0000
0000
0301
0100
0001
0000
0021
0000
,
0000
0000
0031
0000
0001
0100
0010
1000
0010
0000
0100
0000
0001
0000
1000
0000
,
0010
0100
0010
2010
0000
3100
0010
0012
,
0000
0000
1003
0000
0001
0100
0010
0100
0010
0000
1000
0000
0001
0000
0100
0000
,
2001
0000
0000
3020
0000
0000
0130
0001
0200
0000
0000
0320
0000
0000
1030
0001
0010
0001
1000
0000
0000
0000
1000
0100
0010
0000
0000
0010
0001
0100
0001
0000
,
1000
1000
0000
1100
0000
0100
0010
0010
0000
0011
0000
0001
0100
0100
0000
0101
0000
0001
1000
1000
0000
1010
0000
0010
,
0210
0000
0000
0320
0000
0000
1030
0010
2000
0000
0000
3002
0000
0000
0103
0001
1000
0001
0100
0000
0000
0000
0100
0010
1000
0000
0000
1000
0100
0010
0001
0000
,
0010
0010
0000
0011
0000
0001
0100
0100
0000
0101
0000
0010
1000
1000
0000
1100
0000
1000
0010
0010
0000
1010
0000
0001
,
1002
0100
2000
3003
,
1000
0100
1000
0100
0010
0001
0010
0001
,
0100
0001
0100
1000
0200
0000
0300
0000
,
0101
0000
0100
0010
1000
0010
0100
0001
,
2000
0001
3200
0320
,
0031
0100
0010
0100
0010
1000
0001
1000
,
0020
0000
0130
0000
0220
0000
0330
0100
,
0001
1000
0001
1000
0010
0100
0010
0100
,
0002
1003
0020
0130
,
0001
1000
0100
0010
0100
1000
0001
0010
,
0100
1000
0100
1000
0001
0000
0100
0000
,
1001
0000
1001
0000
1000
0100
0010
0001
,
0200
0310
1000
1001
,
0001
1000
0010
1000
0001
0000
0100
0000
,
0101
0000
0000
1100
0000
0000
0010
0100
,
0001
0000
0010
0000
0100
0000
1000
0000
0100
0000
0010
0000
,
0001
2000
0000
0100
0000
0001
0000
3100
0000
1000
0100
0010
0000
0010
0001
0100
,
0000
0020
0000
1030
0000
0001
1000
0010
0000
0200
0000
0301
0000
0010
0001
0100
,
0010
2000
0000
0100
0000
0001
0000
3010
0000
1000
0100
1000
0000
0001
0100
0010
,
0000
2000
0000
3010
0000
0100
0010
1000
0000
0002
0000
1003
0000
0100
1000
0001
;

//---------------dance-single - X Scale 12----------------
#NOTES:
     dance-single:
     :
     Medium:
     9:
     0.619496,1.477595,0.344848,0.327606,0.383644,503.000000,463.000000,40.000000,38.000000,0.000000,0.000000,0.619496,1.477595,0.344848,0.327606,0.383644,503.000000,463.000000,40.000000,38.000000,0.000000,0.000000:
0000
0000
0000
0000
,
0000
0000
0000
0000
,
0000
0000
0000
0000
,
0001
2000
0000
0010
0000
0100
0000
3001
0000
1000
0000
0100
0000
0010
0000
0001
,
0000
0200
0000
0010
0000
1000
0000
0301
0000
0100
0000
0001
0000
1000
0000
0010
,
1000
0002
0000
0100
0000
1000
0000
0013
,
0000
0001
0000
0010
0000
0100
0000
1000
,
0000
0020
0000
0001
0000
0100
0000
1030
,
0000
1000
0000
0001
0000
0100
0000
0010
,
1001
0000
0010
0000
1000
0001
0100
0000
,
0001
0000
0010
0000
0001
1000
0100
0000
,
1000
0010
1000
0000
0001
0010
0001
0000
,
0010
0000
0000
0000
0000
0000
0000
0000
0000
0010
0000
0000
0000
0000
0000
0000
0000
0000
0010
0000
0000
0000
0000
0000
1000
0000
0000
0000
0000
0000
0000
0000
1000
0000
0000
0000
0001
0000
0000
0000
0000
0000
0000
0000
0001
0000
0000
0000
,
0100
0000
0001
0002
0000
0000
1003
2000
,
0000
0000
3010
0100
0001
0010
0100
0000
,
1000
0000
0010
1000
0100
0000
0010
0001
,
0100
0010
0100
0000
0001
1000
0001
0000
,
1000
0000
0010
0020
0000
0000
0130
0200
,
0000
0000
0301
0002
0000
0000
1003
1000
,
0010
0000
0010
1000
0001
0000
0100
0200
,
0000
0000
0310
0000
1000
0100
0010
0001
,
1001
0000
0110
0000
,
1000
0100
0010
0001
,
0100
0010
1000
0000
,
0100
0001
1000
0001
,
0101
0000
1100
0000
,
0010
0100
0001
0000
,
1000
0100
0010
0001
,
0010
0100
1000
0000
,
1100
0000
0011
0000
,
1000
0001
0100
0001
,
0100
0010
1000
0000
,
1000
0001
0010
0000
,
0022
0030
0103
0000
,
2020
0030
3100
0000
,
2002
3000
0103
0000
,
0001
0010
1000
0000
,
1000
0001
1000
0001
,
0100
0010
0100
0010
,
0100
0001
0100
0001
,
1000
0010
1000
0010
,
1000
0100
1000
0100
,
0010
0001
0010
0001
,
1000
0001
0100
0010
,
1000
0100
0010
0001
,
1000
0100
1000
0100
,
1000
0010
1000
0010
,
0100
0001
0100
0001
,
0010
0001
0010
0001
,
0100
0010
0100
0010
,
1000
0001
1000
0001
,
0010
0001
1000
0100
,
1000
0010
0100
0001
,
0100
0000
0010
0010
,
0010
0010
0110
0000
,
1000
1000
0001
0001
,
0100
0000
0100
0000
0010
0100
0010
0100
,
0010
0000
1000
1000
,
0100
0100
0010
0010
,
0001
0001
0010
0010
,
0100
0100
1000
1000
,
2002
3000
0010
0103
,
0010
0000
0100
0200
0000
0000
0301
0002
0000
0000
1003
0100
0010
0100
1000
0000
,
0001
0000
0100
0010
1000
0000
0001
1000
0010
0100
0010
0000
0100
0001
0100
0000
,
0001
0000
1000
2000
0000
0000
3010
0020
0000
0000
0130
0200
0000
0000
0301
0001
,
1000
0000
0010
1000
0100
0000
0001
0002
0000
0000
0013
0000
0001
1000
0010
0100
,
0001
0010
0100
2000
0000
3010
0100
0002
,
0000
0000
1003
0010
0100
0010
1000
0002
,
0000
0103
0001
0020
0000
0031
1000
0100
,
1000
0100
0001
0000
0100
0010
1000
0000
,
1000
0001
0100
0020
0000
0130
0001
2000
,
0000
3010
1000
0100
0010
0001
1000
0000
,
0001
1000
0010
0200
0000
0310
0100
0002
,
0000
1003
0001
0000
1000
0100
0010
0001
,
1001
0000
0000
0000
0110
0000
0000
0000
1000
0000
0000
0001
0000
0000
0100
0000
0010
0000
0110
0000
0000
0000
0100
0000
0101
0000
0000
0101
0000
0000
0101
0000
,
0001
1000
0000
1100
0000
0000
1000
0010
0000
0110
0000
0000
0010
0100
0000
0101
0000
0000
0001
0010
0000
0011
0000
0000
,
0101
0000
0000
0000
1100
0000
0000
0000
1000
0000
0000
0010
0000
0000
0100
0000
0001
0000
1001
0000
0000
0000
1000
0000
1010
0000
0000
1010
0000
0000
1010
0000
,
0010
0100
0000
0101
0000
0000
0100
0001
0000
0011
0000
0000
0001
1000
0000
1001
0000
0000
1000
0010
0000
1100
0000
0000
,
1010
0000
0101
0000
,
0001
0010
0001
0010
,
0001
1000
0100
0000
,
1000
0001
0100
0010
,
0110
0000
0101
0000
,
0010
0001
0100
0000
,
0010
1000
0001
1000
,
0100
0010
0001
0000
,
1100
0000
0101
0000
,
1000
0100
1000
0000
,
0001
0100
0001
0000
,
0010
0100
0010
0000
,
2010
0000
3100
0000
,
0012
0000
0103
0000
,
0010
0000
0000
0010
0000
0000
0010
0000
,
1000
0000
0000
0000
1000
0000
0001
0000
0000
0000
0001
0000
,
1000
0020
0000
0001
0000
1000
0000
0130
0000
0010
0000
0100
0000
0001
0000
1000
,
0000
0002
0000
0100
0000
1000
0000
0013
0000
0001
0000
0010
0000
0100
0000
1000
,
0010
2000
0000
0100
0000
0001
0000
3010
0000
1000
0000
0100
0000
0010
0000
0001
,
0000
0200
0000
1000
0000
0010
0000
0301
0000
0100
0000
0010
0000
1000
0000
0001
;

//---------------dance-single - X Scale 9----------------
#NOTES:
     dance-single:
     :
     Easy:
     7:
     0.438450,1.179813,0.465545,0.120697,0.043106,356.000000,302.000000,54.000000,14.000000,0.000000,0.000000,0.438450,1.179813,0.465545,0.120697,0.043106,356.000000,302.000000,54.000000,14.000000,0.000000,0.000000:
0000
0000
0000
0000
,
0000
0000
0000
0000
,
0000
0000
0000
0000
,
0001
0001
1000
1000
,
0010
0010
0100
0100
,
0010
0000
0010
0000
,
1000
0000
1000
0000
,
0100
0000
0100
0000
,
0001
0000
0001
0000
,
1001
0000
0100
0000
0000
1000
0010
0000
,
1000
0000
0001
0000
0000
0100
0010
0000
,
1000
0000
0100
0000
0000
0010
0001
0000
,
0220
0030
1000
0301
,
0010
0000
0000
0101
0000
0000
0000
1100
,
0000
0000
0001
0000
1000
0010
0100
0000
,
0001
0001
1000
1000
,
0010
1000
0001
0100
,
0001
0000
0000
0101
0000
0000
0000
1100
,
0000
0000
0000
1001
0000
0000
0000
0110
,
0000
0010
1000
0100
,
0000
0000
0010
0000
0001
1000
0100
0000
,
1001
0000
0100
0000
,
0001
0000
0001
0000
,
1000
0000
0100
0000
,
0010
0000
0001
0000
,
0100
0000
0110
0000
,
0010
0000
1000
0000
,
0001
0000
1000
0000
,
0100
0000
0010
0000
,
0101
0000
1100
0000
,
1000
0000
0001
0000
,
1000
0100
1000
0000
,
0010
0000
0010
0000
,
0002
0000
1003
0000
,
2000
0000
3010
0000
,
0020
0000
0130
0000
,
0200
0000
0301
0000
,
1000
0000
1100
0000
,
0001
0100
0010
0000
,
0100
0000
1001
0000
,
0010
1000
0001
0000
,
0010
0000
0110
0000
,
0100
1000
0001
0000
,
0001
0000
0101
0000
,
0010
0100
1000
0000
,
1010
0000
0011
0000
,
1000
0001
0010
0000
,
0011
0000
1010
0000
,
0001
1000
0010
0000
,
1010
0000
0011
0000
,
0010
0001
1000
0000
,
0011
0000
1010
0000
,
0010
1000
0001
0000
,
0100
0000
0001
1000
,
0001
1000
0000
0000
,
0010
0100
0010
0100
,
0010
0100
0000
0000
,
0000
0000
0001
0010
,
0001
0010
0100
1000
,
0100
1000
0010
0100
,
0001
0010
0100
1000
,
0020
0000
1000
0031
,
1000
0000
0000
1010
0000
0000
0000
0011
0000
0000
0100
0000
0001
1000
0010
0000
,
0100
0100
0010
0010
0001
1000
0010
0100
,
0001
0000
0000
1001
0000
0000
0000
0110
0000
0000
0000
0101
0000
0000
0000
1100
,
0000
0000
1000
0000
0100
0000
0001
0000
0000
0000
0100
0000
0010
1000
0001
0000
,
1000
0001
0100
0010
,
1000
0100
0010
0001
,
0100
0001
0010
1000
,
0001
0100
0010
1000
,
0010
1000
0100
0001
,
0010
0001
0100
1000
,
0001
1000
0100
0010
,
0100
1000
0001
0010
,
1001
0000
0000
0000
0001
0000
0100
0000
1000
1000
0000
0000
1010
0000
0101
0000
,
1100
1100
0101
0101
0011
0011
1010
1010
,
0110
0000
0000
0000
0010
0000
1000
0000
0001
0001
0000
0000
0011
0000
1100
0000
,
0101
0101
1100
1100
1010
1010
0011
0011
,
2000
0000
3002
0000
,
0103
0010
0100
0000
,
0001
0010
0100
0000
,
2000
0000
3010
0000
,
0200
0000
0302
0000
,
1003
0100
1000
0100
,
1000
0000
0010
0000
,
0100
0000
0001
0000
,
0100
0000
0100
0000
,
0001
0000
1000
0000
,
0001
0100
0001
0000
,
1000
0100
1000
0000
,
0002
0000
1003
0000
,
0020
0000
0130
0000
,
0110
0000
1001
0000
,
1000
0000
0001
0000
,
0010
0010
0100
0100
,
0001
0001
1000
1000
,
0100
0100
1000
1000
,
0010
0010
0001
0001
;

//---------------dance-single - X Scale 5----------------
#NOTES:
     dance-single:
     :
     Beginner:
     3:
     0.210604,0.630426,0.155182,0.000000,0.000000,171.000000,153.000000,18.000000,0.000000,0.000000,0.000000,0.210604,0.630426,0.155182,0.000000,0.000000,171.000000,153.000000,18.000000,0.000000,0.000000,0.000000:
// measure 0
0000
0000
0000
0000
,  // measure 1
0000
0000
0000
0000
,  // measure 2
0000
0000
0000
0000
,  // measure 3
0001
0000
1000
0000
,  // measure 4
0010
0000
0100
0000
,  // measure 5
0001
0000
0000
0000
,  // measure 6
0010
0000
0000
0000
,  // measure 7
0100
0000
0000
0000
,  // measure 8
1000
0000
0000
0000
,  // measure 9
1001
0000
1000
0000
,  // measure 10
0110
0000
0010
0000
,  // measure 11
0100
0000
0001
0000
,  // measure 12
0110
0000
1001
0000
,  // measure 13
1000
0000
1000
0000
,  // measure 14
1000
0000
0000
0000
,  // measure 15
0001
0000
0001
0000
,  // measure 16
0100
0000
0010
0000
,  // measure 17
1000
0000
1000
0000
,  // measure 18
0001
0000
0001
0000
,  // measure 19
0100
0000
0010
0000
,  // measure 20
0000
0000
0010
0000
,  // measure 21
1001
0000
0000
0000
,  // measure 22
0010
0000
0000
0000
,  // measure 23
1000
0000
1000
0000
,  // measure 24
1000
0000
0000
0000
,  // measure 25
0110
0000
0000
0000
,  // measure 26
0100
0000
0000
0000
,  // measure 27
0001
0000
0001
0000
,  // measure 28
0001
0000
0000
0000
,  // measure 29
0010
0000
0000
0000
,  // measure 30
1000
0000
0000
0000
,  // measure 31
0100
0000
0100
0000
,  // measure 32
0100
0000
0000
0000
,  // measure 33
0001
0000
0000
0000
,  // measure 34
0001
0000
0000
0000
,  // measure 35
1000
0000
0000
0000
,  // measure 36
1000
0000
0000
0000
,  // measure 37
0010
0000
0000
0000
,  // measure 38
0010
0000
0000
0000
,  // measure 39
0010
0000
0000
0000
,  // measure 40
0010
0000
0000
0000
,  // measure 41
0100
0000
0000
0000
,  // measure 42
0100
0000
0000
0000
,  // measure 43
0100
0000
0000
0000
,  // measure 44
0100
0000
0000
0000
,  // measure 45
0001
0000
0000
0000
,  // measure 46
0001
0000
0000
0000
,  // measure 47
1000
0000
0000
0000
,  // measure 48
1000
0000
0000
0000
,  // measure 49
0001
0000
0000
0000
,  // measure 50
0001
0000
0000
0000
,  // measure 51
1000
0000
0000
0000
,  // measure 52
1000
0000
0000
0000
,  // measure 53
0000
0000
0010
0000
,  // measure 54
0010
0000
0000
0000
,  // measure 55
1000
0000
1000
0000
,  // measure 56
1000
0000
1000
0000
,  // measure 57
0000
0000
0001
0000
,  // measure 58
0001
0000
0001
0000
,  // measure 59
0100
0000
0010
0000
,  // measure 60
0100
0000
0010
0000
,  // measure 61
1000
0000
0000
0000
,  // measure 62
0001
0001
0001
0000
,  // measure 63
1000
1000
0010
0100
,  // measure 64
0001
0001
0100
0100
,  // measure 65
0010
1000
0000
1000
,  // measure 66
0010
0000
0010
0000
,  // measure 67
0100
0000
0001
1000
,  // measure 68
0001
0000
0010
0000
,  // measure 69
1000
0000
0100
0000
,  // measure 70
1000
0000
1000
0000
,  // measure 71
0100
0000
0100
0000
,  // measure 72
0010
0000
0010
0000
,  // measure 73
0001
0000
0001
0000
,  // measure 74
1001
0010
1000
0001
,  // measure 75
0110
0110
1001
1001
,  // measure 76
0110
1000
0100
0001
,  // measure 77
1001
1001
0110
0110
,  // measure 78
1000
0000
0000
0000
,  // measure 79
0001
0000
0000
0000
,  // measure 80
0100
0000
0100
0000
,  // measure 81
0100
0000
0100
0000
,  // measure 82
0010
0000
0000
0000
,  // measure 83
1000
0000
0000
0000
,  // measure 84
0001
0000
0001
0000
,  // measure 85
0001
0000
0000
0000
,  // measure 86
0100
0000
0000
0000
,  // measure 87
0100
0000
0000
0000
,  // measure 88
0010
0000
0000
0000
,  // measure 89
0010
0000
0000
0000
,  // measure 90
1000
0000
0000
0000
,  // measure 91
0001
0000
0000
0000
,  // measure 92
1001
0000
0000
0000
,  // measure 93
0110
0000
0000
0000
,  // measure 94
1000
0000
1000
0000
,  // measure 95
0100
0000
0100
0000
,  // measure 96
0010
0000
0010
0000
,  // measure 97
0001
0000
0001
0000
;
