#TITLE:MOONLIGHT;
#SUBTITLE:(WORLD CLUB MIX);
#ARTIST:J & B;
#TITLETRANSLIT:;
#SUBTITLETRANSLIT:;
#ARTISTTRANSLIT:;
#CREDIT:;
#BANNER:;
#BACKGROUND:;
#LYRICSPATH:;
#CDTITLE:;
#MUSIC:MOONLIGHT (WORLD CLUB MIX).ogg;
#OFFSET:-0.001;
#SAMPLESTART:44.923;
#SAMPLELENGTH:12.000;
#SELECTABLE:YES;
#BPMS:0.000=128.200;
#STOPS:;
#BGCHANGES:;

//---------------dance-single - ----------------
#NOTES:
     dance-single:
     :
     Hard:
     8:
     0.523,0.592,0.270,0.000,0.302:
0000
0000
0000
0000
,
0000
0000
0000
0000
,
0000
0000
0000
0000
,
0000
0000
0000
0000
,
1000
0100
0000
0010
0001
0100
0101
0000
,
0100
0001
0000
0001
0010
0100
1100
0000
,
1000
0010
0000
0010
0100
0001
0011
0000
,
0010
0001
0000
0001
0100
0010
1010
0000
,
1001
0000
0001
0000
0010
0000
0100
1000
,
0001
0000
0100
0000
1000
0000
0100
0100
,
0010
0000
1000
0000
0100
0001
1000
0000
,
0010
0000
0001
0000
0100
0000
1000
0100
,
0001
0010
0100
1000
,
0010
1000
0100
1000
0010
1000
0100
0100
,
0010
0000
0001
0000
0100
0001
0010
0000
,
0010
0001
1000
0001
0100
0000
0010
1000
,
1001
0000
0101
0000
0100
0010
1000
0100
,
0010
0000
0000
0000
0010
0000
0000
0000
0010
0000
0000
0000
0010
0001
1000
0000
,
0010
0000
0110
0000
0010
1000
0100
0001
,
0100
0000
0000
0000
0100
0000
0000
0000
0100
0000
0000
0000
1000
0010
1000
0010
,
0100
1000
0100
0001
,
0010
0100
1000
0010
1000
0100
0010
0000
,
0011
0000
0001
0000
0100
0000
0000
0000
0010
1000
0000
0100
0000
0100
1000
0000
,
0010
0000
0100
0000
0001
0000
1000
0000
0001
1000
0001
1000
0100
0000
0000
0000
,
1000
0100
1000
0000
0010
0000
0100
0000
0001
0100
0001
0000
0101
0000
0000
0000
,
0001
0100
0001
0000
0010
0000
0100
0000
1000
0010
1000
0000
1100
0000
0000
0000
,
1000
0100
0001
0100
1000
0010
1010
0000
,
1000
0010
0001
0010
1000
0100
0101
0000
,
0001
0100
0001
0000
0100
0000
1000
0000
0010
1000
0010
0000
1010
0000
0000
0000
,
0010
0001
0010
0000
1000
0000
0100
0000
0001
0100
0001
0000
0101
0000
0000
0000
,
0100
1000
0010
0001
0010
1000
1010
0000
,
1100
1000
0100
0001
0100
1000
0010
1000
,
0100
1000
0100
1000
0000
0000
0000
0000
1000
0100
0000
1000
0000
1000
0100
0000
,
0010
0001
0010
0001
0000
0000
0000
0000
0001
0010
0000
0001
0000
0001
0010
0000
,
0001
0100
0001
0100
0000
0000
0000
0000
0001
0100
0000
0001
0000
0001
0100
0000
,
0010
1000
0010
1000
0100
0000
0001
0000
0100
0000
1000
0000
0010
0000
0001
0000
,
0010
1000
0010
1000
0000
0000
0000
0000
0100
0010
0000
0100
0000
0100
0010
0000
,
0001
0100
0001
0100
0000
0000
0000
0000
0010
0100
0000
0100
0000
0010
0100
0000
,
0001
0010
0001
0010
0000
0000
0000
0000
0100
0010
0000
0100
0000
0100
0010
0000
,
0001
0100
0001
0100
0010
0000
0001
0000
0010
1000
0010
1000
0100
0000
0001
0000
,
0101
0100
0000
0100
1000
0010
0110
0000
,
0100
0001
0000
0001
0010
0100
1100
0000
,
1000
0010
0000
0010
0100
0001
0101
0000
,
0001
0010
0000
0100
1000
0010
0110
0000
,
0100
0001
0000
0001
0010
0100
1100
0000
,
1000
0010
0000
0010
0100
0001
1001
0000
,
1000
0100
0000
0010
0001
0100
0101
0000
,
0100
0000
0001
0000
1000
0001
1000
0001
1000
0001
1000
0001
0000
0000
0000
0000
;

//---------------dance-double - ----------------
#NOTES:
     dance-double:
     :
     Hard:
     7:
     0.461,0.464,0.183,0.000,0.016: // measure 1
00000000
00000000
00000000
00000000
,  // measure 2
00000000
00000000
00000000
00000000
,  // measure 3
00000000
00000000
00000000
00000000
,  // measure 4
00000000
00000000
00000000
00000000
,  // measure 5
00010000
00001000
00000000
01000000
00100000
10000000
10010000
00000000
,  // measure 6
01000000
00100000
00000000
00001000
00010000
00000010
00000110
00000000
,  // measure 7
00000100
00000001
00000000
00000010
00000100
00001000
00001001
00000000
,  // measure 8
00000100
00000010
00000000
00010000
00001000
00100000
01100000
00000000
,  // measure 9
00100000
00000000
01000000
00000000
10000000
00000000
00100000
10000000
,  // measure 10
01000000
00010000
00001000
00000100
,  // measure 11
00000001
00000000
00000010
00000000
00000001
00000100
00001000
00000000
,  // measure 12
00010000
00000000
01000000
00000000
10000000
00000000
00100000
00010000
,  // measure 13
00001000
00000010
00000001
00000100
,  // measure 14
00000001
00000010
00001000
00010000
00100000
10000000
01000000
00000000
,  // measure 15
00010000
01000000
10000000
00100000
,  // measure 16
00010000
00001000
00000010
00001000
00010000
00100000
00010000
00001000
,  // measure 17
00011000
00001000
00000010
00001000
00000010
00000001
00000010
00000001
,  // measure 18
00000100
00000001
00000100
00001000
00010000
00001000
00010000
01000000
,  // measure 19
10000000
01000000
10000000
00100000
10000000
00100000
00010000
00100000
,  // measure 20
00010000
00001000
00010000
00001000
00000010
00001000
00000010
00000001
,  // measure 21
00000100
00001000
00000100
00001000
00010000
00100000
00010000
00100000
,  // measure 22
10000000
00100000
10000000
01000000
10000000
01000000
00010000
00001000
,  // measure 23
00011000
00000000
00001000
00000000
00010000
00000000
00000000
00000000
00000100
00001000
00000000
00000001
00000000
00000001
00000100
00000000
,  // measure 24
00000001
00000010
00001000
00010000
01000000
10000000
00010000
00000000
,  // measure 25
10010000
10000000
01000000
00010000
00001000
00000100
00000001
00000000
,  // measure 26
00001000
00000001
00000100
00001000
00010000
01000000
10000000
00000000
,  // measure 27
10000000
00100000
00010000
00100000
10000000
01000000
00010000
00000000
,  // measure 28
00001000
00000100
00000001
00000010
00001000
00000010
00000001
00000000
,  // measure 29
00001001
00000001
00000010
00001000
00010000
00100000
10000000
00000000
,  // measure 30
00010000
10000000
00100000
00010000
00001000
00000010
00000001
00000000
,  // measure 31
00000001
00000010
00001000
00000010
00000001
00000100
00001000
00000000
,  // measure 32
00001000
00010000
01000000
10000000
10010000
00000000
00000000
00000000
,  // measure 33
10000000
01000000
10000000
00000000
01000000
00010000
01000000
00000000
,  // measure 34
00010000
00001000
00010000
00000000
00001000
00000100
00001000
00000000
,  // measure 35
00000100
00000001
00000100
00000000
00000001
00000010
00000001
00000000
,  // measure 36
00000010
00001000
00000010
00000000
00001000
00010000
00001000
00000000
,  // measure 37
00010000
00100000
10000000
00000000
10000000
01000000
00010000
00000000
,  // measure 38
00001000
00000100
00000001
00000000
00000001
00000010
00001000
00000000
,  // measure 39
00001000
00000010
00000001
00000000
00000001
00000100
00001000
00000000
,  // measure 40
00010000
01000000
10000000
00100000
00010000
00100000
10000000
01000000
,  // measure 41
11000000
01000000
00000000
01000000
00010000
00001000
00011000
00000000
,  // measure 42
00010000
00001000
00000000
00001000
00000100
00000001
00001001
00000000
,  // measure 43
00000001
00000100
00000000
00000100
00001000
00010000
00011000
00000000
,  // measure 44
00010000
01000000
00000000
01000000
10000000
00010000
10010000
00000000
,  // measure 45
10000000
00100000
00000000
00100000
00010000
00001000
00011000
00000000
,  // measure 46
00001000
00000010
00000000
00000010
00000001
00001000
00001001
00000000
,  // measure 47
00000001
00000010
00000000
00000010
00001000
00010000
00011000
00000000
,  // measure 48
00010000
00100000
10000000
01000000
00010000
00001000
00010000
00000000
;

//---------------dance-single - ----------------
#NOTES:
     dance-single:
     :
     Medium:
     6:
     0.350,0.384,0.043,0.000,0.000:
0000
0000
0000
0000
,
0000
0000
0000
0000
,
0000
0000
0000
0000
,
0000
0000
0000
0000
,
1000
0100
0000
0010
0001
0000
0000
0000
,
0001
0010
0000
0100
1000
0000
1001
0000
,
0001
0100
0000
0010
1000
0000
0000
0000
,
1000
0010
0000
0100
0001
0000
1001
0000
,
1100
0000
0100
0000
0001
0000
0100
1000
,
0000
0000
0000
0001
,
1000
0000
0010
0000
0001
0010
0000
1000
,
0000
0000
0000
0001
,
1000
0100
0010
0001
,
1000
0100
0001
0100
0000
1000
0000
0000
,
0001
0100
0010
1000
,
0001
0010
0001
1000
0001
0000
0100
0000
,
0101
0000
0001
0000
0100
0000
0010
1000
,
0010
0100
0010
0100
,
0001
0000
0010
0000
0100
1000
0000
0100
,
0010
0000
0001
0000
0100
0000
0010
1000
,
0001
0001
1000
0001
,
0100
0001
0100
0001
0000
1000
0000
0000
,
0001
0100
0001
0000
1000
1000
0100
0000
,
0010
0001
1000
0001
0100
0100
0100
0000
,
0001
0100
0010
0000
0010
0100
0001
0000
,
1000
0100
0010
0000
0010
0100
1000
0000
,
1000
0010
0000
0001
0000
0100
1000
0000
,
1000
0100
0000
0001
0000
0010
1000
0000
,
1000
0100
0010
0000
0010
0100
1000
0000
,
1000
0010
0100
0000
0100
0010
1000
0000
,
1000
0100
0000
0001
0000
0010
1000
0000
,
0000
1000
0010
0001
0100
0000
0000
0000
,
1000
0100
1000
0000
0001
0100
0001
0100
,
0010
1000
0010
0000
1000
0010
1000
0010
,
0100
0001
0100
0000
0001
0010
0001
0010
,
0000
0100
1000
0100
0010
0100
1000
0000
,
0001
0010
0001
0000
0001
0100
0010
0100
,
0001
1000
0001
0000
1000
0100
0010
0100
,
1000
0001
1000
0000
0001
0010
0100
0010
,
0000
0001
0100
0010
1000
0010
0100
0001
,
1000
0100
0000
0100
0010
0000
0000
0000
,
0010
0001
0000
0001
0100
0000
0010
0000
,
1000
0010
0000
0010
0100
0000
0000
0000
,
0001
0010
0000
0010
0100
0000
1000
0000
,
0010
0100
0000
0100
0001
0000
0000
0000
,
0010
0100
0000
0100
1000
0000
0001
0000
,
1000
0010
0000
0100
0001
0000
0000
0000
,
0001
0010
0000
0100
1000
0000
0000
0000
;

//---------------dance-single - ----------------
#NOTES:
     dance-single:
     :
     Easy:
     3:
     0.168,0.231,0.043,0.000,0.000:
0000
0000
0000
0000
,
0000
0000
0000
0000
,
0000
0000
0000
0000
,
0000
0000
0000
0000
,
1000
0000
1000
0000
,
0001
0000
0001
0000
,
0100
0000
0100
0000
,
0010
0000
0010
0000
,
1000
0000
0000
0000
,
0000
0000
0000
0000
,
0001
0000
0000
0000
,
0000
0000
0000
0000
,
0100
0000
0000
0000
,
0000
0000
0000
0000
,
0010
0000
0000
0000
,
0000
0000
0000
0000
,
1000
0100
0001
0100
,
1000
0000
0000
0000
,
0001
0100
1000
0100
,
0001
0000
0000
0000
,
1000
0010
0001
0010
,
1000
0100
0001
0000
,
0001
0100
1000
0000
,
0001
0010
1000
0010
,
0001
0100
0001
1000
,
0001
0010
0001
1000
,
0010
0010
0100
0000
,
0001
0001
0100
0000
,
0010
1000
0001
1000
,
0100
1000
0001
1000
,
0010
0010
0100
0000
,
0001
1000
0110
0000
,
0011
0000
0001
0100
,
0010
0000
0010
1000
,
0001
0000
0001
0010
,
0100
0000
0100
1000
,
1001
0000
0001
0100
,
0010
0000
0010
1000
,
0001
0000
0001
0100
,
0010
0000
0010
1000
,
1100
0000
0100
0000
,
0010
0000
0001
0000
,
0100
0000
0010
0000
,
1000
0000
0010
0000
,
0100
0000
0001
0000
,
0001
0000
0010
0000
,
0100
0000
1000
0000
,
1000
0000
0000
0001
0001
0000
0000
0000
;

//---------------dance-double - ----------------
#NOTES:
     dance-double:
     :
     Medium:
     5:
     0.304,0.410,0.237,0.000,0.000:
00000000
00000000
00000000
00000000
,
00000000
00000000
00000000
00000000
,
00000000
00000000
00000000
00000000
,
00000000
00000000
00000000
00000000
,
00010000
00001000
00000000
00001000
00000100
00000000
00000000
00000000
,
00001000
00010000
00000000
00010000
01000000
00000000
00000000
00000000
,
00010000
00001000
00000000
00001000
00000010
00000000
00000000
00000000
,
00001000
00010000
00000000
00010000
00100000
00000000
00000000
00000000
,
10000000
01000000
00010000
01000000
,
10000000
00000000
00000000
00000000
,
00001000
00000100
00000001
00000100
,
00001000
00000000
00000000
00000000
,
00010000
00100000
10000000
00000000
,
10000000
00100000
00010000
00000000
,
00001000
00000010
00000001
00000000
,
00000001
00000010
00001000
00000000
,
00010000
00100000
00010000
00100000
,
10000000
01000000
10000000
01000000
,
00010000
00001000
00010000
00001000
,
00000100
00000001
00000100
00000001
,
00000010
00001000
00000010
00001000
,
00010000
01000000
00010000
01000000
,
10000000
00100000
00010000
00001000
,
00000100
00000000
00000001
00000000
00000010
00001000
00010000
00000000
,
00011000
00100000
00011000
00000010
,
00011000
01000000
00011000
00000100
,
00010000
00001000
00000000
00000100
00000000
00000001
00000010
00000000
,
00001000
00010000
00000000
01000000
00000000
10000000
00100000
00000000
,
01100000
00001000
00000110
00010000
,
01100000
00001000
00000110
00010000
,
01000000
10000000
00000000
00100000
00000000
00010000
00001000
00000000
,
00000000
00000100
00000001
00000010
00001000
00010000
01000000
10000000
,
10010000
00000000
10000000
00100000
,
00110000
00001000
00001100
00000100
,
00000101
00000001
00000011
00010000
,
00011000
00000000
00001000
00010000
00100000
10000000
01000000
00010000
,
00011000
00000000
00001010
00000010
,
00000011
00000000
00000101
00000100
,
00001100
00000000
01010000
01000000
,
11000000
00000000
10000000
00100000
01100000
00000000
00000000
00000000
,
00010000
01000000
00000000
00001000
00010000
00000000
00000000
00000000
,
00001000
00010000
00000000
00000100
00001000
00000000
00000001
00000000
,
00000100
00000001
00000000
00001000
00000100
00000000
00000000
00000000
,
00001000
00000100
00000000
00010000
00001000
00000000
01000000
00000000
,
00100000
01000000
00000000
00010000
01000000
00000000
00000000
00000000
,
00001000
00010000
00000000
00000100
00001000
00000000
00000001
00000000
,
00000100
00000001
00000000
00001000
00000100
00000000
00000000
00000000
,
00010000
00001000
00000000
01000000
00010000
00000000
00000000
00000000
;

//---------------dance-double - ----------------
#NOTES:
     dance-double:
     :
     Easy:
     2:
     0.143,0.205,0.022,0.000,0.000:
00000000
00000000
00000000
00000000
,
00000000
00000000
00000000
00000000
,
00000000
00000000
00000000
00000000
,
00000000
00000000
00000000
00000000
,
00010000
00000000
01000000
00000000
,
00001000
00000000
00000100
00000000
,
00010000
00000000
00100000
00000000
,
00001000
00000000
00000010
00000000
,
00010000
00000000
00000000
00000000
,
00000000
00000000
00000000
00000000
,
00001000
00000000
00000000
00000000
,
01000000
00000000
00000000
00000000
,
00000000
00000000
00000000
00000000
,
00100000
00000000
00000000
00000000
,
10000000
00000000
00000000
00000000
,
01000000
01000000
00010000
00000000
,
00001000
00000000
00000100
00000000
,
00000001
00000000
00000000
00000000
,
00000001
00000000
00000100
00000000
,
00001000
00000000
00000000
00000000
,
00010000
00000000
01000000
00000000
,
00000000
00000000
00000000
00000000
,
10000000
10000000
01000000
01000000
,
10000000
01000000
00010000
00000000
,
00001000
00000100
00000001
00000000
,
00000001
00000010
00001000
00000000
,
00010000
01000000
10000000
00000000
,
10000000
00100000
00010000
00000000
,
00100000
00010000
00001000
00000000
,
00000010
00001000
00010000
00000000
,
00010000
01000000
00010000
00000000
,
00001000
00010000
00011000
00000000
,
00001000
00000000
00000100
00000001
,
00000100
00000000
00000001
00000000
,
00000010
00000000
00001000
00010000
,
00001000
00000000
00010000
00000000
,
01000000
00000000
10000000
01000000
,
10000000
00000000
00100000
00000000
,
00010000
00000000
00001000
00010000
,
00001000
00000000
00000010
00000000
,
00000001
00000000
00000100
00000000
,
00001000
00000000
00010000
00000000
,
00100000
00000000
10000000
00000000
,
01000000
00000000
00010000
00000000
,
00001000
00000000
00000010
00000000
,
00000001
00000000
00000100
00000000
,
00001000
00000000
00010000
00000000
,
00100000
00000000
10010000
00000000
;
