#TITLE:Kill This Love;
#SUBTITLE:;
#ARTIST:BLACK PINK;
#TITLETRANSLIT:;
#SUBTITLETRANSLIT:;
#ARTISTTRANSLIT:;
#GENRE:;
#CREDIT:SupremeX;
#BANNER:Kill This Love-bn.png;
#BACKGROUND:Kill This Love-bg.png;
#LYRICSPATH:;
#CDTITLE:cdtitle.png;
#MUSIC:Kill This Love.ogg;
#OFFSET:-0.044078;
#SAMPLESTART:71.460003;
#SAMPLELENGTH:12.000000;
#SELECTABLE:YES;
#BPMS:0.000000=131.960007
;
#STOPS:
;
#BGCHANGES:;
#KEYSOUNDS:;
#ATTACKS:;

//---------------dance-single - ----------------
#NOTES:
     dance-single:
     :
     Hard:
     7:
     0.456491,0.677503,0.262515,0.208201,0.475242,353.000000,324.000000,29.000000,23.000000,0.000000,0.000000,0.456491,0.677503,0.262515,0.208201,0.475242,353.000000,324.000000,29.000000,23.000000,0.000000,0.000000:
0000
0000
0000
0000
,
0000
0000
0000
0000
,
0000
0000
0000
0000
,
0000
0000
0000
0000
,
1000
0000
0000
0000
0010
0000
0000
0100
0010
0000
0000
0000
0100
0000
0000
0001
,
0100
0000
0000
0000
0001
0000
0000
1000
0100
0000
0000
0000
1000
0000
0000
0010
,
0100
0000
0000
0001
0100
0000
0000
0010
1000
0000
0000
0000
0001
0000
0000
0010
,
0001
0000
0000
0100
0010
0000
0000
0000
2000
0000
0000
0000
3200
0000
0000
0000
,
0310
0000
0000
0010
0100
0000
0000
0001
1000
0000
0000
0000
0100
0000
0000
1000
,
0100
0000
0000
0100
0010
0000
0000
0010
0001
0000
0000
0000
0100
0000
0000
0010
,
1000
0000
0000
0001
1000
0000
0000
0001
0100
0000
0000
0000
0001
0000
0000
1000
,
0100
0000
0000
0100
0010
0000
0000
0010
0001
0000
0000
0000
0001
0000
0000
0010
,
0100
0000
0000
0100
1000
0000
0000
0100
0010
0000
0000
0000
0001
0000
0000
1000
,
0100
0000
0000
1000
0100
0000
0000
0010
0001
0000
0000
0000
0001
0000
0000
0100
,
0010
0000
0000
1000
0001
0000
0000
0100
0010
0000
0000
0000
1000
0000
0000
0100
,
1000
0000
0000
0001
0100
0000
0000
0010
1000
0000
0000
0000
0000
0000
0000
0000
,
0001
0000
0000
0000
0000
0000
1000
0000
0100
0000
0000
1000
0000
0000
0100
0000
1000
0000
0000
0000
0000
0000
0000
0000
0110
0000
0000
0000
0000
0000
0000
0000
,
0001
0000
0000
0000
0000
0000
0010
0000
0000
0001
0000
0010
0000
0000
0001
0000
0010
0000
0000
0000
0000
0000
0000
0000
0110
0000
0000
0000
0000
0000
0000
0000
,
1000
0000
0000
0010
0100
0000
0000
0010
0200
0000
0000
0000
0302
0000
0000
0000
,
1003
0000
0000
0100
0000
0000
0010
0000
0001
0000
0000
0000
0000
0000
1000
0000
0001
0000
0000
0000
0000
0000
0000
0000
1100
0000
0000
0000
0000
0000
0000
0000
,
0010
0000
0000
0001
0010
0000
0000
0010
0100
0000
0000
0000
1000
0000
0000
0010
,
0100
0000
0000
0000
0000
0000
0001
0000
0100
0000
0000
0001
0000
0000
0100
0000
0001
0000
0000
0000
0000
0000
0000
0000
1000
0000
0000
0100
0000
0010
0000
0000
,
0001
0000
0000
0010
0000
0100
0000
0000
1000
0000
0000
0100
0000
0010
0000
0000
0001
0000
0000
0010
0000
1000
0000
0000
0100
0000
0000
0010
0000
0001
0000
0000
,
0010
0000
0000
0100
0000
1000
0000
0000
0100
0000
0000
0010
0000
0001
0000
0000
0010
0000
0000
0100
0000
0000
0100
0000
0010
0000
0000
0000
0000
0000
0000
0000
,
0100
0000
0001
0100
0000
0000
0000
0000
0000
0000
0000
0000
0000
0000
0000
0000
0010
0000
1000
0010
0000
0000
0000
0000
0000
0000
0000
0000
0000
0000
0000
0000
,
0100
0000
0010
0100
0000
0000
0000
0000
0000
0000
0000
0000
0000
0000
0000
0000
0001
0000
0100
0001
0000
0000
0000
0000
0000
0000
0000
0000
1000
0000
0000
0000
,
1000
0000
0000
0001
0001
0000
0000
0100
,
0100
0000
0000
0010
0010
0000
0000
0000
,
1000
0000
0100
1000
0000
0000
0000
0000
0000
0000
0000
0000
0000
0000
0000
0000
0010
0000
0100
0010
0000
0000
0000
0000
0000
0000
0000
0000
0000
0000
0000
0000
,
0100
0000
0001
0100
0000
0000
0000
0000
0000
0000
0000
0000
0000
0000
0000
0000
0001
0000
0010
0001
0000
0000
0000
0000
0000
0000
0000
0000
1000
0000
0000
0000
,
1000
0000
0000
0010
0010
0000
0000
0100
,
0100
0000
0000
0001
0001
1000
0001
1000
,
0200
0000
0000
1300
1000
0100
0010
0001
,
0200
0302
2003
3020
,
0230
0000
0000
0310
0010
0000
0000
1000
,
0100
0010
0100
1000
0100
0000
0010
0010
,
0002
0000
0010
0000
0013
0001
0010
0000
,
0200
2300
3020
0130
,
0101
0000
1000
0010
0100
0010
1000
0001
,
0000
1100
0110
0011
,
1001
0000
0000
0000
0010
0000
0000
0100
0010
0000
0000
0000
0100
0000
0000
0010
,
0100
0000
0000
0000
0001
0000
0000
1000
0001
0000
0000
1000
0001
0000
0000
0000
,
1000
0000
0000
0000
0100
0000
0000
1000
0100
0000
0000
0000
0010
0000
0000
0001
,
0010
0000
0000
0000
0100
0000
0000
1000
0100
0000
0000
0100
0010
0000
0000
0010
,
0001
0000
0000
0000
1000
0000
0000
0100
1000
0000
0000
0000
0010
0000
0000
0100
,
0010
0001
0101
1010
,
0110
0000
0000
0000
0001
0000
0000
0100
0001
0000
0000
0000
1000
0000
0000
0010
,
1000
0000
0000
0000
0001
0000
0000
0100
0010
0000
0000
1000
0100
0000
0000
0010
,
0001
0000
0000
0000
1000
0000
0000
0001
0100
0000
0000
0000
0001
0000
0000
1000
,
0010
0000
0000
0000
1000
0000
0000
0001
0100
0000
0000
0010
1000
0000
0000
0000
,
0220
0000
0000
0000
,
0330
0000
0000
0000
0000
1001
0000
0010
,
0000
0100
0010
0000
0000
0000
1000
0000
0000
0001
0100
0000
0000
0000
1010
0000
,
0000
1001
0000
0110
0000
1000
0000
0001
,
0000
0100
0001
0000
0000
0000
1000
0000
0000
0010
1000
0000
0000
0000
0020
0000
,
0000
0230
0000
0310
0000
1001
0000
0110
,
0000
0101
0000
1010
0000
0200
0000
0302
,
0000
2003
0000
3100
0000
0110
0000
0011
,
0000
0110
0000
1001
0000
1100
0000
0110
,
0000
0011
0000
0110
0000
2002
0000
3003
;

//---------------dance-single - ----------------
#NOTES:
     dance-single:
     :
     Medium:
     5:
     0.349158,0.407350,0.470716,0.027157,0.000000,270.000000,218.000000,52.000000,3.000000,0.000000,0.000000,0.349158,0.407350,0.470716,0.027157,0.000000,270.000000,218.000000,52.000000,3.000000,0.000000,0.000000:
0000
0000
0000
0000
,
0000
0000
0000
0000
,
0000
0000
0000
0000
,
0000
0000
0000
0000
,
1000
0010
1000
0001
,
1000
0010
0100
0001
,
1000
0010
0100
0001
,
1000
0001
1000
1000
,
0010
0000
0100
0000
0010
0000
1000
0001
,
0100
0000
0010
0000
0010
0000
1000
0001
,
0100
0000
0001
0000
0001
0000
1000
0010
,
0100
0010
0010
1000
,
0001
0000
1000
0001
1000
0000
0010
0000
,
1000
0000
0001
0100
0001
0000
1000
0000
,
0001
0000
0100
0010
0100
0000
0001
0000
,
0010
0100
1000
0001
,
1000
0010
1010
0101
,
0010
0100
1001
1001
,
0010
0100
1010
0101
,
0010
1000
1001
0010
,
0100
0110
0001
0010
,
0100
1000
1100
0010
,
0001
0010
0011
0100
,
1000
0110
1001
0110
,
0001
0000
1001
0000
,
1000
0000
0000
0000
0110
0000
0000
0001
,
0001
0000
0000
1000
1000
0000
0000
0010
,
0010
0000
0000
0100
0100
0000
0000
0000
,
1001
0000
0101
0000
,
1010
0000
0000
0000
0101
0000
0000
1000
,
1000
0000
0000
0001
0001
0000
0000
0100
,
0100
0000
0000
0010
0010
0000
1000
0000
,
0001
0000
0000
0100
0001
0000
0100
0000
,
0010
1000
0110
0110
,
0001
0000
1000
0010
1000
0000
0001
0000
,
0100
0001
1100
0010
,
0001
0010
0100
1000
,
1100
0110
0011
0110
,
1000
0100
1000
0100
,
0010
0101
1001
1010
,
0101
1000
0010
1000
,
0110
0001
0001
1000
,
1000
0110
0001
1000
,
0100
1000
0001
0100
,
0100
0010
0110
1000
,
1100
0100
0110
0011
,
1100
0001
0101
1000
,
1010
0001
0100
0001
,
1000
0100
1100
0010
,
0011
0001
1000
1000
,
0020
0000
0000
0000
,
0000
0000
0030
0000
0000
0100
0000
0001
,
0000
0110
0000
1000
0000
1001
0000
0001
,
0000
0010
0000
0001
0000
0011
0000
0110
,
0000
1100
0000
0001
0000
0001
0000
1000
,
0000
1000
0000
0010
0000
0101
0000
0010
,
0000
1010
0000
0001
0000
1001
0000
0010
,
0000
0100
0000
0010
0000
0100
0000
0110
,
0000
1000
0000
1010
0000
0001
0000
0010
,
0000
0100
0000
1000
0000
0220
0000
0000
,
0330
0000
0000
0000
;

//---------------dance-single - ----------------
#NOTES:
     dance-single:
     :
     Easy:
     3:
     0.209494,0.244410,0.045261,0.054313,0.000000,162.000000,157.000000,5.000000,6.000000,0.000000,0.000000,0.209494,0.244410,0.045261,0.054313,0.000000,162.000000,157.000000,5.000000,6.000000,0.000000,0.000000:
0000
0000
0000
0000
,
0000
0000
0000
0000
,
0000
0000
0000
0000
,
0000
0000
0000
0000
,
1000
0000
0010
0000
,
0100
0001
0010
0100
,
1000
0000
0010
0000
,
0100
0000
0001
1000
,
0100
1000
0010
0000
,
0100
0100
0001
0000
,
1000
0010
1000
0000
,
0001
0100
0001
0000
,
1000
0010
0010
0000
,
0100
0001
0001
0000
,
1000
0010
1000
0000
,
0001
0100
0010
0000
,
1000
1000
1000
1000
,
0010
0010
0010
0010
,
0100
0100
0100
0100
,
0001
0001
0001
0000
,
1000
0010
1000
0001
,
0100
0001
0100
0010
,
1000
0010
1000
0001
,
0010
0100
1000
1000
,
0001
0000
0100
0000
,
0010
0000
1000
0000
,
0002
0000
0000
0003
0000
0000
0000
0000
,
0200
0000
0300
0000
,
0010
0000
1000
0000
,
0001
0000
0100
0000
,
0020
0000
0000
0030
0000
0000
0000
0000
,
2000
0000
3000
0000
,
0001
0000
1001
0000
,
1000
0000
0110
0000
,
0001
0000
0001
0000
,
1000
0000
1000
0000
,
0001
0000
0110
0000
,
1000
0000
0110
0000
,
0001
0000
1000
0000
,
0001
0000
0100
0010
,
0100
0000
0000
0000
,
0000
1000
1000
1000
,
0001
0100
0100
0001
,
0100
0010
1000
0010
,
1000
0000
0001
0000
,
0100
0010
0010
1000
,
1001
0000
0010
0000
,
0100
0001
0001
0001
,
0001
0000
1000
0000
,
1000
0010
0100
0100
,
0200
0000
0000
0000
,
0300
0000
0000
0000
0000
0001
0000
0001
,
0000
0001
0000
0000
0000
1000
0000
0010
,
0000
0100
0000
0010
0000
1000
0000
1000
,
0000
1000
0000
0001
0000
0001
0000
0100
,
0000
0010
0000
0000
0000
1000
0000
1000
,
0000
1000
0000
0010
0000
0100
0000
0001
,
0000
0001
0000
0001
0000
0100
0000
0100
,
0000
0100
0000
0010
0000
1000
0000
0001
,
0000
0100
0000
0010
0000
0200
0000
0000
,
0300
0000
0000
0000
;

//---------------dance-single - Copied from----------------
#NOTES:
     dance-single:
     Copied from:
     Beginner:
     1:
     0.065952,0.107948,0.027157,0.000000,0.000000,51.000000,48.000000,3.000000,0.000000,0.000000,0.000000,0.065952,0.107948,0.027157,0.000000,0.000000,51.000000,48.000000,3.000000,0.000000,0.000000,0.000000:
0000
0000
0000
0000
,
0000
0000
0000
0000
,
0000
0000
0000
0000
,
0000
0000
0000
0000
,
0010
0000
0000
0000
,
0100
0000
0000
0000
,
0010
0000
0000
0000
,
0100
0000
0000
0000
,
0001
0000
0000
0000
,
0001
0000
0000
0000
,
0001
0000
0000
0000
,
0001
0000
0000
0000
,
1000
0000
0000
0000
,
1000
0000
0000
0000
,
1000
0000
0000
0000
,
1000
0000
0000
0000
,
0010
0000
0000
0000
,
0100
0000
0000
0000
,
0010
0000
0000
0000
,
0100
0000
0000
0000
,
0001
0000
0000
0000
,
0001
0000
0000
0000
,
1000
0000
0000
0000
,
1000
0000
0000
0000
,
0001
0000
0000
0000
,
0100
0000
0000
0000
,
0001
0000
0000
0000
,
0000
0000
0000
0000
,
1000
0000
0000
0000
,
0010
0000
0000
0000
,
1000
0000
0000
0000
,
0010
0000
0000
0000
,
0100
0000
0000
0000
,
0100
0000
0000
0000
,
0100
0000
0000
0000
,
0001
0000
0000
0000
,
0001
0000
0000
0000
,
1000
0000
0000
0000
,
1000
0000
0000
0000
,
0000
0000
0000
0000
,
1001
0000
0000
0000
,
0000
0000
0000
0000
,
0001
0000
0000
0000
,
0000
0000
0000
0000
,
0100
0000
0000
0000
,
0000
0000
0000
0000
,
1001
0000
0000
0000
,
0000
0000
0000
0000
,
0010
0000
0000
0000
,
0000
0000
0000
0000
,
1000
0000
0000
0000
,
0000
0000
0000
0000
0000
0001
0000
0000
,
0000
0000
0000
0000
,
0000
0100
0000
0000
0000
0010
0000
0000
,
0000
0000
0000
0000
,
0000
0000
0000
0000
0000
1000
0000
0000
,
0000
0001
0000
0000
0000
0000
0000
0000
,
0000
0000
0000
0000
0000
0010
0000
0000
,
0000
0100
0000
0000
0000
0000
0000
0000
,
0000
0000
0000
0000
0000
1001
0000
0000
;
