#TITLE:GRADIUSIC CYBER;
#SUBTITLE:;
#ARTIST:TAKA;
#TITLETRANSLIT:;
#SUBTITLETRANSLIT:;
#ARTISTTRANSLIT:;
#GENRE:DIGI-ROCK;
#CREDIT:;
#MUSIC:[CAPS LOCK] - GRADIUSIC CYBER.ogg;
#BANNER:[CAPS LOCK] - GRADIUSIC CYBER.png;
#BACKGROUND:[CAPS LOCK] - GRADIUSIC CYBER-bg.png;
#JACKET:[CAPS LOCK] - GRADIUSIC CYBER-jacket.png;
#CDTITLE:;
#SAMPLESTART:80.045;
#SAMPLELENGTH:15.000;
#SELECTABLE:YES;
#OFFSET:-1.526;
#BPMS:0.000=160.000
,14.000=161.000
,15.000=160.000
,26.000=160.250
,28.000=160.000
,32.000=163.000
,33.000=164.000
,34.000=156.000
,35.000=171.000
,36.000=145.000
,37.000=160.000
,43.000=160.500
,50.000=161.500
,51.000=160.000
,54.000=162.000
,55.000=160.000
,63.000=163.000
,64.000=156.000
,66.000=170.000
,67.000=154.000
,68.250=159.000
,68.500=160.000
,81.500=159.000
,82.000=160.250
,83.000=160.000
,88.750=158.000
,90.000=160.000
,95.000=170.000
,96.000=164.000
,97.000=156.000
,99.000=160.000
,114.500=160.333
,125.167=162.333
,125.188=163.666
,125.333=161.666
,127.000=159.666
,129.500=163.666
,130.250=146.666
,130.750=164.666
,131.000=160.000
,145.750=163.000
,146.000=160.000
,162.000=169.000
,163.000=160.000
,168.000=150.000
,169.000=160.000
,169.500=172.000
,170.000=160.000
,170.500=186.000
,170.750=148.000
,171.000=161.250
,175.000=151.250
,175.750=169.250
,176.250=155.000
,176.750=160.000
,184.000=168.000
,185.000=160.000
,194.000=156.000
,195.000=160.000
,206.000=164.000
,207.000=169.000
,209.000=163.000
,210.000=160.000
,222.000=159.000
,224.958=155.000
,226.000=160.000
,258.000=161.000
,264.000=159.950
;
#STOPS:;
#DISPLAYBPM:160.000;
#BGCHANGES:;
#FGCHANGES:;

//--------------- dance-single - forcednature ----------------
#NOTES:
     dance-single:
     forcednature:
     Beginner:
     3:
     0,0,0,0,0:
0000
0000
0000
0000
,
0000
0000
0000
0000
,
0000
0000
0000
0000
,
0000
0000
0000
0000
,
0000
0000
0000
0000
,
1001
0001
0000
0100
,
0000
0010
0010
0010
,
0000
1000
0000
0100
,
0100
0100
0020
0030
,
1001
0000
0001
0000
,
0100
0100
0100
0000
,
0010
0010
0010
0000
,
1000
1000
1000
1001
,
0000
1000
0000
0001
,
0001
0001
0000
0010
,
0010
0010
0000
0100
,
0100
0200
0300
2002
,
0000
0000
3003
0001
,
0100
0010
1000
2002
,
0000
0000
3003
1000
,
0100
0010
0001
0220
,
0000
0000
0330
0001
,
0100
0010
1000
0220
,
0000
0000
0330
1001
,
1001
0010
0010
0220
,
0000
0000
0330
2002
,
0000
0000
3003
0220
,
0000
0000
0330
2002
,
0000
0000
3003
2002
,
0000
0000
3003
0220
,
0000
0000
0330
2002
,
0000
0000
3003
0010
,
0010
0010
0000
1001
,
0000
0100
0000
1001
,
0000
0100
0000
1001
,
0000
0100
0000
1001
,
0000
0100
0000
1001
,
0001
0100
1000
1001
,
0001
0100
1000
0010
,
0010
0100
0100
0010
,
0010
0010
0000
2002
,
0000
0000
3003
0010
,
1000
0001
0100
2002
,
0000
0000
3003
1000
,
0100
0010
0001
2002
,
0000
0000
3003
0001
,
0100
0010
1000
2002
,
0000
0000
3003
1000
,
0010
0001
0010
1001
,
1000
0100
0001
0110
,
1000
0010
0001
1001
,
0100
0010
0001
0010
,
0010
0010
1001
0100
,
1000
0001
1001
0100
,
0001
1000
0110
1000
,
0001
0010
0100
0100
,
0100
0000
0010
1001
,
0100
0110
1000
0110
,
0001
1001
0100
1001
,
0010
0110
1000
1001
,
0100
0110
0010
1001
,
0100
0110
0010
1001
,
0010
0110
0100
1001
,
1000
0110
0001
1001
,
0010
0110
2002
0000
,
0000
0000
0000
3003
,
0110
0000
0000
0000
0000
0000
0000
2002
0000
0000
0000
0000
0000
0000
0000
0000
,
0000
0000
0000
0000
,
0000
0000
0000
0000
0000
3003
0000
0000
0000
0000
0000
0000
0000
0000
0000
0000
0000
0000
0000
0000
0000
0000
0000
0000
0000
0000
0000
0000
0000
0000
0000
0000
;

//--------------- dance-single - forcednature ----------------
#NOTES:
     dance-single:
     forcednature:
     Easy:
     5:
     0,0,0,0,0:
0000
0000
0000
0000
,
0000
0000
0000
0000
,
0000
0000
0000
0000
,
0000
0000
0000
0000
,
0000
0000
0000
0000
,
1001
0001
0100
1000
,
0100
0000
0001
0000
0010
0010
0010
0000
,
0100
1000
0010
0100
,
1001
0000
1001
0000
0020
0030
0010
0000
,
1001
1000
0001
0010
,
0100
0100
0000
1000
0000
0001
0100
0000
,
0010
0010
0000
1000
0000
0001
0010
0000
,
0100
0100
0000
1000
0000
0001
0100
0000
,
0011
1000
0001
0100
,
1010
1000
0010
0100
,
0101
0001
0010
0101
,
1100
0000
0000
0000
1000
0000
0000
0001
0000
0000
1000
0000
0001
0000
0000
0000
,
0101
0001
0010
0100
,
1001
0000
0100
0100
0100
0000
0010
0000
,
1001
1000
0100
0010
,
1001
0000
0100
0100
0100
0000
0010
0000
,
0101
0001
0010
0100
,
1100
0000
0001
0001
0001
0000
0010
0000
,
1100
0001
0010
0100
,
0100
0000
0010
0010
0010
0000
1001
0001
,
0001
0000
0001
0000
0100
0000
1000
1000
,
1000
0000
0100
0000
0100
0000
0001
0001
,
0001
0000
0100
0000
0100
0000
1000
1000
,
1000
0000
0100
0000
0100
0000
0001
0001
,
0001
0000
0100
0000
0100
0000
1000
1000
,
1000
0000
0100
0000
0100
0000
0001
0001
,
0001
0100
0100
0110
,
0110
1000
0001
1002
,
0100
0103
0000
2001
,
0100
3100
0000
1002
,
0100
0103
0000
2001
,
0100
0000
3100
0000
0000
0000
1000
0100
,
0001
0000
0001
0000
0100
0000
1000
0100
,
0001
0000
0100
0000
0100
0000
1000
0100
,
0001
0000
0001
0100
1000
0000
1000
0100
,
0001
0100
0100
2002
,
0000
3003
0000
0010
,
0010
0010
0010
2002
,
0000
3003
0000
0100
,
0100
0000
0100
0100
0100
0000
2002
0000
,
0000
0000
3003
0000
0000
0000
0010
0010
,
0010
0010
0010
2002
,
0000
3003
0000
0100
,
0100
0100
0100
1001
,
0001
0100
0001
1001
,
1000
0100
1000
1001
,
0001
0100
0001
1100
,
0101
0000
0000
0000
0001
0001
0001
0000
,
1000
0000
0010
0000
1000
1000
1000
0000
,
0001
0000
0010
0000
1000
1000
0001
0000
,
0001
0001
1000
0000
1000
1000
0001
0000
,
0100
0000
1001
1000
,
0010
0010
0010
0000
1000
0000
0001
0000
,
0100
0100
0110
0000
1001
0000
0001
0000
,
1000
1000
1000
0000
0100
0000
0010
0000
,
0001
0001
1001
0000
0110
0000
1000
0000
,
0001
0001
0001
0000
1000
0000
0001
0000
,
1000
1000
1001
0000
0110
0000
0001
0000
,
1000
1000
1000
0000
0001
0000
0010
0000
,
0100
0100
0110
0000
2002
0000
0000
0000
,
0000
0000
0000
3003
,
0110
0000
0000
0000
0000
0000
0000
2002
0000
0000
0000
0000
0000
0000
0000
0000
,
0000
0000
0000
0000
,
0000
0000
0000
0000
0000
3003
0000
0000
0000
0000
0000
0000
0000
0000
0000
0000
0000
0000
0000
0000
0000
0000
0000
0000
0000
0000
0000
0000
0000
0000
0000
0000
;

//--------------- dance-single - forcednature ----------------
#NOTES:
     dance-single:
     forcednature:
     Medium:
     8:
     0,0,0,0,0:
0000
0000
0000
0000
,
0000
0000
0000
0000
,
0000
0000
0000
0000
,
0000
0000
0000
0000
,
0000
0000
0000
0000
,
1000
0000
0000
0001
0000
0000
1000
0000
0000
0010
0000
0000
1000
0000
0000
0100
,
0000
0000
0010
0000
0001
0000
0000
0001
0000
0000
0100
0000
0001
0000
0000
0000
,
1000
0000
0000
0001
0000
0000
0100
0000
0000
0010
0000
0000
1000
0000
0000
0100
,
0010
0000
0000
0000
0010
0000
0000
0000
1000
0001
0000
1000
0001
0000
0000
0000
,
1001
0001
0100
0010
,
1000
0100
0000
0010
0000
0001
1000
0000
,
0001
0100
0000
0010
0000
1000
0100
0000
,
0010
0001
0000
1000
0000
0001
1001
0000
,
1000
0000
0001
0100
0010
0000
1001
0000
,
0001
0000
1000
0100
0001
0000
0101
0000
,
0100
1000
0010
0100
0001
0000
1001
0000
,
0110
0000
0000
0000
1000
0000
0000
0001
0000
0000
1000
0000
0001
0000
0100
0000
,
1000
0100
0010
0100
0001
1000
0100
0000
,
0010
0000
0001
0000
1000
0000
0001
0010
,
1000
0010
0100
1000
0001
0100
0010
0000
,
1000
0000
0001
0000
1000
0000
0001
0100
,
1000
0100
0010
1000
0010
0001
1000
0000
,
0100
0000
0001
0000
0100
0000
1000
0100
,
0010
1000
0010
0001
1000
0001
1001
0000
,
0110
0000
1000
0001
1000
0001
1000
0100
,
0001
0100
1000
0010
0100
0000
0001
0100
,
1000
0100
0010
1000
0100
0000
0010
1000
,
0010
0001
0010
1000
0010
0000
0001
0100
,
1000
0100
0001
0100
1000
0000
0100
0010
,
1000
0100
0001
0100
0010
0000
0001
0100
,
1000
0100
0010
0100
0001
0000
1000
0010
,
0001
0010
1000
0100
0010
0000
0100
1000
,
0001
1000
0010
0010
0000
0000
0002
0000
,
0203
2300
3000
2000
,
3200
0302
0003
0002
,
0023
2030
3000
2000
,
3020
0000
0032
0000
0003
0000
1001
0001
,
0100
0000
0010
1000
0100
0000
0010
0001
,
1000
0000
0001
1000
0100
0000
1000
0100
,
0001
0000
0001
0100
1000
0000
1000
0100
,
0001
0100
0100
2002
,
0000
0000
0000
0000
3003
0000
0001
0100
,
1000
0000
1000
0100
0001
0000
0220
0000
,
0000
0000
0000
0000
0330
0000
1000
0010
,
0001
0010
1000
0010
0001
0000
2002
0000
,
0000
0000
0000
0000
3003
0000
0001
0100
,
1000
0000
0001
0010
1000
0000
0210
0000
,
0010
0000
0010
0000
0310
0000
1000
0100
,
0001
0000
0100
0010
0001
0000
1000
0010
,
0001
0000
1000
0100
0010
0000
1000
0100
,
0001
0000
0100
0010
0001
0000
1000
0010
,
0001
0000
1000
0100
0010
0000
0110
0000
,
1001
0000
0110
0000
0001
0100
1000
0100
,
0010
0100
0001
0100
0010
1000
0100
0010
,
0001
0010
1000
0010
0001
1000
0001
1000
,
0001
1000
0001
1000
0010
0010
0010
0000
,
1001
0000
0000
0000
0000
0000
0000
0000
1001
0000
0001
0000
0100
0000
0000
0010
,
0000
0010
0000
0000
1010
0000
0000
0000
0011
0000
0100
0000
1000
0000
0000
0001
,
0000
0001
0000
0000
1001
0000
0000
0000
1100
0000
0010
0000
0001
0000
0000
1000
,
0000
1000
0000
0000
0101
0000
0000
0000
1100
0000
0100
0000
0000
0010
0000
0000
,
0001
0000
0000
0100
0000
0110
0000
0000
0101
0000
0100
0000
1000
0000
0000
0100
,
0000
0010
0000
0000
1001
0000
0000
0000
1100
0000
0100
0000
0010
0000
0000
1000
,
0000
0010
0000
0000
1001
0000
0000
0000
0101
0000
0100
0000
0010
0000
0000
0001
,
0000
0010
0000
0000
1001
0000
0000
0000
1100
0000
0100
0000
0000
0010
0000
0000
,
0001
0000
0000
1000
0000
1001
0000
0000
0220
0000
0000
0000
0000
0000
0000
0000
,
0000
0000
0000
0000
0000
0000
0000
0330
,
0010
0100
0000
0100
0000
0100
0000
2002
0000
0000
0000
0000
0000
0000
0000
0000
,
0000
0000
0000
0000
,
0000
0000
0000
0000
0000
3003
0000
0000
0000
0000
0000
0000
0000
0000
0000
0000
0000
0000
0000
0000
0000
0000
0000
0000
0000
0000
0000
0000
0000
0000
0000
0000
;

//--------------- dance-single - forcednature ----------------
#NOTES:
     dance-single:
     forcednature:
     Hard:
     9:
     0,0,0,0,0:
0000
0000
0000
0000
,
0000
0000
0000
0000
,
0000
0000
0000
0000
,
0000
0000
0000
0000
,
0000
0000
0000
0000
,
1000
0000
0001
0100
0000
0000
0001
0000
0000
1000
0000
0000
0100
0000
0000
0010
,
0000
0000
0001
0000
1000
0001
0000
1000
0001
0000
0000
0000
0100
0000
0000
0000
,
0001
0000
0010
0001
0000
0000
1000
0000
0000
0100
0000
0000
1000
0000
0000
0001
,
1000
0000
0000
0000
0001
0000
0000
0000
0100
1000
0000
0100
0001
0000
0001
0000
,
1001
1000
0100
0010
,
0001
0100
1000
0100
0001
0000
1000
0000
,
0001
0010
1000
0010
0100
1000
0001
0100
,
0010
0001
0010
1000
0100
0010
1001
0000
,
0001
0000
0100
0001
0010
0100
1000
0010
,
0001
0010
1000
0100
0010
1000
0010
0001
,
0100
1000
0100
0010
1000
0100
1000
0000
,
0001
0000
0000
0000
0100
1000
0000
0100
0001
0000
0001
0000
1000
0000
0100
0000
,
0010
1000
0010
0001
1000
0001
0100
0000
,
0001
0000
1000
0000
0010
0000
0100
1000
,
0100
0001
0100
0010
1000
0100
0001
0000
,
0100
0000
0010
0000
0001
0000
1000
0010
,
0001
0010
0100
0010
1000
0100
0001
0000
,
0100
0000
0010
0000
0001
0000
1000
0001
,
0010
1000
0001
0100
1000
0001
0101
0000
,
1010
0000
0000
0000
1000
0100
1000
0000
0001
0010
0001
0000
1000
0000
0100
0000
,
0001
0100
1000
0010
0100
0000
0001
0100
,
1000
0100
0010
1000
0100
0000
0010
1000
,
0010
0001
1000
0001
0100
0000
0001
0100
,
1000
0100
0010
0100
0001
0000
1000
0010
,
0001
0010
1000
0100
0010
0000
1000
0010
,
0001
1000
0001
0100
0010
0000
0100
1000
,
0100
0001
1000
0100
0001
0000
0100
0100
,
0010
0000
0100
0000
1000
0001
1000
0000
0000
0000
0000
0000
0220
0000
0000
0000
,
0000
0000
0330
2002
,
0000
0000
3003
0220
,
0000
0000
0330
2002
,
0000
0000
0000
0000
3003
0000
1000
0100
,
0001
0100
0010
0001
0100
1000
0100
0001
,
1000
0010
0001
0010
1000
0001
0010
1000
,
0010
0100
1000
0001
0100
0010
0001
1000
,
0100
0010
1000
0100
0001
0100
0220
0000
,
0000
0000
0000
0000
0330
0000
0001
0100
,
1000
0100
0010
1000
0001
0000
2002
0000
,
0000
0000
0000
0000
3003
0000
1000
0100
,
0010
1000
0010
0001
0100
0000
2002
0000
,
0000
0000
0000
0000
3003
0000
1000
0010
,
1000
0100
0001
0100
1000
0000
2002
0003
,
0001
0000
0001
0000
3001
0000
1000
0100
,
0001
0100
1000
0001
0100
0010
0001
0010
,
1000
0100
0010
1000
0010
0100
1000
0001
,
0100
1000
0100
0010
1000
0100
0001
0100
,
0010
0001
1000
0010
0100
1000
0100
0000
,
1001
0000
0110
0000
0001
0100
1000
0100
,
0010
1000
0100
0010
1000
0001
0100
0010
,
0001
0100
1000
0100
0001
1000
0001
1000
,
0001
0000
1000
0000
0001
0000
1000
0000
0002
0003
0200
0300
2000
3000
0000
0000
,
0200
0300
0000
0200
0300
0000
0000
0000
0001
0000
0100
0000
0010
0000
1000
0100
,
0000
0010
0000
0000
1001
0000
0000
0000
1000
0000
0010
0000
1000
0000
0001
0010
,
0000
0100
0000
0000
1001
0000
0000
0000
0001
0000
0100
0000
1000
0000
0100
0001
,
0000
0010
0000
0000
0110
0000
0000
0000
0010
0000
0001
0000
0010
1000
0000
0000
,
0010
0000
0000
0001
0000
1000
0000
0000
0010
0000
0100
0000
1000
0000
0100
0001
,
0000
0010
0000
0000
0110
0000
0000
0000
0010
0000
1000
0000
0010
0000
0001
1000
,
0000
0001
0000
0000
1001
0000
0000
0000
0001
0000
0010
0000
0100
0000
1000
0010
,
0000
0100
0000
0000
0110
0000
0000
0000
0100
0000
0001
0000
1000
0100
0000
0000
,
0010
0000
0001
1000
0010
0000
0010
0000
2002
0000
0000
0000
0000
0000
0000
0000
,
0000
0000
0000
0000
0000
0000
0000
3003
,
0001
1000
0001
1000
0001
1000
0001
0200
0000
0000
0000
0000
0000
0000
0000
0000
,
0000
0000
0000
0000
,
0000
0000
0000
0000
0000
0300
0000
0000
0000
0000
0000
0000
0000
0000
0000
0000
0000
0000
0000
0000
0000
0000
0000
0000
0000
0000
0000
0000
0000
0000
0000
0000
;

//--------------- dance-single - forcednature ----------------
#NOTES:
     dance-single:
     forcednature:
     Challenge:
     10:
     0,0,0,0,0:
0000
0000
0000
0000
,
0000
0000
0000
0000
,
0000
0000
0000
0000
,
0000
0000
0000
0000
,
0000
0000
0000
0000
,
1001
0000
1000
0001
0000
0000
0010
0000
0000
0001
0000
0000
1000
0000
0000
0010
,
0000
0000
0001
0000
0010
1000
0000
0010
1000
0000
0100
0000
0010
0000
0001
0100
,
0001
0000
1000
0100
0000
0000
0001
0000
0000
0100
0000
0000
1000
0000
0000
0010
,
0100
0000
0000
0000
0100
0000
0000
0000
0001
1000
0000
0001
1000
0000
1000
0000
,
1001
0000
1000
0000
0001
0000
0100
1000
0000
0100
0001
0000
1000
0100
0000
0010
,
1000
0000
0010
0001
0000
0000
1000
0001
0000
0100
0001
0000
1000
0000
0000
0100
,
1000
0000
0001
0100
0000
0000
1000
0100
0000
0001
0010
0000
1000
0000
0000
0010
,
0100
0000
1000
0100
0000
0000
0010
0001
0000
0100
0010
0000
1001
0000
0001
0100
,
0000
0000
1000
0100
0000
0001
0010
0000
0100
0000
0000
1000
0100
0000
0010
1000
,
0000
0000
0010
0001
0000
1000
0001
0000
0100
0000
0000
0010
1000
0000
0001
1000
,
0000
0000
0001
0010
0000
1000
0010
0000
0001
0000
0000
1000
0010
0000
0000
0000
,
0010
0000
0000
0000
0001
1000
0000
0001
1000
0000
0001
0000
1001
0000
1000
0000
,
0100
0000
0001
0100
0000
0001
0100
0000
1000
0000
0010
0100
0010
0000
1000
0000
,
0001
0000
0100
0001
0000
0010
0100
0000
1001
0000
0000
0000
1001
0000
1000
0000
,
0001
0000
1000
0010
0000
0100
1000
0000
0100
0000
0001
0010
0001
0000
0100
0000
,
1000
0000
0100
0001
0000
1000
0100
0000
0010
0000
0000
0000
1001
0000
0001
0000
,
0010
0000
1000
0010
0000
0001
1000
0000
0010
0000
0100
0001
0100
0000
1000
0000
,
0100
0000
0001
0010
0000
1000
0010
0000
1001
0000
0000
0000
1001
0000
1000
0000
,
0100
0000
0001
0100
0000
1000
0100
0000
1001
0000
1000
0001
1000
0000
0000
0000
,
1001
0000
0000
0000
0001
0100
0001
0000
1000
0100
1000
0000
0001
0000
0010
0000
,
0100
0000
1000
0010
0000
0001
0010
0000
1000
0000
0100
0010
1000
0000
0010
0000
,
0001
0000
0100
1000
0000
0100
0001
0000
0100
0000
0010
1000
0100
0000
0010
0000
,
1000
0000
0010
0100
0000
1000
0001
0000
0100
0000
0010
0001
0010
0000
1000
0000
,
0100
0000
0010
0001
0000
0100
1000
0000
0100
0000
0010
1000
0100
0000
0010
0000
,
1000
0000
0010
0001
0000
1000
0001
0000
0100
0000
1000
0100
0001
0000
1000
0000
,
0010
0000
0001
0010
0000
1000
0001
0000
0010
0000
1000
0010
0100
0000
1000
0000
,
0001
0000
0100
1000
0000
0100
0001
0000
1000
0000
0001
0010
0001
0000
0001
0000
,
1001
0000
0001
0000
1000
0100
1000
0000
0011
0000
0000
1000
0010
0000
0100
0000
,
0001
0000
0000
0000
1001
0000
0000
1001
0000
0000
0000
1000
0010
0000
0100
0000
,
0001
0000
0000
0000
1001
0000
0000
1001
0000
0000
0000
1000
0100
0000
0010
0000
,
0001
0000
0000
0000
1001
0000
0000
1001
0000
0000
0000
1000
0100
0000
0010
0000
,
0001
0000
0000
0000
1001
0000
0000
1000
0001
0000
0001
0000
1001
0000
0001
0000
,
1000
0010
1000
0000
0100
0000
0000
0001
0100
0000
1000
0000
0001
0000
0010
0000
,
0100
1000
0100
0000
0001
0000
0000
0100
1000
0000
0001
0000
0001
0000
1000
0000
,
0010
0100
1000
0000
0100
0000
0001
0000
0010
0100
1000
0000
0001
0000
0010
0000
,
1000
0010
0001
0000
0100
0000
0000
0010
1000
0000
0000
0000
2002
0000
0000
0000
,
0000
0000
0003
0000
0000
0000
0100
0000
0000
0000
0020
0000
0000
0000
0000
0000
0000
0000
0000
3030
0000
0000
0000
0000
1000
0000
0000
0000
0001
0000
0000
0000
,
0010
1000
0010
0000
0001
0000
1000
0000
0010
0000
0100
2000
0200
0000
0000
0000
,
0000
0000
0000
0000
0000
0000
0000
0000
0000
0000
3300
0000
0100
0001
0010
0001
,
0100
0010
1000
0100
0010
0001
0010
0100
1000
0001
1000
0200
0020
0000
0000
0000
,
0000
0000
0000
0000
0000
0330
0110
0110
,
1100
0000
0000
0000
0001
0100
0010
1000
0010
0100
0001
0020
0002
0000
0000
0003
,
0031
0010
0001
0010
0001
0010
0001
0010
0001
0000
0001
0000
0001
0100
0001
0100
,
0001
0100
0001
0100
0001
0100
0001
0100
0001
0000
0001
0000
1001
0000
1000
0000
,
0100
0001
0100
0000
1000
0000
0000
0001
0010
0000
1000
0000
0010
0000
0001
0000
,
0010
0100
1000
0000
0010
0000
0000
0001
0010
0000
1000
0000
0100
0000
0010
0000
,
1000
0010
0100
0000
1000
0000
0000
0010
0001
0000
0010
0000
1001
0000
0000
0000
,
0110
0000
0000
0000
0100
0000
0000
0000
1001
0000
1000
0000
0001
0010
1000
0000
,
0010
0000
0000
0001
0100
0000
1000
0000
0100
0000
0010
0000
1000
0100
0001
0000
,
0100
0000
0000
1000
0001
0000
0100
0000
1000
0000
0100
0000
0001
0010
1000
0000
,
0010
0000
0100
0000
1000
0010
0001
0000
0010
0000
1000
0000
0100
0000
0000
0000
,
0010
0000
0000
0010
0000
0000
0000
0000
1001
0000
0001
0100
0010
0000
0001
0010
,
0000
1000
0100
0000
0010
0000
0000
0001
0100
0000
0010
1000
0010
0000
1000
0001
,
0000
0000
0000
0100
0000
0000
1000
0000
0000
0000
0000
0000
0200
0000
0000
0000
0000
0000
0000
0000
0300
0000
0000
0000
0001
0000
0000
0000
0000
0000
0100
0000
0000
1000
0000
0000
0100
0000
0000
0000
0000
0000
0010
0000
0000
1000
0000
0000
,
0000
0100
0001
0000
0100
0000
0000
1000
0010
0000
0001
0010
0000
1000
0000
0001
,
0010
0000
0000
0000
0000
0000
0100
0000
0000
0001
0000
0000
0200
0000
0000
0000
0000
0000
0000
0000
0300
0000
0000
0000
0010
0000
0000
0000
0000
0000
0001
0000
0000
0100
0000
0000
1000
0000
0000
0000
0000
0000
0100
0000
0000
0010
0000
0000
,
0000
1000
0100
0000
0001
0000
0000
0100
1000
0000
0010
0001
0010
0000
0100
0001
,
0000
0000
0000
0010
0000
0000
1000
0000
0000
0000
0000
0000
0020
0000
0000
0000
0000
0000
0000
0000
0030
0000
0000
0000
0001
0000
0000
0000
0000
0000
0100
0000
0000
1000
0000
0000
0100
0000
0000
0000
0000
0000
0001
0000
0000
1000
0000
0000
,
0000
0100
0001
0000
0100
0000
0000
0010
0001
0000
1000
0010
0000
0001
0000
0010
,
1000
0000
0000
0000
0000
0000
0100
0000
0000
0001
0000
0000
0200
0000
0000
0000
0000
0000
0000
0000
0300
0000
0000
0000
2002
0000
0000
0000
0000
0000
0000
0000
0000
0000
0000
0000
0000
0000
0000
0000
0000
0000
0000
0000
0000
0000
0000
0000
,
0000
0000
0000
0000
0000
0000
0000
0000
0000
0000
0000
0000
0000
0000
0000
3003
,
1000
0001
0100
0001
0100
0001
0100
0020
0000
0000
0000
0000
0000
0000
0000
0000
,
0000
0000
0000
0000
,
0000
0000
0000
0000
0000
0030
0000
0000
0000
0000
0000
0000
0000
0000
0000
0000
0000
0000
0000
0000
0000
0000
0000
0000
0000
0000
0000
0000
0000
0000
0000
0000
;

//--------------- dance-double - forcednature ----------------
#NOTES:
     dance-double:
     forcednature:
     Easy:
     5:
     0,0,0,0,0:
00000000
00000000
00000000
00000000
,
00000000
00000000
00000000
00000000
,
00000000
00000000
00000000
00000000
,
00000000
00000000
00000000
00000000
,
00000000
00000000
00000000
00000000
,
00011000
00010000
01000000
10000000
,
00100000
00010000
00001000
00000100
,
00000001
00000010
00001000
00010000
,
00011000
00000000
00011000
00000000
00001000
00010000
00001000
00000000
,
00011000
00010000
01000000
10000000
,
00100000
00010000
00100000
10000000
00100000
00000000
01000000
00000000
,
00010000
01000000
00010000
00001000
00010000
00000000
00000100
00000000
,
00001000
00000100
00000010
00000100
00001000
00000000
00001001
00000000
,
00001000
00000100
00000010
00010000
,
01001000
00100000
00001000
01000000
,
10010000
00100000
01000000
01010000
,
00001100
00000000
00000000
00011000
,
00001000
00000000
00010000
00000010
00010000
00000000
00000001
00000000
,
00000010
00000000
00000100
00001000
00000100
00000000
00010010
00000000
,
00001000
00000000
01000000
00010000
01000000
00000000
00100000
00000000
,
10000000
00000000
01000000
10000000
01000000
00000000
00110000
00000000
,
01000000
00000000
00001000
00010000
00001000
00000000
00010000
00000000
,
00000010
00000000
00000100
00000001
00000100
00000000
00001001
00000000
,
00000001
00000000
00000010
00000100
00000010
00000000
00000110
00000000
,
00000110
00001001
00000000
00011000
,
01000000
00010000
00100000
00000000
00000000
00000000
10010000
00000000
,
01000000
10000000
00010000
00000000
00000000
00000000
01001000
00000000
,
01000000
00010000
00001000
00000000
00000000
00000000
00000110
00000000
,
00001000
00000010
00000001
00000000
00000000
00000000
00000101
00000000
,
00000001
00000100
00001000
00000000
00000000
00000000
00011000
00000000
,
00100000
00010000
01000000
00000000
00000000
00000000
10010000
00000000
,
10000000
00100000
00010000
00000000
00000000
00000000
00001000
00001000
,
00001000
00001000
00001000
00000000
00000000
00000000
00022000
00000000
,
00000000
00000000
00033000
00022000
,
00000000
00000000
00033000
00022000
,
00000000
00000000
00033000
00022000
,
00000000
00000000
00000000
00000000
00033000
00000000
00010000
01000000
,
10000000
00000000
01100000
00000000
00010000
00000000
01000000
00010000
,
00001000
00000000
00000110
00000000
00001000
00000000
00000001
00000100
,
00001000
00000000
00001000
00000100
00000001
00000000
00000001
00000010
,
00001000
00011000
00000000
20020000
,
00000000
00000000
00000000
00000000
30030000
00000000
10000000
01000000
,
00010000
00000000
00001000
00000100
00000001
00000000
00002002
00000000
,
00000000
00000000
00000000
00000000
00003003
00000000
00000001
00000100
,
00001000
00000000
00010000
01000000
10000000
00000000
20020000
00000000
,
00000000
00000000
00000000
00000000
30030000
00000000
10000000
00100000
,
00010000
00000000
00001000
00000010
00000001
00000000
00002002
00003000
,
00000100
00000000
00000100
00000000
00000103
00000000
00000001
00000010
,
00001000
00000000
00010000
00100000
10000000
00000000
10000000
01000000
,
00010000
00000000
00001000
00100000
01000000
00000000
00010000
00001000
,
00000100
00000000
00000010
00000100
00010000
00000000
00000001
00000010
,
00001000
00000000
00000100
00000010
00001000
00000000
00000110
00000000
,
00001001
00000000
00000000
00000000
00000001
00000010
00000100
00000000
,
00000110
00000000
00001100
00000000
00010000
00100000
01000000
00000000
,
10100000
00000000
01010000
00000000
10000000
01000000
00010000
00000000
,
00010000
01000000
10000000
00000000
10000000
01000000
00010000
00000000
,
00001000
00000000
00000000
00001000
00000000
00000000
00000000
00000000
00010000
00000000
00000100
00000000
00001000
00000000
00000000
00000000
,
00000110
00000000
00001000
00000000
00000001
00000010
00001000
00000000
,
00011000
00000000
01000000
00000000
10000000
01000000
00001000
00000000
,
00011000
00000000
00000010
00000000
00000100
00001000
00000001
00000000
,
00000110
00000000
00000001
00000000
00000010
00001000
00010000
00000000
,
01100000
00000000
10000000
00000000
00010000
01000000
00100000
00000000
,
00011000
00000000
00000010
00000000
00001000
00000100
00000001
00000000
,
00000110
00000000
00000100
00000000
00000001
00000100
00001000
00000000
,
01010000
00100000
10010000
00000000
,
00000000
00000000
00000000
00000000
,
01100000
00000000
00000000
00000000
00000000
00000000
00000000
00022000
00000000
00000000
00000000
00000000
00000000
00000000
00000000
00000000
,
00000000
00000000
00000000
00000000
,
00000000
00000000
00000000
00000000
00000000
00033000
00000000
00000000
00000000
00000000
00000000
00000000
00000000
00000000
00000000
00000000
00000000
00000000
00000000
00000000
00000000
00000000
00000000
00000000
00000000
00000000
00000000
00000000
00000000
00000000
00000000
00000000
;

//--------------- dance-double - forcednature ----------------
#NOTES:
     dance-double:
     forcednature:
     Medium:
     8:
     0,0,0,0,0:
00000000
00000000
00000000
00000000
,
00000000
00000000
00000000
00000000
,
00000000
00000000
00000000
00000000
,
00000000
00000000
00000000
00000000
,
00000000
00000000
00000000
00000000
,
00011000
00000000
00000000
00001000
00000000
00000000
01000000
00000000
00000000
00010000
00000000
00000000
00100000
00000000
00000000
01000000
,
00000000
00000000
10000000
00000000
00010000
01000000
00000000
00010000
01000000
00000000
00000000
00000000
00001000
00000000
00000000
00000000
,
00010000
00000000
00000000
00000010
00000000
00000000
00001000
00000000
00000000
00000001
00000000
00000000
00000100
00000000
00000000
00000000
,
00000110
00000000
00000000
00000000
00000110
00000000
00000000
00000000
00000001
00001000
00000000
00000001
00001000
00000000
00000000
00000000
,
00000001
00000100
00001000
00000000
00010000
00000000
00100000
00000000
,
10000000
00000000
00010000
00000000
00000000
00000000
01000000
00000000
00000000
00001000
00000000
00000000
00010000
00000000
00000000
00000000
,
00000010
00000000
00001000
00000000
00000000
00000000
00000001
00000000
00000000
00000100
00000000
00000000
00000010
00000000
00000000
00000000
,
00010000
00000000
00001000
00000000
00000000
00000000
00100000
00000000
00000000
00010000
00000000
00000000
10010000
00000000
01000000
00000000
,
00000000
00000000
10000000
00000000
00000000
00010000
00000000
00000000
01000000
00000000
00000000
00000000
00001000
00000000
00010000
00000000
,
00000010
00000000
00000000
00000100
00000000
00000000
00000001
00000000
00000010
00000000
00000000
00000100
00000000
00000000
00001000
00000000
,
00000010
00000000
00010000
00000000
00000000
00001000
00000000
00000000
01000000
00000000
00000000
00000000
10010000
00000000
00000000
00000000
,
10010000
00000000
00000000
00000000
10000000
00010000
00000000
10000000
00010000
00000000
01000000
00000000
01010000
00000000
01000000
00000000
,
00001000
00000000
00000000
00010000
00000000
00000100
00000000
00000000
00001001
00000000
00000000
00000000
00000001
00000000
00000100
00000000
,
00000010
00000000
00000000
00010000
00000000
00001000
00000000
00000000
01010000
00000000
00000000
00000000
10000000
00000000
01000000
00000000
,
00010000
00000000
00000000
01000000
00000000
00100000
00000000
00000000
00011000
00000000
00000000
00000000
00000010
00000000
00001000
00000000
,
00000001
00000000
00000000
00000100
00000000
00000010
00000000
00000000
00011000
00000000
00000000
00000000
00000100
00000000
00001000
00000000
,
00000001
00000000
00000000
00000100
00000000
00001000
00000000
00000000
00011000
00000000
00000000
00000000
00100000
00000000
10000000
00000000
,
00010000
00000000
00000000
00100000
00000000
01000000
00000000
00000000
10010000
00000000
00000000
00000000
00010000
00000000
01000000
00000000
,
00001000
00000000
00000000
00010000
00000000
00000100
00000000
00000000
00011000
00000000
00000000
00000000
00010100
00000000
00000000
00000000
,
01001000
00000000
00000000
00000000
00000000
00001000
00001000
00000000
00000000
00010000
00010000
00000000
00011000
00000000
00001000
00000000
,
01000000
00000000
00000000
00010000
00000000
00010000
00000000
00000000
10000000
00000000
00000000
00000000
10100000
00000000
01000000
00000000
,
00001000
00000000
00000000
00010000
00000000
00010000
00000000
00000000
00001000
00000000
00000000
00000000
00000110
00000000
00001000
00000000
,
00000001
00000000
00000000
00000010
00000000
00000010
00000000
00000000
00000100
00000000
00000000
00000000
00001001
00000000
00000001
00000000
,
00000100
00000000
00000000
00000010
00000000
00000010
00000000
00000000
00010000
00000000
00000000
00000000
01001000
00000000
01000000
00000000
,
00010000
00000000
00000000
10000000
00000000
00100000
00000000
00000000
10000000
00000000
00000000
00000000
11000000
00000000
00100000
00000000
,
00010000
00000000
00000000
01000000
00000000
00001000
00000000
00000000
00010000
00000000
00000000
00000000
00001010
00000000
00000001
00000000
,
00000100
00000000
00000000
00000010
00000000
00001000
00000000
00000000
00000001
00000000
00000000
00000000
00000100
00000000
00010000
00000000
,
00001000
00000000
01000000
00000000
00001000
00010000
00001000
00000000
00000000
00000000
00000000
00000000
00010000
00000000
00001000
00000000
,
01000000
00000000
00000000
00000000
00100000
00000000
00000000
00100000
00000000
00000000
00000000
00000000
00010000
00000000
00001000
00000000
,
01000000
00000000
00000000
00000000
00100000
00000000
00000000
00100000
00000000
00000000
00000000
00000000
00010000
00000000
00001000
00000000
,
01000000
00000000
00000000
00000000
00100000
00000000
00000000
00100000
00000000
00000000
00000000
00000000
00010000
00000000
00001000
00000000
,
01000000
00000000
00000000
00000000
00100000
00000000
00000000
00100000
00000000
00000000
00000000
00000000
10000000
00000000
01000000
00000000
,
00010000
00000000
00000000
00000000
01000000
00000000
00000000
01000000
00000000
00000000
00000000
00000000
00010000
00000000
00001000
00000000
,
00000100
00000000
00000000
00000000
00000010
00000000
00000000
00000010
00000000
00000000
00000000
00000000
00000100
00000000
00000001
00000000
,
00000100
00000000
00000010
00001000
00000010
00000000
00100000
00010000
,
00100000
00000000
00000000
00000000
01000000
00000000
00000000
01000000
00000000
00000000
00000000
00000000
20020000
00000000
00000000
00000000
,
30000000
00000000
00000000
00100000
00000000
00200000
00000000
00000000
00000000
00330000
00000000
00000000
10000000
00000000
00000000
00000000
,
01010000
00000000
00000000
00000000
01000000
00000000
00001000
00000000
00010000
00000000
00000000
00000200
00002000
00000000
00000000
00000000
,
00000000
00000000
00000000
00000000
00003300
00000000
00000001
00000010
,
00000100
00000000
00000000
00000000
00010000
00000000
00000000
00011000
00000000
00000000
00000000
02000000
00020000
00000000
00000000
00000000
,
00000000
00000000
00000000
00000000
00000000
03030000
01000000
01000000
,
10010000
00000000
10000000
00100000
00010000
00000000
00000210
00000000
,
00000001
00000000
00000001
00000000
00000001
00000000
00000301
00000100
,
00001000
00000000
00001000
00000100
00000001
00000000
00000100
00000010
,
00001000
00000000
00000000
00000000
00000100
00000000
00000000
00010000
00000000
00000000
00000000
00000000
00100000
00000000
10000000
00000000
,
01000000
00000000
00000000
00000000
00100000
00000000
00000000
10000000
00000000
00000000
00000000
00000000
00100000
00000000
00001000
00000000
,
01000000
00000000
00000000
00000000
00100000
00000000
00000000
00010000
00000000
00000000
00000000
00000000
00011000
00000000
00000000
00000000
,
00001100
01000000
10010000
01000000
,
00001000
00000000
00000000
00001000
00000000
00000000
00000000
00000000
00010000
00000000
00000100
00000000
00000010
00000000
00000000
00000000
,
00000001
00000000
00000000
00000001
00000000
00000000
00000000
00000000
00000100
00000000
00001000
00000000
00000100
00000000
00000000
00000000
,
00000100
00000001
00000100
00000000
00000100
00001000
00000100
00000000
,
00000001
00000000
00000000
00000001
00000000
00000000
00000000
00000000
00000100
00000000
00000001
00000000
00000010
00000000
00000000
00001000
,
00000000
00001000
00000000
00000000
00011000
00000000
00000000
00000000
00100000
00000000
00010000
00000000
10000000
00000000
00000000
00100000
,
00000000
00100000
00000000
00000000
01100000
00000000
00000000
00000000
10000000
00000000
01000000
00000000
00010000
00000000
00000000
00001000
,
00000000
00001000
00000000
00000000
00011000
00000000
00000000
00000000
00010000
00000000
00000010
00000000
00000000
00001000
00000000
00000000
,
00000001
00000000
00000000
00000100
00000000
00000010
00000000
00000000
00000001
00000000
00000010
00000000
00001000
00000000
00000000
00000100
,
00000000
00000100
00000000
00000000
00001001
00000000
00000000
00000000
00000100
00000000
00010000
00000000
00001000
00000000
00000000
00100000
,
00000000
00100000
00000000
00000000
00110000
00000000
00000000
00000000
00010000
00000000
01000000
00000000
00100000
00000000
00000000
10000000
,
00000000
10000000
00000000
00000000
11000000
00000000
00000000
00000000
10000000
00000000
00100000
00000000
00000000
01000000
00000000
00000000
,
00001000
00000000
00000000
00010000
00000000
00000100
00000000
00000000
00002002
00000000
00000000
00000000
00000000
00000000
00000000
00000000
,
00000000
00000000
00000000
00000000
00000000
00000000
00000000
00003003
,
00000010
00000100
00000000
00000010
00000000
00000100
00000000
00002002
00000000
00000000
00000000
00000000
00000000
00000000
00000000
00000000
,
00000000
00000000
00000000
00000000
,
00000000
00000000
00000000
00000000
00000000
00003003
00000000
00000000
00000000
00000000
00000000
00000000
00000000
00000000
00000000
00000000
00000000
00000000
00000000
00000000
00000000
00000000
00000000
00000000
00000000
00000000
00000000
00000000
00000000
00000000
00000000
00000000
;

//--------------- dance-double - forcednature ----------------
#NOTES:
     dance-double:
     forcednature:
     Hard:
     9:
     0,0,0,0,0:
00000000
00000000
00000000
00000000
,
00000000
00000000
00000000
00000000
,
00000000
00000000
00000000
00000000
,
00000000
00000000
00000000
00000000
,
00000000
00000000
00000000
00000000
,
00010000
00001000
01000000
00010000
10000000
01000000
00010000
00000000
,
00001000
00000010
00000001
00000100
00001000
00010000
00100000
00000000
,
10000000
00100000
00010000
00001000
00000010
00000001
00001000
00000000
,
00000110
00000000
00000000
00000000
00001001
00000000
00000000
00000000
00000001
00000000
00000000
00000100
00000000
00000000
00000001
00000000
,
00000010
00001000
00010000
01000000
10000000
01000000
00010000
01000000
,
10000000
00100000
00010000
00001000
00010000
01000000
10000000
00000000
,
00100000
01000000
00001000
00010000
01000000
00010000
00001000
00000100
,
00001000
00010000
00001000
00000010
00000001
00000000
00001001
00000000
,
00000001
00000100
00001000
00010000
00001000
00000010
00000001
00000100
,
00001000
00010000
00100000
10000000
01000000
00000000
10010000
00000000
,
10000000
01000000
00010000
00001000
00010000
00100000
10000000
00000000
,
10010000
00000000
00000000
00000000
01000000
00000000
00000000
00001000
00000000
00000000
00000010
00000000
00001001
00000000
00000000
00000000
,
00000001
00000100
00010000
00000000
00000110
00000000
00001100
00000000
,
00010000
00100000
10000000
00000000
10010000
00000000
01010000
00000000
,
00100000
00001000
00010000
00000000
00001100
00000000
00000011
00000000
,
00000001
00000100
00001000
00000000
00001100
00000000
01010000
00000000
,
00100000
00010000
00000010
00000000
00000110
00000000
00001001
00000000
,
00000001
00000010
00001000
00000000
00011000
00000000
01010000
00000000
,
10000000
01000000
00010000
00000000
00110000
00000000
10010000
00000000
,
01100000
00000000
00000000
00000000
00000000
10000000
00010000
00000000
00000000
00010000
10000000
00000000
10000000
00000000
01000000
00000000
,
00010000
00001000
00000100
00000001
00001000
00000000
00000001
00000100
,
00001000
00010000
01000000
10000000
00010000
00000000
10000000
01000000
,
00010000
00001000
00000100
00000001
00001000
00000000
00000001
00000100
,
00001000
00010000
01000000
10000000
00010000
00000000
10000000
00100000
,
00010000
00001000
00000010
00000001
00001000
00000000
00000001
00000010
,
00001000
00010000
00100000
10000000
00010000
00000000
10000000
00100000
,
00010000
00001000
00000010
00000001
00001000
00000000
00000010
00000100
,
00000010
00000100
00000010
00000010
00000000
00000000
00000100
00010000
,
00100000
00000000
00010000
00000000
00000000
00000000
00000100
00010000
,
00100000
00000000
00010000
00000000
00000000
00000000
01000000
00001000
,
00000010
00000000
00001000
00000000
00000000
00000000
01000000
00001000
,
00000010
00000000
00001000
00000000
00000000
00000000
00010000
01000000
,
10000000
01000000
00010000
00001000
00000100
00000001
00000010
00001000
,
00010000
01000000
10000000
00100000
00010000
00001000
00010000
01000000
,
00010000
00001000
00000100
00001000
00010000
00100000
00010000
00001000
,
00000010
00001000
00010000
01000000
00010000
00000000
00022000
00000000
,
00000000
00000000
00033000
10000000
,
00010000
00001000
00000001
00002002
,
00000000
00000000
00003003
00000001
,
00001000
00010000
10000000
20020000
,
00000000
00000000
30030000
01000000
,
00100000
00000100
00000010
00000210
,
00000010
00000000
00000010
00000000
00000310
00000000
00000001
00001000
,
00010000
00000000
10000000
00010000
00001000
00000000
10000000
01000000
,
00010000
00001000
00000100
00001000
00010000
00100000
00010000
00001000
,
00000010
00001000
00010000
01000000
00010000
00001000
00000100
00001000
,
00010000
01000000
00010000
00001000
00000010
00001000
00010000
00000000
,
00011000
00000000
00011000
00000000
00010000
00001000
00000100
00000001
,
00000100
00001000
00010000
00000001
00000010
00001000
01000000
10000000
,
01000000
00010000
10000000
00010000
00100000
00001000
00000100
00000001
,
00000010
00000100
00010000
00100000
10000000
00010000
01000000
00000000
,
00011000
00000000
00000000
00011000
00000000
00000000
00000000
00000000
10000000
00000000
01000000
00000000
00010000
00000000
00000100
00000000
,
00001000
00010000
00100000
00000000
00000010
00000100
00001000
00100000
,
00010000
00000010
00001000
00000000
00010000
01000000
00001000
00000100
,
00000010
00001000
00010000
00000000
00100000
10000000
01000000
00001000
,
00000100
00010000
00100000
00000000
01000000
00010000
00001000
00000010
,
00000001
00000010
00010000
00000000
00000100
00001000
00010000
00100000
,
10000000
00010000
00001000
00000000
00010000
00000100
00000001
00000100
,
00001000
00010000
00100000
00000000
01000000
10000000
00100000
00010000
,
00001000
00010000
01000000
00000000
00011000
00000000
00000000
00000000
,
00000000
00000000
00000000
00000000
,
01001000
00000000
00000000
00000000
00000000
00000000
00000000
00020200
00000000
00000000
00000000
00000000
00000000
00000000
00000000
00000000
,
00000000
00000000
00000000
00000000
,
00000000
00000000
00000000
00000000
00000000
00030300
00000000
00000000
00000000
00000000
00000000
00000000
00000000
00000000
00000000
00000000
00000000
00000000
00000000
00000000
00000000
00000000
00000000
00000000
00000000
00000000
00000000
00000000
00000000
00000000
00000000
00000000
;

//--------------- dance-double - forcednature ----------------
#NOTES:
     dance-double:
     forcednature:
     Challenge:
     10:
     0,0,0,0,0:
00000000
00000000
00000000
00000000
,
00000000
00000000
00000000
00000000
,
00000000
00000000
00000000
00000000
,
00000000
00000000
00000000
00000000
,
00000000
00000000
00000000
00000000
,
00011000
00000000
00001000
01000000
00000000
00000000
00100000
00000000
00000000
00010000
00000000
00000000
00001000
00000000
00000000
00000010
,
00000000
00000000
00000001
00000000
00000100
00001000
00000000
00000100
00000001
00000000
00000010
00000000
00001000
00000000
00010000
01000000
,
10000000
00000000
00100000
01000000
00000000
00000000
00010000
00000000
00000000
00000100
00000000
00000000
00000001
00000000
00000000
00000010
,
00000100
00000000
00000000
00000000
00000100
00000000
00000000
00000000
00001000
00010000
00000000
00001000
00010000
00000000
00010000
00000000
,
00011000
00000000
00010000
00000000
00000010
00000000
00000100
00001000
00000000
00000100
00000001
00000000
00000010
00001000
00000000
00010000
,
00001000
00000000
00010000
01000000
00000000
00000000
10000000
00010000
00000000
01000000
10000000
00000000
01000000
00000000
00000000
00010000
,
00100000
00000000
00001000
00010000
00000000
00000000
00000010
00000100
00000000
00001000
00000100
00000000
00000001
00000000
00000000
00000010
,
00001000
00000000
00010000
01000000
00000000
00000000
10000000
00010000
00000000
01000000
00100000
00000000
10010000
00000000
10000000
01000000
,
00000000
00000000
00010000
00001000
00000000
00010000
01000000
00000000
00100000
00000000
00000000
00001000
00010000
00000000
00000010
00000001
,
00000000
00000000
00001000
00000100
00000000
00000001
00001000
00000000
00000010
00000000
00000000
00010000
00001000
00000000
00100000
01000000
,
00000000
00000000
10000000
00100000
00000000
00010000
00001000
00000000
00100000
00000000
00000000
10000000
00100000
00000000
00000000
00000000
,
00100000
00000000
00000000
00000000
00001000
00010000
00000000
00001000
00010000
00000000
00010000
00000000
00011000
00000000
00010000
00000000
,
00000010
00000000
00000100
00001000
00000000
00010000
01000000
00000000
10000000
00000000
00100000
01000000
10000000
00000000
01000000
00000000
,
00010000
00000000
00100000
00001000
00000000
00010000
00000010
00000000
00001001
00000000
00000000
00000000
10010000
00000000
00010000
00000000
,
01000000
00000000
10000000
01000000
00000000
00010000
00001000
00000000
00000010
00000000
00000100
00010000
00000100
00000000
00000010
00000000
,
00010000
00000000
01000000
00100000
00000000
00001000
00010000
00000000
00001000
00000000
00000000
00000000
10010000
00000000
00010000
00000000
,
00100000
00000000
00001000
00000010
00000000
00000001
00001000
00000000
00000100
00000000
00010000
00100000
01000000
00000000
10000000
00000000
,
01000000
00000000
00010000
00100000
00000000
00001000
00000010
00000000
00001001
00000000
00000000
00000000
10010000
00000000
10000000
00000000
,
00001000
00000000
00010000
00000100
00000000
00001000
00000010
00000000
00011000
00000000
01000000
00100000
01000000
00000000
00000000
00000000
,
10010000
00000000
00000000
00000000
00001000
00010000
01000000
00000000
00010000
00001000
00000100
00000000
00010000
00000000
01000000
00000000
,
00100000
00000000
10000000
01000000
00000000
00100000
10000000
00000000
00100000
00000000
00010000
01000000
00001000
00000000
00000100
00000000
,
00000001
00000000
00001000
00000010
00000000
00000001
00000010
00000000
00001000
00000000
00000100
00000010
00010000
00000000
00100000
00000000
,
10000000
00000000
00100000
00010000
00000000
01000000
10000000
00000000
01000000
00000000
00010000
00100000
00001000
00000000
00000010
00000000
,
00000001
00000000
00000100
00001000
00000000
00000100
00000001
00000000
00000010
00000000
00000100
00001000
00010000
00000000
00100000
00000000
,
10000000
00000000
00100000
00010000
00000000
10000000
00100000
00000000
00010000
00000000
00100000
01000000
00001000
00000000
00000100
00000000
,
00000001
00000000
00000010
00001000
00000000
00000010
00000001
00000000
00000010
00000000
00000100
00001000
00010000
00000000
00100000
00000000
,
10000000
00000000
00100000
01000000
00000000
10000000
00010000
00000000
01000000
00000000
00100000
00010000
00001000
00000000
00001000
00000000
,
00011000
00000000
00001000
00000000
00000100
00000010
00000100
00000000
00011000
00000000
00000000
00001000
00010000
00000000
00100000
00000000
,
10000000
00000000
00000000
00000000
11000000
00000000
00000000
11000000
00000000
00000000
00000000
00010000
00001000
00000000
00000010
00000000
,
00000001
00000000
00000000
00000000
00000101
00000000
00000000
00000101
00000000
00000000
00000000
00001000
00010000
00000000
00100000
00000000
,
10000000
00000000
00000000
00000000
11000000
00000000
00000000
11000000
00000000
00000000
00000000
00010000
00001000
00000000
00000010
00000000
,
00000001
00000000
00000000
00000000
00000101
00000000
00000000
00000001
00010000
00000000
00010000
00000000
00011000
00000000
00001000
00000000
,
01000000
00100000
10000000
00000000
01000000
00000000
00000000
00010000
00001000
00000000
00000100
00000000
00000001
00000000
00000010
00000000
,
00000100
00010000
00000100
00000000
00001000
00000000
00000000
01000000
00010000
00000000
00001000
00000000
00100000
00000000
10000000
00000000
,
00100000
00010000
01000000
00000000
00010000
00000000
00001000
00000000
00000010
00000100
00000001
00000000
00000010
00000000
00001000
00000000
,
00010000
01000000
00100000
00000000
00001000
00000000
00000000
00010000
01000000
00000000
00000000
00000000
20020000
00000000
00000000
00000000
,
00000000
00000000
00030000
00000000
00000000
00000000
00001000
00000000
00000000
00000000
02000000
00000000
00000000
00000000
00000000
00000000
00000000
00000000
00000000
30000000
03000000
00000000
00000000
00000000
10000000
00000000
00000000
00000000
01000000
00000000
00000000
00000000
,
00010000
00001000
00010000
00000000
00000010
00000000
00000100
00000000
00000001
00000000
00000010
00002000
00000020
00000000
00000000
00000000
,
00000000
00000000
00000000
00000000
00000000
00000000
00000000
00000000
00000000
00000000
00003030
00000000
00000010
00000001
00001000
00000100
,
00000010
00000100
00010000
00001000
01000000
00010000
00100000
01000000
10000000
00100000
01000000
00002000
00020000
00000000
00000000
00000000
,
00000000
00000000
00000000
00000000
00000000
00033000
00010100
00011000
,
01001000
00000000
00000000
00000000
00100000
00001000
00010000
00000010
00010000
00001000
01000000
00020000
00200000
00000000
00000000
00030000
,
00301000
01000000
00001000
01000000
00001000
01000000
00001000
01000000
00001000
00000000
00001000
00000000
00010000
00000100
00010000
00000100
,
00010000
00000100
00010000
00000100
00010000
00000100
00010000
00000100
00010000
00000000
00010000
00000000
00011000
00000000
00001000
00000000
,
00010000
00100000
10000000
00000000
01000000
00000000
00000000
00010000
00001000
00000000
00000010
00000000
00000001
00000000
00001000
00000000
,
00000100
00000010
00001000
00000000
00100000
00000000
00000000
00010000
01000000
00000000
10000000
00000000
01000000
00000000
00010000
00000000
,
00001000
00000010
00000001
00000000
00000010
00000000
00000000
00001000
00010000
00000000
01000000
00000000
10010000
00000000
00000000
00000000
,
00011000
00000000
00000000
00000000
01000000
00000000
00000000
00000000
00001001
00000000
00000001
00000000
00000100
00001000
00010000
00000000
,
01000000
00000000
00000000
10000000
00010000
00000000
01000000
00000000
00001000
00000000
00000100
00000000
00000001
00000010
00001000
00000000
,
00010000
00000000
00000000
01000000
00010000
00000000
00001000
00000000
00000100
00000000
00000001
00000000
00000010
00001000
00010000
00000000
,
00100000
00000000
01000000
00000000
10000000
01000000
00010000
00000000
00001000
00000000
00000010
00000000
00000001
00000000
00000000
00000000
,
00000010
00000000
00000000
00000010
00000000
00000000
00000000
00000000
00001001
00000000
00000001
00000010
00000100
00000000
00001000
00000001
,
00000000
00000100
00001000
00000000
00010000
00000000
00000000
01000000
10000000
00000000
00100000
00010000
00100000
00000000
10000000
00010000
,
00000000
00000000
00000000
01000000
00000000
00000000
00001000
00000000
00000000
00000000
00000000
00000000
00000020
00000000
00000000
00000000
00000000
00000000
00000000
00000000
00000030
00000000
00000000
00000000
00000001
00000000
00000000
00000000
00000000
00000000
00000100
00000000
00000000
00001000
00000000
00000000
00000100
00000000
00000000
00000000
00000000
00000000
00000001
00000000
00000000
00000010
00000000
00000000
,
00000000
00001000
00010000
00000000
01000000
00000000
00000000
10000000
00100000
00000000
00010000
00001000
00000000
01000000
00000000
10000000
,
01000000
00000000
00000000
00000000
00000000
00000000
00010000
00000000
00000000
00100000
00000000
00000000
00000020
00000000
00000000
00000000
00000000
00000000
00000000
00000000
00000030
00000000
00000000
00000000
00000100
00000000
00000000
00000000
00000000
00000000
00000001
00000000
00000000
00000010
00000000
00000000
00001000
00000000
00000000
00000000
00000000
00000000
00000010
00000000
00000000
00000100
00000000
00000000
,
00000000
00010000
00000010
00000000
00000100
00000000
00000000
00010000
00001000
00000000
00000010
00010000
00000100
00000000
00001000
01000000
,
00000000
00000000
00000000
00100000
00000000
00000000
00001000
00000000
00000000
00000000
00000000
00000000
20000000
00000000
00000000
00000000
00000000
00000000
00000000
00000000
30000000
00000000
00000000
00000000
01000000
00000000
00000000
00000000
00000000
00000000
00010000
00000000
00000000
00001000
00000000
00000000
00010000
00000000
00000000
00000000
00000000
00000000
00100000
00000000
00000000
01000000
00000000
00000000
,
00000000
00001000
00010000
00000000
00000010
00000000
00000000
00000100
00001000
00000000
00010000
01000000
00000000
10000000
00000000
01000000
,
00100000
00000000
00000000
00000000
00000000
00000000
01000000
00000000
00000000
00010000
00000000
00000000
00000020
00000000
00000000
00000000
00000000
00000000
00000000
00000000
00000030
00000000
00000000
00000000
00022000
00000000
00000000
00000000
00000000
00000000
00000000
00000000
00000000
00000000
00000000
00000000
00000000
00000000
00000000
00000000
00000000
00000000
00000000
00000000
00000000
00000000
00000000
00000000
,
00000000
00000000
00000000
00000000
00000000
00000000
00000000
00000000
00000000
00000000
00000000
00000000
00000000
00000000
00000000
00033000
,
00001000
01000000
00010000
01000000
00010000
01000000
00010000
00200000
00000000
00000000
00000000
00000000
00000000
00000000
00000000
00000000
,
00000000
00000000
00000000
00000000
,
00000000
00000000
00000000
00000000
00000000
00300000
00000000
00000000
00000000
00000000
00000000
00000000
00000000
00000000
00000000
00000000
00000000
00000000
00000000
00000000
00000000
00000000
00000000
00000000
00000000
00000000
00000000
00000000
00000000
00000000
00000000
00000000
;
