#TITLE:FANCY;
#SUBTITLE:;
#ARTIST:TWICE;
#TITLETRANSLIT:;
#SUBTITLETRANSLIT:;
#ARTISTTRANSLIT:;
#GENRE:;
#CREDIT:mf32892;
#BANNER:;
#BACKGROUND:;
#LYRICSPATH:;
#CDTITLE:;
#MUSIC:FANCY.ogg;
#OFFSET:-0.166635;
#SAMPLESTART:57.894001;
#SAMPLELENGTH:15.000000;
#SELECTABLE:YES;
#BPMS:0.000000=132.000000
;
#STOPS:
;
#BGCHANGES:;
#KEYSOUNDS:;
#ATTACKS:;

//---------------dance-single - ----------------
#NOTES:
     dance-single:
     :
     Challenge:
     9:
     0.355743,0.450995,0.084893,0.141489,0.240531,528.000000,510.000000,18.000000,30.000000,0.000000,0.000000,0.355743,0.450995,0.084893,0.141489,0.240531,528.000000,510.000000,18.000000,30.000000,0.000000,0.000000:
0000
0000
0000
0000
,
0000
0000
0000
0000
,
0000
0000
0000
0000
,
0000
0000
0000
0000
,
0000
0000
0000
0000
,
0000
0000
0000
0000
,
0000
0000
0000
0000
,
0000
0000
0000
0000
0000
0000
0010
1000
,
0001
0000
0000
0010
0000
0000
0100
0000
1000
0000
0000
0010
0000
0000
1000
0000
,
0001
0000
0000
0010
0000
0000
0100
0000
2000
0000
0000
0000
3001
0000
1000
0000
,
0001
0000
0000
0100
0000
0000
0010
0000
1000
0000
0000
0100
0000
0000
0010
0000
,
1000
0000
0000
0010
0000
0000
0001
0000
2000
0000
0000
0000
3000
0000
0001
0000
,
0100
0000
0000
0010
0000
0000
1000
0000
0100
0000
0000
0010
0000
0000
0001
0000
,
2000
0000
0000
0001
0000
0000
3001
0000
0000
0000
1000
0000
0001
0000
0100
0000
,
0020
0000
0000
1000
0000
0000
1030
0000
0000
0000
1000
0000
0001
0000
0010
0000
,
0200
0000
0000
0300
1000
0000
0001
0000
0200
0000
0000
0300
0010
0000
0000
0000
,
1000
0000
0000
0100
0000
0000
1000
0000
0001
0000
0000
0010
0000
0000
0100
0000
,
0001
0000
0000
0100
0000
0000
1000
0000
0010
0000
0000
0000
0101
0000
1000
0000
,
0001
0000
0000
0010
0000
0000
0100
0000
1000
0000
0000
0001
0000
0000
0010
0000
,
0100
0000
0000
0001
0000
0000
0100
0000
2000
0000
0000
0000
3000
0000
0001
0000
,
2000
0000
0000
3100
0000
0000
1000
0000
0020
0000
0000
0130
0000
0000
0001
0000
,
2000
0000
3001
0020
0000
0031
0100
0010
,
2000
0000
0000
3002
0000
0000
0013
0000
0000
0000
0100
0000
0010
0000
0001
0000
,
2000
0000
0000
0001
3000
0000
0101
0000
0000
0000
1000
0100
0010
0000
0001
0000
,
0001
0100
0020
0000
1030
0010
0000
0010
,
0100
0001
1000
0100
0001
0100
1000
0001
,
0100
0010
2000
0000
3100
0010
0100
2000
,
0000
3010
1000
0001
0010
0100
1000
0000
,
1001
0000
0001
0000
0100
0000
0010
0000
1000
0000
0100
0000
0010
0000
0001
1000
,
0001
0000
0001
0000
0100
0000
0010
1000
0010
0000
0010
0000
0100
0000
0001
0000
,
1000
0100
1000
0000
0100
0010
0100
0000
0010
0001
0010
0000
0001
1000
0001
0000
,
1000
0100
1000
0100
0010
0001
0010
0001
0200
0000
0000
0000
0300
0000
0000
0000
,
1001
0000
0000
0001
0100
0000
0010
0000
1000
0000
0001
0000
0020
0000
0000
0000
,
0130
0000
1000
0001
1000
0000
0010
0000
0100
0000
0001
0000
0010
0000
0100
0000
,
1100
0000
0000
1000
0001
0000
0100
0000
0010
0000
0000
1000
0001
0000
0010
0000
,
0100
0000
1000
0100
1000
0000
0001
0000
0100
0010
0100
0000
0010
0000
1000
0000
,
1001
0000
0000
1000
0010
0000
0100
0000
0001
0000
1000
0000
0200
0000
0000
0000
,
0310
0000
0001
1000
0001
0000
0100
0000
0010
0000
1000
0000
0100
0000
0010
0000
,
0011
0000
0000
0100
1000
0000
0001
0000
0100
0000
0000
0010
1000
0000
0001
0000
,
1000
0100
1000
0100
0010
0000
0001
0010
0100
0010
0001
1000
0001
0000
0000
0000
,
0011
0000
0000
0100
1000
0000
0100
0000
0010
0000
0100
0000
1000
0000
0001
0000
,
0100
0000
0000
0010
1000
0000
0001
0000
0100
0000
0001
0000
1000
0000
0100
0000
,
0010
0000
0001
0100
0001
0000
1000
0100
1000
0000
0010
1000
0010
0000
0100
0000
,
0001
0010
1000
0010
0001
0010
0100
0000
,
1100
0000
0000
0010
0001
0000
0010
0000
0100
0000
0010
0000
0001
0000
1000
0000
,
0010
0000
0000
0100
0001
0000
0100
0000
0010
0000
1000
0000
0100
0000
0010
0000
,
0001
0000
1000
0100
1000
0000
0001
0100
0001
0000
0010
0001
0010
0000
0100
0000
,
2000
0000
0000
0000
0001
0000
0000
0010
0000
0000
0000
0000
3100
0000
0000
0000
,
0001
0000
0000
0010
0000
0000
0100
0000
1000
0000
0010
0000
0200
0000
0000
0000
,
1300
0000
0100
0000
0001
0000
0200
0000
0000
0000
0000
0000
0300
0000
0000
0000
0000
0000
0010
0000
0000
1000
0000
0000
,
0001
0000
0000
0010
0000
0000
0001
0000
0100
0000
0000
0010
0000
0000
1000
0000
,
0100
0000
0000
0001
0000
0000
0100
0000
1000
0000
0000
0001
0000
0000
0000
0000
,
0100
0000
0100
0000
,
0010
0000
0010
0000
,
1000
0100
1000
0001
0010
0100
1000
0001
,
0100
0010
1000
0001
0010
0100
1000
0001
1000
0000
0000
0000
2002
0000
0000
0000
,
0000
0000
0000
3003
,
1001
0000
0000
0001
0010
0000
0100
0000
1000
0000
0001
0000
0100
0000
0010
0000
,
1000
0000
0001
0010
0001
0000
1000
0010
1000
0000
0100
0000
0110
0000
1000
0000
,
0001
0000
0100
0010
0100
0000
0001
0000
1000
0100
1000
0000
0001
0010
0001
0010
,
0100
0000
1000
0001
0100
0000
0010
0000
1000
0100
0010
0000
0100
0000
0010
0000
,
1001
0000
0000
0001
0100
0000
0010
0000
1000
0000
0100
0000
0001
0000
0100
0000
,
1000
0000
0001
0100
0010
0000
1000
0100
0010
0000
0001
0000
1001
0000
1000
0000
,
0100
0000
1000
0010
1000
0000
0100
0000
0010
0001
0010
0000
0200
0000
0000
0000
,
1300
0001
0100
0001
1000
0000
0001
0100
0010
1000
0100
0010
0001
0000
0000
0000
,
0001
0010
0100
1000
0100
0000
0010
0000
0001
0000
0010
0000
1000
0000
0010
0000
,
0001
0100
0010
1000
0010
0000
0100
0000
0001
0000
0100
0000
1000
0000
0100
0000
,
0001
0000
1000
0100
0010
0000
0001
1000
0010
0000
0100
0001
0010
0000
0001
0000
,
1000
0100
0001
0100
0010
1000
0010
0000
,
0001
0010
0100
1000
0100
0000
0001
0000
0100
0000
1000
0000
0100
0000
0010
0000
,
0001
0100
0010
1000
0001
0000
1000
0000
0001
0000
0100
0000
1000
0000
0100
0000
,
0001
0000
1000
0010
0100
0000
0010
1000
0100
0000
1000
0001
0010
0000
0100
0000
,
0020
0000
0000
0000
0001
0000
0000
0100
0000
0000
1000
0000
0031
0000
0000
0000
,
2000
0001
3000
1100
0000
0000
0000
0011
,
0000
0010
0001
0000
0100
0010
1000
0000
,
0002
1000
0003
0101
0000
0000
0000
0110
,
0000
1000
0002
0000
0003
0000
0000
0000
;
