#TITLE:E;
#SUBTITLE:;
#ARTIST:LUCY;
#TITLETRANSLIT:;
#SUBTITLETRANSLIT:;
#ARTISTTRANSLIT:;
#GENRE:;
#CREDIT:;
#BANNER:;
#BACKGROUND:;
#LYRICSPATH:;
#CDTITLE:;
#MUSIC:e.ogg;
#OFFSET:-0.076000;
#SAMPLESTART:70.018997;
#SAMPLELENGTH:10.799000;
#SELECTABLE:YES;
#BPMS:0.000000=87.500000
,22.000000=175.001007
;
#STOPS:
;
#BGCHANGES:;
#KEYSOUNDS:;
#ATTACKS:;

//---------------dance-single - ----------------
#NOTES:
     dance-single:
     :
     Hard:
     9:
     0.638067,0.787862,0.469650,0.086262,0.498404,466.000000,417.000000,49.000000,9.000000,0.000000,0.000000,0.638067,0.787862,0.469650,0.086262,0.498404,466.000000,417.000000,49.000000,9.000000,0.000000,0.000000:
0000
0000
0000
0000
,
0000
0000
0000
0000
0000
0000
0000
0000
1000
1000
0010
0000
1000
1000
0001
0000
,
1000
0001
0010
0000
0001
1000
0100
0000
1000
0000
0001
0010
0100
0000
0010
0000
,
0001
0000
0100
0000
0001
0010
0001
0010
0001
1000
1000
0000
0010
1000
1000
0000
,
0001
0010
1000
0000
1000
0010
0001
0000
0001
0000
1000
0100
0010
0000
0100
0000
,
1000
0000
0001
0000
1000
0010
1000
0010
1000
0000
1000
0000
1010
0000
0000
0000
,
0001
0001
0011
0000
1000
0001
1001
0000
,
0001
0010
0011
0000
0001
0010
0100
1000
,
0010
1000
0000
0000
0010
1000
0000
0000
0001
0100
0000
0000
0001
0100
0000
0000
,
0001
1000
0100
1000
0001
0001
0011
0000
,
0001
0001
0101
0000
1000
0010
1010
0000
,
1000
0001
1001
0000
1000
0100
0001
0100
,
1000
0100
0000
0000
1000
0100
0000
0000
1000
0001
0000
0000
1000
0000
0001
0000
,
0010
0000
0001
0000
1000
0001
1000
0001
0100
0000
0100
0000
0101
0000
0000
0000
,
0100
0100
0110
0000
0010
0010
1010
0000
,
0010
0010
0110
0000
0100
0001
0010
0001
,
0100
0001
0000
0000
0001
1000
0000
0000
1000
0010
0000
0000
0010
0100
0000
0000
,
0100
0001
0010
0100
1000
1000
1010
0000
,
1000
1000
1100
0000
0001
0001
0011
0000
,
0001
0001
0101
0000
0001
0100
1000
0100
,
0001
0100
0000
0000
0100
0010
0000
0000
0010
1000
0000
0000
1000
0000
0001
0000
,
0100
0000
0010
0000
1000
0001
1000
0001
0200
0000
0000
0000
0001
0000
0000
0000
,
0302
0010
0013
0000
,
0001
1000
0100
0010
0011
0000
0011
0000
,
1001
1001
1010
1010
,
0101
0000
0000
0101
0000
0000
0001
1000
0001
1000
0001
1000
,
0010
0100
0010
0100
0010
0100
0110
0000
0000
0000
0000
0000
,
0002
0000
0010
0000
,
2003
0000
0010
0000
,
3002
0000
0100
0000
,
0003
0000
0000
0000
0000
0000
0001
0000
0000
1000
0001
1000
,
0001
0000
0010
0001
0000
1000
0001
0000
0010
0001
0000
1000
,
0001
1000
0001
0100
0010
0100
0010
0000
0000
1000
0010
1000
,
0100
0000
0010
0100
0000
0001
0100
0000
0010
0100
0000
1000
,
0100
0000
1000
0001
1000
0001
1001
0000
1000
0010
0000
0000
,
1010
0000
0001
0010
0000
0000
0011
0000
1000
0001
0000
0000
,
1000
0000
1000
0000
1000
0000
1010
0000
1000
0100
0000
0000
,
0011
0000
0001
0100
0000
0000
1001
0000
1000
0100
0000
0000
,
1000
0000
1000
0000
1000
0000
0001
0010
0001
0010
0000
0000
,
0001
1000
0001
1000
0000
0000
0010
1000
0100
1000
0000
0000
,
0001
0100
0001
0010
0000
0000
0011
0000
0000
0011
0000
0000
,
1001
1001
0220
0000
,
0000
0000
0330
0000
,
0000
0000
0000
0000
,
0000
0000
0000
0000
,
0000
0000
0000
0000
0001
0001
0011
0000
,
0001
0001
0101
0000
1000
1000
1010
0000
,
1000
1000
1001
0000
1000
0100
0010
0001
,
0010
0001
0000
0000
0001
0100
0000
0000
0100
0010
0000
0000
0010
1000
0000
0000
,
1000
0001
0100
0010
1000
1000
1010
0000
,
1000
1000
1100
0000
0001
0001
0011
0000
,
0001
0001
0101
0000
0001
0010
1000
0010
,
0001
0100
0000
0000
0100
1000
0000
0000
1000
0100
0000
0000
0100
0000
0001
0000
,
1000
0000
0000
0010
0000
0000
1000
0000
0000
0001
0000
0000
0010
0000
0001
0000
0010
0000
0001
0000
0000
0000
0000
0000
,
1000
0001
1000
0001
0000
0000
1000
0010
1000
0010
0000
0000
,
0100
0000
0001
0000
0100
0000
0001
0000
0000
0000
0000
0000
1000
0000
0000
0100
0000
0000
0010
0000
0000
0001
0000
0000
,
1000
0010
1000
0001
0100
0001
0100
0010
,
1000
0000
0000
0100
0000
0000
0010
0000
0000
0001
0000
0000
1000
0000
0001
0000
1000
0000
0010
0000
0000
0000
0000
0000
,
1000
0001
1000
0100
0000
0000
1000
0010
1000
0100
0000
0000
,
0010
0000
0001
0000
0100
0000
0001
0000
0000
0000
0000
0000
0100
0000
0000
0001
0000
0000
1000
0000
0000
0100
0000
0000
,
0001
0100
1000
0001
0100
0010
0100
1000
,
0100
0010
0100
0001
1000
0010
1010
0000
,
1000
0001
1001
0000
0001
0010
0011
0000
,
0001
0000
0000
1000
0000
0000
1001
0000
0000
0000
0000
0000
1000
0000
1000
0000
1000
0000
0000
0000
0000
0000
0000
0000
,
0001
0001
0001
0000
0000
0000
2002
0000
0000
0000
0000
0000
,
0000
0000
0000
0000
,
0000
0000
0000
0000
,
0000
0000
0000
0000
,
0000
0000
3003
0000
;

//---------------dance-single - ----------------
#NOTES:
     dance-single:
     :
     Medium:
     6:
     0.451850,0.590896,0.412142,0.067093,0.076678,330.000000,287.000000,43.000000,7.000000,0.000000,0.000000,0.451850,0.590896,0.412142,0.067093,0.076678,330.000000,287.000000,43.000000,7.000000,0.000000,0.000000:
0000
0000
0000
0000
,
0000
0000
0000
0000
1000
1000
0010
0000
,
1000
1000
0100
0000
1000
0001
0010
0100
,
1000
0000
0001
0000
0001
0001
0100
0000
,
0001
0001
0010
0000
0001
1000
0010
0100
,
0001
0000
1000
0000
0001
0001
0001
0000
,
0010
0010
0010
0000
0001
1000
0001
0000
,
1000
0010
1000
0000
0001
0000
1000
0001
,
0100
0001
0010
0100
,
1000
0100
1000
0000
1000
1000
1000
0000
,
0001
0001
0001
0000
0100
0001
0100
0000
,
0010
0100
0010
0000
1000
0000
0010
1000
,
0001
0100
0010
0100
,
0001
0100
0001
0100
0001
0001
0000
0000
,
1000
1000
0000
0000
0010
1000
0000
0000
,
0001
0100
0000
0000
1001
0000
1001
0000
,
0011
0011
0001
1000
,
0010
0000
1000
0000
0001
0001
0000
0000
,
0100
0100
0000
0000
0001
1000
0000
0000
,
0010
1000
0000
0000
1010
0000
0011
0000
,
1010
0011
1000
0100
,
0001
0100
2000
0000
,
0010
0000
3001
0000
,
0010
0001
0010
0001
0011
0000
0011
0000
,
1001
1001
1010
1010
,
0101
0101
0200
0010
,
0010
0010
0310
0000
,
1000
0010
1000
0000
,
0001
1000
0001
0000
,
0010
0001
0100
0000
,
0010
0000
0000
1000
0000
0000
0001
0000
0000
0100
0000
0001
,
0010
0000
0000
0010
0000
0001
1000
0000
0000
1000
0000
0001
,
0100
0000
0000
0010
0000
0000
1000
0000
0000
0010
0000
1000
,
0001
0000
0000
0001
0000
1000
0010
0000
0000
0010
0000
1000
,
0001
1001
0001
0011
,
1000
1010
0001
0011
,
1001
0000
1000
0001
0000
0000
1000
0000
0000
1100
0000
0000
,
0001
0101
1000
1001
,
0110
0000
0001
1000
0000
0000
0020
0000
0000
1000
0000
0000
,
0100
1000
0230
0001
,
1000
0301
0011
0011
,
1010
1010
0012
0000
,
0000
0000
0000
0000
,
0000
0000
0003
0000
,
0000
0000
0000
0000
,
0000
0000
0000
0000
1000
0001
1000
0000
,
0001
0001
0001
0000
0010
0001
0010
0000
,
0100
0100
0100
0000
1000
0000
0001
1000
,
0010
0100
0010
1000
,
0001
0100
0001
0000
0001
0001
0001
0000
,
0010
0001
0010
0000
0100
0100
0100
0000
,
1000
0001
1000
0000
1000
0000
0100
0010
,
0001
1000
0001
0100
,
0010
0000
0000
1000
0000
0000
0010
0000
0000
1000
0000
0000
0001
0000
0000
0000
1000
0000
0001
0000
0000
0000
0000
0000
,
0010
0000
0001
0010
0000
0000
0100
0000
1000
0100
0000
0000
,
1000
0000
0001
1000
0000
0000
1010
0000
0000
1010
0000
0000
,
1001
1001
1000
0001
,
0010
0000
0000
0001
0000
0000
0100
0000
0001
0100
0000
0000
,
0010
0000
1000
0010
0000
0000
1000
0000
0010
0100
0000
0000
,
0001
0000
0100
0010
0000
0000
1010
0000
0000
0011
0000
0000
,
1010
0011
1000
0100
,
0001
0000
0100
0000
1000
1000
1000
0000
,
0001
0001
0001
0000
0100
0001
0100
0000
,
0010
0100
0010
0000
1010
0000
0110
0000
,
0101
0110
2002
0000
,
0000
0000
0000
0000
,
0000
0000
0000
0000
,
0000
0000
0000
0000
,
0000
0000
3003
0000
;

//---------------dance-single - ----------------
#NOTES:
     dance-single:
     :
     Easy:
     4:
     0.335464,0.525241,0.412142,0.105432,0.000000,245.000000,202.000000,43.000000,11.000000,0.000000,0.000000,0.335464,0.525241,0.412142,0.105432,0.000000,245.000000,202.000000,43.000000,11.000000,0.000000,0.000000:
0000
0000
0000
0000
,
0000
0000
1000
0001
,
0010
0000
0010
0000
0001
0001
0001
0000
,
0100
0010
1000
0010
,
0100
0000
0010
0000
0100
0100
0100
0000
,
0001
1000
0001
0010
,
0001
0000
1000
0001
,
1000
0000
0001
0100
,
0010
1000
0001
0010
,
0100
1000
1010
0001
,
1010
0000
1001
0100
,
1001
0000
0001
0010
,
0100
1000
0010
0100
,
0010
1000
0002
0000
,
0013
0000
2000
0000
,
3010
0000
0001
0100
,
1000
0100
0001
0010
,
1000
0010
0011
0000
,
1001
0000
1010
0000
,
1001
0000
0001
0010
,
1000
0010
0001
0100
,
1000
0100
0002
0000
,
1000
0000
1003
0000
,
0000
0000
1000
1000
,
1010
1010
0001
0001
,
0101
0101
1001
1001
,
1001
1001
1001
0000
,
0000
0000
1000
0000
,
0000
0000
0001
0000
,
0000
0000
1000
0000
,
0000
0000
0010
0010
,
1000
0001
1000
0010
,
1000
0100
0010
0000
,
0001
0001
1000
0001
,
0010
0001
1000
1010
,
0001
0011
1000
1001
,
0002
0100
0103
0101
,
0010
0011
0100
0101
,
0002
1000
1003
0010
,
1000
0010
0100
0001
,
0010
0001
1001
1001
,
1001
1001
2002
0000
,
0000
0000
0000
0000
,
0000
0000
3003
0000
,
0000
0000
0000
0000
,
0000
0000
1000
0010
,
1000
0000
0001
1000
,
0001
0000
1000
0100
,
0010
0001
0100
0010
,
0100
0001
0011
1000
,
0011
0000
1001
0100
,
1001
0000
0001
0100
,
0010
0100
0001
0010
,
0100
1000
0001
0001
,
0010
0010
0001
0001
,
1000
1000
0002
0010
,
0010
0013
0001
0100
,
1000
0100
0001
0001
,
0101
0101
1000
1000
,
1001
1001
2000
0010
,
0010
3010
0100
0001
,
0010
0001
0011
0000
,
0101
0000
1010
0000
,
1100
0000
1001
0010
,
1001
0100
2002
0000
,
0000
0000
0000
0000
,
0000
0000
0000
0000
,
0000
0000
0000
0000
,
0000
0000
3003
0000
;

//---------------dance-single - ----------------
#NOTES:
     dance-single:
     :
     Beginner:
     3:
     0.219079,0.393931,0.162940,0.019169,0.000000,160.000000,143.000000,17.000000,2.000000,0.000000,0.000000,0.219079,0.393931,0.162940,0.019169,0.000000,160.000000,143.000000,17.000000,2.000000,0.000000,0.000000:
// measure 0
0000
0000
0000
0000
,  // measure 1
0000
0000
1000
0000
,  // measure 2
0001
0000
0010
0010
,  // measure 3
0010
0000
0001
0000
,  // measure 4
0100
0000
0001
0001
,  // measure 5
0001
0000
1000
1000
,  // measure 6
1000
0000
0010
0010
,  // measure 7
0010
0000
1000
0000
,  // measure 8
0001
0000
0100
0000
,  // measure 9
1000
0000
0100
0100
,  // measure 10
0100
0000
0010
0010
,  // measure 11
0010
0000
1000
0000
,  // measure 12
0010
0000
0001
0000
,  // measure 13
0010
0000
1001
0000
,  // measure 14
1001
0000
0110
0000
,  // measure 15
0110
0000
1000
1000
,  // measure 16
1000
1000
1000
0000
,  // measure 17
0010
0000
1001
0000
,  // measure 18
1001
0000
0110
0000
,  // measure 19
0110
0000
0001
0001
,  // measure 20
0001
0001
0001
0000
,  // measure 21
0100
0000
0001
0000
,  // measure 22
0010
0000
0001
0000
,  // measure 23
0000
0000
0010
0010
,  // measure 24
0010
0010
0010
0010
,  // measure 25
0010
0010
0010
0000
,  // measure 26
0100
0000
1001
0000
,  // measure 27
0000
0000
1000
0000
,  // measure 28
0000
0000
0001
0000
,  // measure 29
0000
0000
1000
0000
,  // measure 30
0000
0000
0001
0000
,  // measure 31
0010
0010
0000
0001
,  // measure 32
0000
0100
0100
0000
,  // measure 33
0010
0010
0000
1000
,  // measure 34
0000
0100
0100
0000
,  // measure 35
0001
0000
0100
0000
,  // measure 36
1000
1000
1000
0000
,  // measure 37
0010
0000
1000
0000
,  // measure 38
0001
0001
0001
0000
,  // measure 39
1000
0000
0010
0000
,  // measure 40
0100
0000
1001
1001
,  // measure 41
1001
1001
1001
0000
,  // measure 42
0000
0000
0000
0000
,  // measure 43
0000
0000
0000
0000
,  // measure 44
0000
0000
0000
0000
,  // measure 45
0000
0000
1000
0000
,  // measure 46
0010
0000
1000
0000
,  // measure 47
0001
0000
1000
1000
,  // measure 48
1000
1000
1000
0000
,  // measure 49
0100
0000
0010
0000
,  // measure 50
0001
0000
1000
0000
,  // measure 51
0001
0000
0010
0010
,  // measure 52
0010
0010
0010
0000
,  // measure 53
0100
0000
1000
1000
,  // measure 54
1000
0000
0001
0001
,  // measure 55
0001
0000
1000
0000
,  // measure 56
0100
0000
0001
0000
,  // measure 57
0100
0000
0010
0010
,  // measure 58
0010
0000
0100
0100
,  // measure 59
0100
0000
1000
0000
,  // measure 60
0001
0000
0100
0000
,  // measure 61
0010
0000
1000
0000
,  // measure 62
1000
0000
0001
0000
,  // measure 63
0001
0000
1001
0000
,  // measure 64
1001
0000
0220
0000
,  // measure 65
0000
0000
0000
0000
,  // measure 66
0000
0000
0000
0000
,  // measure 67
0000
0000
0000
0000
,  // measure 68
0000
0000
0330
0000
;
