#VERSION:0.83;
#TITLE:CIA;
#SUBTITLE:;
#ARTIST:New Politics;
#TITLETRANSLIT:;
#SUBTITLETRANSLIT:;
#ARTISTTRANSLIT:;
#GENRE:;
#ORIGIN:;
#CREDIT:;
#BANNER:banner.png;
#BACKGROUND:CIA-bg.png;
#PREVIEWVID:;
#JACKET:jacket.png;
#CDIMAGE:;
#DISCIMAGE:;
#LYRICSPATH:;
#CDTITLE:;
#MUSIC:CIA.ogg;
#OFFSET:-0.406084;
#SAMPLESTART:28.079967;
#SAMPLELENGTH:12.000000;
#SELECTABLE:YES;
#BPMS:0.000=85.000,
40.000=170.000,
104.000=85.000,
108.000=170.000;
#STOPS:;
#DELAYS:;
#WARPS:;
#TIMESIGNATURES:0.000=4=4;
#TICKCOUNTS:0.000=4;
#COMBOS:0.000=1;
#SPEEDS:0.000=1.000=0.000=0;
#SCROLLS:0.000=1.000;
#FAKES:;
#LABELS:0.000=Song Start;
#BGCHANGES:;
#KEYSOUNDS:;
#ATTACKS:
;

//---------------dance-single - ----------------
#NOTEDATA:;
#CHARTNAME:;
#STEPSTYPE:dance-single;
#DESCRIPTION:;
#CHARTSTYLE:;
#DIFFICULTY:Beginner;
#METER:2;
#RADARVALUES:0.140718,0.210042,0.033110,0.000000,0.000000,119.000000,115.000000,4.000000,0.000000,0.000000,0.000000,0.000000,0.000000,0.000000,0.140718,0.210042,0.033110,0.000000,0.000000,119.000000,115.000000,4.000000,0.000000,0.000000,0.000000,0.000000,0.000000,0.000000;
#CREDIT:;
#NOTES:
0000
0000
0000
0000
,
0000
0000
0000
0000
,
1000
1000
1000
0000
,
0001
0001
0001
0000
,
0100
0100
0100
0000
,
0010
0010
0010
0000
,
1000
0000
0100
0000
,
0010
0000
0001
0000
,
1000
0000
0010
0000
,
0100
0100
0100
0000
,
0001
0000
0000
0000
,
0001
0000
0010
0000
,
0010
0000
0000
0000
,
0100
0000
1000
0000
,
1000
0000
0000
0000
,
0010
0000
0010
0000
,
0100
0000
0100
0000
,
0001
0000
0001
0000
,
1000
0000
0000
0000
,
0100
0000
0100
0000
,
0010
0000
0000
0000
,
0001
0000
0001
0000
,
1000
0000
0000
0000
,
0010
0000
0010
0000
,
0100
0000
0000
0000
,
0001
0000
0000
0000
,
1000
0000
0000
0000
,
1000
0000
1000
0000
,
0100
0000
0000
0000
,
0010
0000
0010
0000
,
0001
0000
0000
0000
,
0100
0000
0010
0000
,
0100
0000
0100
0000
,
0010
0000
0000
0000
,
0010
0000
0000
0000
,
1000
0000
0000
0000
,
0001
0000
0000
0000
,
0010
0000
0000
0000
,
0010
0000
0000
0000
,
0100
0000
0100
0000
,
1000
0000
1000
0000
,
0001
0000
0000
0000
,
0001
0000
0001
0000
,
1000
0000
0000
0000
,
0010
0000
0010
0000
,
0100
0000
0000
0000
,
0001
0000
0001
0000
,
1000
0000
1000
0000
,
0001
0000
1001
0000
,
1000
0000
0000
0000
,
1000
0000
1000
0000
,
0100
0000
0000
0000
,
0010
0000
0010
0000
,
0001
0000
0000
0000
,
0100
0000
0100
0000
,
0010
0000
0000
0000
,
0000
0000
0000
0000
,
0010
0000
0010
0000
,
1000
0000
0000
0000
,
1000
0000
1000
0000
,
0100
0000
0000
0000
,
0100
0000
0100
0000
,
0010
0000
0000
0000
,
0010
0000
0010
0000
,
0001
0000
0000
0000
,
1000
0000
0001
0000
,
1001
0000
0000
0000
,
0001
0000
1000
0000
,
1001
0000
0000
0000
,
0100
0000
0100
0000
,
0001
0000
0001
0000
,
1000
0000
0100
0000
,
0010
0000
1001
0000
;

//---------------dance-single - ----------------
#NOTEDATA:;
#CHARTNAME:;
#STEPSTYPE:dance-single;
#DESCRIPTION:;
#CHARTSTYLE:;
#DIFFICULTY:Easy;
#METER:4;
#RADARVALUES:0.257786,0.330066,0.049665,0.066220,0.000000,218.000000,212.000000,6.000000,8.000000,0.000000,0.000000,0.000000,0.000000,0.000000,0.257786,0.330066,0.049665,0.066220,0.000000,218.000000,212.000000,6.000000,8.000000,0.000000,0.000000,0.000000,0.000000,0.000000;
#CREDIT:;
#NOTES:
0000
0000
0000
0000
,
0000
0000
0000
0000
,
1000
1000
0100
0000
,
0010
0010
0001
0000
,
0100
0100
0010
0000
,
1000
1000
0001
0000
,
1000
0100
1100
0000
,
0001
0100
0101
0000
,
0001
1000
1001
0000
,
1000
0100
0010
0010
,
0001
0000
0000
0001
,
0100
0010
1000
0100
,
0010
0000
0000
0010
,
0200
1000
1300
0010
,
0100
0000
0000
0100
,
0001
0010
0100
1000
,
0001
0000
0001
0000
,
1000
0000
1000
0001
,
1000
0000
0000
0100
,
0010
0001
0100
0010
,
1000
0000
0000
0010
,
0200
0001
0301
0010
,
0100
0000
0000
0100
,
1000
0010
0100
0001
,
1000
0000
1000
0000
,
0001
0000
0001
0000
,
1000
0000
0000
0100
0100
0000
0000
0000
,
0010
0010
0001
0001
,
0100
0000
0000
0000
,
0010
0010
1000
0100
,
1000
0000
0000
0000
,
1000
0001
0100
0010
,
0100
0001
2000
0000
,
3001
0000
0001
0010
,
0200
0000
0000
0300
,
0100
1000
0010
0010
,
0200
0000
0000
0300
,
0100
0001
1000
1000
,
0200
0000
0000
0300
,
1000
0010
0100
0100
,
0001
0001
0110
0110
,
1000
0000
0000
1000
,
0001
0100
0010
1000
,
0010
0000
0000
0010
,
0200
0001
0301
0010
,
0100
0000
0000
0100
,
1000
0010
0100
0001
,
1000
0100
0010
0001
,
0100
0010
1000
0001
,
1000
0000
0000
0001
,
0100
0010
0100
0001
,
1000
0000
0000
1000
,
0200
0010
0310
0100
,
1000
0000
0000
1000
,
0001
0100
0010
0100
,
0001
0000
0001
1000
,
0100
0000
0100
0000
,
1000
0010
0100
0001
,
1000
1000
1000
0000
,
0001
0010
0100
1000
,
0001
0001
0001
0000
,
1000
0010
0100
0001
,
0010
0100
1000
0000
,
0001
0000
0001
0000
,
1000
1000
1000
0000
,
0001
0010
0100
1000
,
0001
0000
0001
0000
,
1000
0100
0010
0001
,
1000
0000
1000
0000
,
0001
0100
0010
1000
,
0100
0010
0001
1000
,
0010
0000
0010
0000
,
0100
0100
1001
0000
;

//---------------dance-single - ----------------
#NOTEDATA:;
#CHARTNAME:;
#STEPSTYPE:dance-single;
#DESCRIPTION:;
#CHARTSTYLE:;
#DIFFICULTY:Medium;
#METER:6;
#RADARVALUES:0.403234,0.420085,0.289714,0.124163,0.004139,341.000000,306.000000,35.000000,15.000000,0.000000,0.000000,0.000000,0.000000,0.000000,0.403234,0.420085,0.289714,0.124163,0.004139,341.000000,306.000000,35.000000,15.000000,0.000000,0.000000,0.000000,0.000000,0.000000;
#CREDIT:;
#NOTES:
0000
0000
0000
0000
,
0000
0000
0000
0000
,
1000
1000
0000
0100
0100
0000
0010
0000
,
0001
0001
0001
0000
0100
0000
0100
0000
,
0010
1000
0001
0000
0001
0000
1000
0000
,
0100
1000
0001
0000
0100
0000
0010
0000
,
1000
0000
0100
0100
0200
0000
0300
0000
,
0010
0000
0001
0001
0002
0000
0003
0000
,
0100
0000
0010
0010
0020
0000
0030
0000
,
0010
1000
0001
1000
0001
0001
1000
0100
,
1001
0000
0000
0000
0000
1000
0100
0000
,
0100
0000
0010
0000
0001
0100
0010
0000
,
0100
0000
0101
0000
0000
0001
0010
0100
,
1000
0000
0100
0000
0010
0100
1000
0000
,
1010
0000
0000
0000
0000
0010
0100
0000
,
0001
0000
0010
0100
1000
0000
0001
0000
,
1100
0000
0000
0101
0000
0000
1100
0000
,
0000
0101
0000
0000
1100
0000
0110
0000
,
1001
0000
0000
0000
0000
1000
0010
0000
,
0100
0000
0001
0010
0001
0000
0100
0000
,
0010
0000
0000
0000
0000
0010
1000
0000
,
0100
0010
0100
0000
1000
0000
0001
0000
,
0101
0000
0000
0000
0000
0001
1000
0000
,
0100
0000
1000
0001
0100
0000
0010
0000
,
1010
0000
0000
0101
0000
0000
1001
0000
,
0000
0011
0000
0000
1100
0000
1001
0000
,
0001
0000
0100
0000
0000
0000
0100
0000
0010
0000
0000
0000
1001
0000
0000
1000
,
0100
0000
0100
0000
0010
0000
0001
1000
,
0001
0000
0100
0000
0100
0000
0000
0010
,
1000
0000
1000
0000
0100
0000
0010
0100
,
0010
0000
0100
0000
1000
0000
0000
0001
,
0100
0000
0100
0000
0010
0000
0100
0001
,
0100
0001
0020
0000
,
0130
0000
0000
0000
1000
0100
1000
0000
,
0002
0000
0000
0000
,
1003
0010
1000
0000
0010
0000
0000
0100
,
0002
0000
0000
0000
,
1003
0100
0010
0000
0100
0000
0000
0010
,
0002
0000
0000
0000
,
1003
0010
0000
0010
0100
0000
0001
1000
,
0001
0000
0010
0000
0100
0100
1000
1000
,
0001
0000
0000
0000
0000
1000
0010
0000
,
0100
0000
0010
1000
0010
0000
0100
0000
,
0001
0000
0000
0000
0000
1000
0100
0000
,
0020
0100
0130
0000
1000
0001
1000
0000
,
0100
0000
0000
0000
0000
1000
0010
0000
,
0100
0000
0001
0100
0001
0000
0011
0000
,
1100
0000
0000
1010
0000
0000
0101
0000
,
0000
0011
0000
0000
1100
0000
1001
0000
,
1010
0000
0000
0000
0000
1000
0010
0000
,
0100
0000
0001
0010
0001
0000
0100
0000
,
0010
0000
0000
0000
0000
1000
0001
0000
,
0020
0100
0130
0000
1000
0100
0010
0000
,
0001
0000
0000
0000
0000
0001
0100
0000
,
0001
0000
1000
0100
0010
0000
0100
0000
,
1000
0010
0200
0302
,
2003
3200
0010
0310
,
0001
1000
0001
1000
0001
1000
0001
0000
,
1001
0000
1001
0000
,
0100
0010
0100
0010
0100
0010
0100
0000
,
0110
0000
0110
0000
,
0001
0010
0100
1000
0100
0010
0001
0000
,
0011
0000
1100
0000
,
1000
0010
0000
0010
0100
0000
0001
1000
,
0001
0110
0110
0000
,
0001
0010
0100
1000
0001
1000
0100
0010
,
0002
1000
1003
0000
,
1000
0100
0010
0001
1000
0001
0010
0100
,
2000
0001
3001
0000
,
1000
0100
0010
0001
0100
0010
0100
0001
,
1000
0100
0010
0100
,
1000
0000
0001
0100
0000
0100
0010
0000
,
0100
0001
1000
0000
1001
0000
0000
0000
;

//---------------dance-single - ----------------
#NOTEDATA:;
#CHARTNAME:;
#STEPSTYPE:dance-single;
#DESCRIPTION:;
#CHARTSTYLE:;
#DIFFICULTY:Hard;
#METER:8;
#RADARVALUES:0.580610,0.750151,0.347656,0.198661,0.132440,491.000000,449.000000,42.000000,24.000000,0.000000,0.000000,0.000000,0.000000,0.000000,0.580610,0.750151,0.347656,0.198661,0.132440,491.000000,449.000000,42.000000,24.000000,0.000000,0.000000,0.000000,0.000000,0.000000;
#CREDIT:;
#NOTES:
// measure 0
0000
0000
0000
0000
,  // measure 1
0000
0000
0000
0000
,  // measure 2
1000
0000
0100
0000
0010
0100
1000
0000
0001
0000
0000
0000
0001
0000
0000
0100
,  // measure 3
0010
0100
0001
0000
1000
0000
0001
0010
0100
1000
0001
0000
1001
0000
0000
0000
,  // measure 4
1000
0010
0100
0001
0100
0010
1000
0001
1000
0000
1000
0000
0011
0000
0000
0000
,  // measure 5
0002
0000
0103
0010
0200
0000
0310
0100
0020
0000
1030
0000
1001
0000
1001
0000
,  // measure 6
0002
0000
0000
0003
1000
0100
0010
0001
0100
0010
1000
0000
1000
0000
0000
0000
,  // measure 7
0001
0010
0100
0000
2000
0000
0000
3010
0100
0001
1000
0000
1000
0000
0000
0000
,  // measure 8
0001
0010
0100
0000
1000
0000
0010
0100
0002
1000
0000
0000
1003
0000
0000
0000
,  // measure 9
0001
0100
0000
0100
0010
0000
0100
0001
1000
0000
1000
0000
0100
0100
0010
0010
,  // measure 10
0001
0000
1001
0000
1000
0100
0001
0100
,  // measure 11
1000
0000
1000
0010
0001
0010
1000
0000
,  // measure 12
1010
0000
0101
0000
0001
0010
1000
0010
,  // measure 13
0002
1000
1003
0010
0001
0010
1000
0000
,  // measure 14
1100
0000
0011
0000
1000
0010
0001
0010
,  // measure 15
1000
0000
1000
0100
0001
0100
1000
0000
,  // measure 16
1001
0000
0001
0100
0000
0100
0010
0000
,  // measure 17
0010
1000
0100
0000
0010
0100
0010
0000
,  // measure 18
0011
0000
1100
0000
1000
0010
0001
0010
,  // measure 19
1000
0000
1000
0100
0001
0100
1000
0000
,  // measure 20
1010
0000
0101
0000
1000
0100
0001
0100
,  // measure 21
2000
0001
3001
0100
1000
0100
0001
0000
,  // measure 22
1010
0000
0101
0000
0001
0010
1000
0010
,  // measure 23
0001
0000
0001
0100
1000
0100
0001
0000
,  // measure 24
0011
0000
0100
1000
0000
1000
0010
0000
,  // measure 25
0010
0100
0000
0100
0001
0000
0001
0010
,  // measure 26
0002
0010
0000
0100
0000
0000
1000
0003
0000
1000
0001
1000
1001
0000
1000
0001
,  // measure 27
0010
0000
0100
0000
1000
0000
0010
0100
,  // measure 28
1000
0100
0001
0000
0001
0000
0000
2000
,  // measure 29
0100
0000
0010
0000
3100
0000
1000
0010
,  // measure 30
0100
0000
0001
0000
1000
0000
0000
0002
,  // measure 31
1000
0000
0100
0000
1003
0000
0001
0010
,  // measure 32
0100
1000
0010
0000
0200
0000
0000
0000
,  // measure 33
0301
0000
0000
0000
0001
0010
0100
1000
,  // measure 34
0010
0100
0001
0000
1000
0000
0000
0000
,  // measure 35
0001
0010
0100
0000
1000
0000
0000
0010
,  // measure 36
0100
1000
0100
0000
0001
0000
0000
0000
,  // measure 37
1000
0100
0001
0000
0100
0000
0010
0001
,  // measure 38
0010
0100
0000
0000
1000
0000
0000
0000
,  // measure 39
0001
0100
0000
0100
1000
0000
0100
0001
,  // measure 40
1000
0000
0000
0000
1000
0000
0000
0000
0100
0000
0010
0000
0001
1000
0001
1000
,  // measure 41
0001
0000
1001
0000
1000
0100
0001
0100
,  // measure 42
1000
0000
1000
0010
0001
0010
1000
0000
,  // measure 43
1010
0000
0101
0000
1000
0100
0001
0100
,  // measure 44
2000
0001
3001
0100
1000
0100
0001
0000
,  // measure 45
0011
0000
1100
0000
1000
0010
0001
0010
,  // measure 46
1000
0000
1000
0100
0001
0100
1000
0000
,  // measure 47
1000
0100
0001
1000
0010
0001
0010
1000
,  // measure 48
0001
0100
1000
0001
2000
0001
3002
1003
,  // measure 49
1001
0000
0011
0000
0001
0100
1000
0100
,  // measure 50
0001
0000
0001
0010
1000
0010
0001
0000
,  // measure 51
1010
0000
0101
0000
1000
0100
0001
0100
,  // measure 52
2000
0001
3001
0100
1000
0100
0001
0000
,  // measure 53
0011
0000
1100
0000
1000
0010
0001
0010
,  // measure 54
1000
0000
1000
0100
0001
0100
1000
0000
,  // measure 55
0001
0000
0100
0010
2000
0000
3200
0000
,  // measure 56
0320
0032
0203
0320
,  // measure 57
1030
0010
0001
0010
1000
0010
0001
0010
,  // measure 58
1000
0101
1010
0101
,  // measure 59
0001
0010
1000
0010
0001
0010
1000
0010
,  // measure 60
0001
1100
0011
1100
,  // measure 61
1000
0100
0001
0100
1000
0100
0001
0100
,  // measure 62
1000
0011
1100
0011
,  // measure 63
0001
0100
0000
0100
0010
0000
0001
0010
,  // measure 64
1000
1010
0101
0101
,  // measure 65
0001
0010
0100
1000
0010
0100
1000
0100
,  // measure 66
0002
0010
0100
1003
,  // measure 67
1000
0010
0001
1000
0100
0001
0010
0100
,  // measure 68
2000
0100
0010
3001
,  // measure 69
1000
0010
0001
0010
1000
0100
0001
0100
,  // measure 70
1000
0001
0100
1000
0100
0001
0010
0100
,  // measure 71
1000
0000
0100
0001
0100
0010
0001
0100
,  // measure 72
0010
0001
0010
0000
1001
0000
0000
0000
;
