#TITLE:BREAK IT;
#SUBTITLE:;
#ARTIST:雄之助;
#TITLETRANSLIT:;
#SUBTITLETRANSLIT:;
#ARTISTTRANSLIT:;
#GENRE:;
#CREDIT:;
#MUSIC:BREAK IT.ogg;
#BANNER:BREAK IT.png;
#BACKGROUND:BREAK IT-bg.png;
#CDTITLE:;
#SAMPLESTART:41.739;
#SAMPLELENGTH:15.000;
#SELECTABLE:YES;
#OFFSET:0.000;
#BPMS:0.000=138.000;
#STOPS:;
#BGCHANGES:;
#FGCHANGES:;

//--------------- dance-single - Talkion (X-Scale 11) ----------------
#NOTES:
     dance-single:
     Talkion (X-Scale 11):
     Medium:
     8:
     0,0,0,0,0:
0000
0000
0000
0000
,
0000
0000
0000
0000
,
0000
0000
0000
0000
,
0000
0000
0000
0000
0000
0000
1000
0100
,
0010
0000
0100
1000
0001
0000
0100
1000
,
0100
0010
1000
0001
0011
0000
0001
0010
,
0100
0000
0010
0001
1000
0000
0010
0001
,
0010
0100
1000
0100
0001
1000
0100
0010
,
0001
0000
0000
0010
0000
0000
1000
0000
0000
0100
0000
0000
1000
0000
0000
0010
,
0000
0000
0001
0000
0000
1000
0000
0000
0010
0000
0000
0100
0000
0000
0001
0000
,
1000
0000
0000
0100
0000
0000
0001
0000
0000
0010
0000
0000
0001
0000
0000
0100
,
0000
0000
1000
0000
0000
0010
0000
0000
0200
0000
0302
0000
2003
0000
3200
0000
,
0310
0001
0100
0000
0010
1000
0100
0000
,
0010
0100
1000
0010
0100
0001
1001
0000
,
0100
1000
0010
0000
0100
0001
0010
0000
,
1000
0010
0001
0100
0010
0100
0110
0000
,
0020
0000
1030
2000
0000
3100
0200
0000
,
0302
0000
0013
0020
0000
1030
2000
0000
,
3001
0010
0100
0000
1000
0010
0100
0000
,
0001
0000
0010
0000
0100
0000
1000
0000
0010
0000
0000
0110
0000
0000
0101
0000
,
2001
0000
0000
3200
0000
0000
0320
0000
0031
0000
0100
0000
1000
0000
0100
0000
,
0010
1000
0100
0010
0001
1000
0100
1000
,
1002
0000
0000
0023
0000
0000
0230
0000
1300
0000
0010
0000
0001
0000
0010
0000
,
0100
0001
0010
0100
1000
0001
0010
0001
,
0201
0000
0000
0320
0000
0000
2030
0000
3100
0000
0010
0000
1000
0000
0010
0000
,
0100
1000
0001
0100
0010
1000
0100
0010
,
0110
0000
0000
0011
0000
0000
1001
0000
1000
0000
0010
0000
0100
0000
1000
0000
,
0001
0000
0010
0000
0100
0000
0001
0000
1000
0000
0000
1100
0000
0000
0110
0000
,
0012
0000
0000
0203
0000
0000
0320
0000
1030
0000
0100
0000
0010
0000
0001
0000
,
1000
0010
0100
1000
0100
0001
1000
0100
,
2100
0000
0000
3020
0000
0000
0230
0000
0301
0000
0010
0000
0100
0000
1000
0000
,
0001
0100
0010
0001
0010
1000
0001
0010
,
0210
0000
0000
2300
0000
0000
3002
0000
0103
0000
0010
0000
0001
0000
0010
0000
,
0100
0001
1000
0100
0010
0001
0100
0010
,
0110
0000
0000
1100
0000
0000
1001
0000
0001
0000
0100
0000
0010
0000
0001
0000
,
1000
0000
0100
0000
0010
0000
1000
0000
0002
0000
0000
0023
0000
0000
0230
0000
,
2000
0000
0000
3300
,
0000
0000
0000
0000
,
1000
1010
0001
0011
,
1000
1100
0001
0101
,
0100
0000
0000
0100
0010
0000
1000
0000
0100
0000
0000
0100
0010
0000
0001
0000
,
1000
0000
0000
1000
0010
0000
0100
0000
0001
0000
0000
0001
0010
0000
0100
0000
,
0010
0000
0000
0010
0001
0000
0100
0000
0010
0000
0000
0010
1000
0000
0100
0000
,
0010
0000
0001
0000
0010
0000
0001
0000
1000
0000
0000
1001
0000
0000
1010
0000
,
0020
0000
0000
0230
0000
0000
0301
0000
0020
0000
0000
0032
0000
0000
1003
0000
,
0010
0000
0100
0001
1000
0100
0010
0000
,
0200
0000
0000
2300
0000
0000
3001
0000
0200
0000
0000
0320
0000
0000
1030
0000
,
0001
0000
0010
0100
1000
0001
0100
0000
,
0020
0000
0000
0032
0000
0000
0013
0000
2000
0000
0000
3200
0000
0000
0301
0000
,
0100
0000
0010
0001
1000
0010
1000
0000
,
0011
1010
1100
0101
,
0011
0000
0000
0000
1010
0000
0000
0000
1000
0000
0000
1100
0000
0000
0110
0000
,
0011
0000
0001
0100
1000
0000
1100
0000
,
1000
0100
0001
1000
0100
0000
0010
0001
,
1000
0000
1000
0010
0001
0000
0011
0000
,
0001
0010
1000
0001
0010
0000
0100
1000
,
0010
0000
0001
0010
1000
0000
1001
0000
,
1000
0100
0001
1000
0010
0000
0001
1000
,
0010
0011
0101
1100
,
1020
0032
0203
1300
,
0021
0000
0000
0230
0000
0000
2300
0000
3010
0000
0001
0000
0010
0000
0100
0000
,
1000
0100
0001
1000
0100
0010
0001
1000
,
1200
0000
0000
0320
0000
0000
0032
0000
0103
0000
1000
0000
0100
0000
0010
0000
,
0001
0010
1000
0001
0010
0100
1000
0001
,
2001
0000
0000
3020
0000
0000
0230
0000
0301
0000
0010
0000
0100
0000
1000
0000
,
0010
0100
0010
1000
0100
0001
0100
0010
,
0110
0000
0000
1001
0000
0000
0101
0000
0001
0000
1000
0000
0010
0000
0001
0000
,
1000
0000
0100
0000
0001
0000
1000
0000
0100
0000
0000
0110
0000
0000
0011
0000
,
1001
1000
0010
0001
0110
0000
0001
0010
,
1000
0001
0110
0000
1100
0000
0101
0000
,
1001
1000
0100
0001
0110
0000
0001
0100
,
1000
0001
0110
0000
0011
0000
1010
0000
,
1000
0000
0000
0100
0000
0000
0001
0000
0000
1000
0000
0000
0100
0000
0000
0001
,
0000
0000
0100
0000
0000
1000
0000
0000
0001
0000
0000
0010
0000
0000
1000
0000
,
0001
0000
0000
0100
0000
0000
1000
0000
0000
0001
0000
0000
0100
0000
0000
1000
,
0000
0000
0100
0000
0000
0001
0000
0000
1000
0000
0000
0010
0000
0000
0001
0000
;

//--------------- dance-single - Talkion (X-Scale 14) ----------------
#NOTES:
     dance-single:
     Talkion (X-Scale 14):
     Hard:
     9:
     0,0,0,0,0:
0000
0000
0000
0000
,
0000
0000
0000
0000
,
0000
0000
0000
0000
,
0000
0000
0000
0000
0000
0000
0000
0000
0020
0000
1030
0001
1000
0000
0100
0000
,
0010
0000
0000
0010
0001
0000
0100
0000
0110
0000
0000
0000
1010
0000
1000
0100
,
0010
0000
0001
0000
0010
0000
0100
0000
0110
0000
0000
0010
0001
0000
0100
0000
,
0010
0000
0000
0010
1000
0000
0100
0000
0110
0000
0000
0000
0011
0000
0010
0100
,
1000
0000
0010
0000
0100
0000
0010
0000
1000
0000
0100
0010
0100
0000
0010
0000
,
0001
0000
0000
0001
0100
0000
1000
0000
0100
0010
0000
0000
0110
0000
0000
0010
,
1000
0000
0100
0000
0010
0001
0000
0000
1001
0000
0000
0001
0010
0000
0100
0000
,
1000
0000
0000
1000
0010
0000
0001
0000
0010
0100
0000
0000
0110
0000
0000
0100
,
0001
0000
1000
0000
0100
0010
0000
0000
0002
0000
1003
0010
1000
0000
0001
0000
,
1000
0000
0100
1000
0100
0000
0010
0000
0001
0000
0100
0001
0100
0000
0010
0000
,
1000
0000
0100
0010
0001
0000
0010
0000
0100
0000
1000
0000
1010
0000
0000
0000
,
0001
0000
0100
0010
0100
0000
0010
0000
1000
0000
0100
0010
0100
0000
0010
0000
,
0001
0000
0100
0010
1000
0000
0001
0000
1000
0000
0100
0000
0110
0000
0000
0000
,
0010
0000
0001
1000
0010
0000
0100
0000
0002
0000
1000
0000
1003
0000
0000
0000
,
0100
0000
0010
0001
1000
0000
0010
0000
0200
0000
1000
0000
1300
0000
0000
0000
,
0100
0000
0010
1000
0100
0000
0010
0000
0100
0000
0010
0001
0100
0000
1000
0000
,
0100
0000
0100
0000
0010
0000
0010
0000
1000
0100
0000
0110
0000
0010
0001
0000
,
0201
0000
0000
0320
0000
0000
2030
0000
3001
0000
0010
0100
0010
0000
0001
0000
,
0100
0000
0010
1000
0000
0100
0000
0001
0000
0100
0010
0000
0001
0000
0100
0000
,
0120
0000
0000
2030
0000
0000
3200
0000
0310
0000
0001
1000
0001
0000
0100
0000
,
1000
0000
0100
0010
1000
0000
0100
0010
0001
0000
0100
0010
0100
0000
0001
0000
,
2001
0000
0000
3200
0000
0000
0320
0000
0130
0000
1000
0001
1000
0000
0010
0000
,
0001
0000
0010
0100
0001
0000
0010
0100
1000
0000
0010
0100
0010
0000
1000
0000
,
0200
0000
0310
0002
0000
0013
0200
0000
1300
0000
0010
0100
0001
0000
0100
0000
,
0010
0000
1000
0100
0010
0000
1000
0000
0010
0001
0000
1001
0000
1000
0010
0000
,
1020
0000
0000
0230
0000
0000
0302
0000
1003
0000
0001
0010
0001
0000
0010
0000
,
0100
0000
1000
0010
0000
0001
0000
0010
0000
0100
0001
0000
0010
0000
0100
0000
,
0210
0000
0000
2300
0000
0000
3002
0000
0103
0000
0010
1000
0001
0000
0010
0000
,
0100
0000
0010
0001
0100
0000
0010
1000
0100
0000
0010
0001
0010
0000
0100
0000
,
0120
0000
0000
0032
0000
0000
2003
0000
3010
0000
0100
0001
1000
0000
0100
0000
,
0010
0000
0100
1000
0010
0000
0100
0001
0010
0000
0100
1000
0100
0000
0010
0000
,
0002
0000
0103
0020
0000
0130
0002
0000
1003
0000
0100
0010
0001
0000
0010
0000
,
0100
0000
1000
0010
0100
0000
1000
0000
0200
0000
0000
0302
0000
0000
0023
0000
,
2000
0000
0000
3030
,
0010
0011
0100
1100
,
1000
0000
0000
1000
0010
0000
0100
0000
0001
0000
0000
0001
0100
0000
0010
0000
,
1000
0000
0000
1000
0100
0000
0010
0000
0001
0000
0000
0001
0010
0000
0100
0000
,
1000
0000
0000
1000
0010
0000
0001
0000
0010
0000
0000
0010
0100
0000
0100
0001
,
1000
0000
0000
1000
0100
0000
0001
0000
0100
0000
0000
0100
0010
0000
0010
0001
,
1000
0000
0000
1000
0010
0000
0001
0000
1000
0000
0000
1000
0100
0000
0100
0001
,
0010
0000
0010
0000
0100
0000
0100
0000
1000
0010
0000
0110
0000
0100
0001
0000
,
1000
0100
0000
0010
0100
0000
0010
0000
0001
0100
0000
0010
0100
0000
0010
0000
,
1000
0000
0100
0010
0100
0000
0010
0000
0002
0000
1000
0000
1003
0000
0000
0000
,
0001
0100
0000
1000
0100
0000
0010
0000
1000
0100
0000
0001
0100
0000
0010
0000
,
0001
0000
1000
0010
1000
0000
0100
0000
0020
0000
0001
0000
0031
0000
0000
0000
,
0100
0010
0000
0100
1000
0000
0100
0000
0010
1000
0000
0100
1000
0000
0100
0000
,
0001
0000
0100
0010
0100
0000
0010
0000
0002
0000
1000
0000
1003
0000
0000
0000
,
0020
1030
2000
3100
0200
0301
0002
0013
,
0020
0000
0031
0000
0002
0000
0103
0000
0100
1000
0000
1001
0000
0001
0100
0000
,
0120
0000
0000
0000
1030
0000
0100
0010
0100
0000
1000
0000
0010
0000
0100
0000
,
0001
0000
0100
0010
1000
0000
0100
0000
0110
0000
0000
0000
0011
0000
0001
0000
,
2001
0000
0000
0000
3010
0000
0100
0001
0100
0000
0010
0000
1000
0000
0100
0000
,
0010
0000
0001
0010
0100
0000
1000
0000
1010
0000
0000
0000
1100
0000
0100
0000
,
0120
0000
0000
0000
0031
0000
0100
0010
0100
0000
0001
0000
0010
0000
0100
0000
,
1000
0000
0100
0010
0001
0000
0100
0000
0110
0000
0000
0000
0010
0000
1000
0000
,
0100
0000
0010
0001
0100
0000
0010
1000
0100
0000
0010
0001
0100
0000
1000
0100
,
0002
0023
2030
3200
,
0301
0000
0000
0011
0000
0000
0110
0000
0100
0000
1000
0010
0100
0000
1000
0000
,
0100
0000
0001
1000
0000
0100
0000
0010
0000
0001
1000
0000
0010
0000
0100
0000
,
0110
0000
0000
1010
0000
0000
0011
0000
0001
0000
1000
0100
0001
0000
0100
0000
,
0010
0000
0001
0010
0100
0000
1000
0010
0100
0000
1000
0100
0010
0000
0100
0000
,
0110
0000
0000
0101
0000
0000
1100
0000
1000
0000
0001
0010
1000
0000
0010
0000
,
0100
0000
1000
0100
0010
0000
0001
0100
0010
0000
0001
0010
0100
0000
0010
0000
,
2000
0000
3100
0002
0000
0103
2000
0000
3010
0000
0100
0001
0100
0000
0010
0000
,
1000
0000
0100
1000
0010
0000
0100
0000
0001
1000
0000
0110
0000
1000
0001
0000
,
0011
0000
0010
0100
1000
0000
1010
0000
0010
0100
0001
0000
0101
0000
0100
0010
,
1000
0000
1100
0000
0100
0010
0001
0000
0010
0000
0100
0000
0110
0000
0000
0000
,
1100
0000
0100
0010
0001
0000
0101
0000
0100
0010
1000
0000
1010
0000
0010
0100
,
0001
0000
0011
0000
0010
0100
1000
0000
0001
0000
0100
0000
0110
0000
0000
0000
,
0010
0000
0000
1010
0000
0000
1000
0000
0000
1100
0000
0000
0100
0000
0000
0101
,
0000
0000
0001
0000
0000
0011
0000
0000
0010
0000
0000
1000
0000
0000
0100
0000
,
0001
0000
0000
0101
0000
0000
0100
0000
0000
1100
0000
0000
1000
0000
0000
1010
,
0000
0000
0010
0000
0000
0011
0000
0000
0001
0000
0000
0010
0000
0000
1000
0000
;
