#TITLE:View;
#SUBTITLE:;
#ARTIST:SHINee;
#TITLETRANSLIT:;
#SUBTITLETRANSLIT:;
#ARTISTTRANSLIT:;
#GENRE:;
#CREDIT:;
#BANNER:[Be Mine] - View.png;
#BACKGROUND:[Be Mine] - View-bg.png;
#LYRICSPATH:;
#CDTITLE:cdtitle.png;
#MUSIC:[Be Mine] - View.ogg;
#OFFSET:1.490000;
#SAMPLESTART:38.176998;
#SAMPLELENGTH:15.000000;
#LASTBEATHINT:1.012667;
#SELECTABLE:YES;
#BPMS:0.000000=124.000000
;
#STOPS:
;
#BGCHANGES:3.000=[Be Mine] - View.avi=1.000=0=0=0=StretchNoLoop====,
99999=-nosongbg-=1.000=0=0=0 // don't automatically add -songbackground-
;
#KEYSOUNDS:;
#ATTACKS:;

//---------------dance-single - ----------------
#NOTES:
     dance-single:
     9646_BEG:
     Beginner:
     2:
     0.096969,0.151643,0.036106,0.101095,0.000000,94.000000,89.000000,5.000000,14.000000,0.000000,0.000000,0.096969,0.151643,0.036106,0.101095,0.000000,94.000000,89.000000,5.000000,14.000000,0.000000,0.000000:
0000
0000
0000
0000
,
0000
0000
0000
0000
,
0000
0000
0000
0000
,
0000
0000
0000
0000
,
0000
0000
0000
0000
,
0000
0000
0000
0000
,
0000
0000
0000
0000
,
0000
0000
0000
0000
,
0000
0000
0000
0000
,
0000
0100
0000
0100
,
0000
0010
0000
0010
,
0000
0001
0000
0001
,
0000
1000
0000
1000
,
2000
0000
0000
0000
,
3000
0000
0000
0000
,
0020
0000
0000
0000
,
0030
0000
0000
0000
,
0002
0000
0000
0000
,
0003
0000
0000
0000
,
2000
0000
0000
0000
,
0000
0000
3000
0000
,
0100
0000
0100
0000
,
1001
0000
0000
0000
,
0100
0000
0100
0000
,
0110
0000
0000
0000
,
0100
0000
0100
0000
,
1001
0000
0000
0000
,
0100
0000
0100
0000
,
0110
0000
0000
0000
,
0100
0000
0010
0000
,
1000
0000
1000
0000
,
0100
0000
0010
0000
,
0001
0000
0001
0000
,
0000
0100
0100
0000
,
0001
0000
1000
0000
,
0100
0000
0100
0000
,
0110
0000
0000
0000
,
0002
0000
0003
0000
,
2000
0000
3000
0000
,
0020
0000
0000
0000
,
0030
0000
0000
0000
,
0002
0000
0003
0000
,
0200
0000
0300
0000
,
2000
0000
0000
0000
,
3000
0000
0000
0000
,
0002
0000
0000
0000
,
0003
0000
0000
0000
,
0200
0000
0000
0000
,
0300
0000
0000
0000
,
1000
0000
1000
0000
,
0001
0000
0001
0000
,
0020
0000
0000
0000
,
0000
0000
0030
0000
,
0100
0000
0001
0000
,
0010
0000
0010
0000
,
0100
0000
1000
0000
,
0010
0000
0010
0000
,
0000
0100
0100
0000
,
0001
0000
0001
0000
,
1000
0000
0100
0000
,
0001
0000
0010
0000
,
1000
1000
1000
0000
,
0010
0000
0001
0000
,
0100
0100
0100
0000
,
1000
0000
1000
0000
,
0001
0001
0001
0000
,
0010
0000
1000
0000
,
0100
0100
0100
0000
,
0001
0000
0001
0000
,
2000
0000
0000
0000
,
3000
0000
0000
0000
;

//---------------dance-single - ----------------
#NOTES:
     dance-single:
     9646_ESP:
     Hard:
     7:
     0.421919,0.480203,0.245517,0.332171,0.115538,409.000000,375.000000,34.000000,46.000000,0.000000,0.000000,0.421919,0.480203,0.245517,0.332171,0.115538,409.000000,375.000000,34.000000,46.000000,0.000000,0.000000:
// measure 0
0000
0000
0000
0000
,  // measure 1
0000
0000
0000
0000
,  // measure 2
0000
0000
0000
0000
,  // measure 3
0000
0000
0000
0000
,  // measure 4
0000
0000
0000
0000
,  // measure 5
2000
0000
0000
0000
0000
0000
0000
0000
0002
0000
0000
3000
0000
0000
0200
0000
,  // measure 6
0000
0000
0000
0003
,  // measure 7
0020
0000
0000
0000
0300
0000
0000
0000
2000
0000
0000
0030
0000
0000
0002
0000
,  // measure 8
0000
0000
0000
3000
,  // measure 9
2003
0100
0000
0100
,  // measure 10
0000
0100
0000
0100
,  // measure 11
3002
0100
0000
0100
,  // measure 12
0000
0000
0100
0000
0000
0000
0103
0001
,  // measure 13
2000
0000
0000
0000
0100
0000
0000
0000
3001
0000
0000
0100
0000
0000
0020
0000
,  // measure 14
0000
0000
1030
0000
0001
0000
0100
0001
0000
0000
1000
0000
0100
0000
0020
0000
,  // measure 15
0000
0000
0130
0000
1000
0000
0001
1000
0000
0000
0010
0000
0100
0000
0002
0000
,  // measure 16
0000
0103
0010
2000
0000
3001
0010
0100
,  // measure 17
1000
0000
0000
0000
1000
0000
0000
0000
0002
0000
0003
0001
0100
0000
0010
0000
,  // measure 18
1000
0000
0100
0000
1000
0000
0001
0100
0001
0000
0100
0000
0010
0000
1000
0000
,  // measure 19
0100
0000
1000
0000
0100
0000
0010
0001
0010
0000
0100
0000
1000
0000
0001
0000
,  // measure 20
2000
0000
0000
0000
3001
0100
0010
1000
,  // measure 21
1100
0101
1100
0110
,  // measure 22
2002
3003
0110
0000
1000
0010
0100
0010
,  // measure 23
0110
1000
0100
0000
0110
0001
0100
0000
,  // measure 24
0220
0330
1001
0000
1000
0100
0010
0001
,  // measure 25
0101
1100
0101
0110
,  // measure 26
2002
3003
0110
0000
0001
0010
0100
0010
,  // measure 27
0110
0001
0100
0000
0110
1000
0100
0000
,  // measure 28
0220
0330
1001
0000
0001
0100
0010
1000
,  // measure 29
1100
0000
0001
0100
1000
0000
0101
0000
,  // measure 30
1000
0100
0001
0100
1000
0010
0100
0001
,  // measure 31
0101
0000
1000
0100
0010
0000
1100
0000
,  // measure 32
0001
1000
0010
0010
0001
0010
0100
1000
,  // measure 33
0100
0000
0101
0010
1000
0000
1100
0000
,  // measure 34
0001
0100
0010
0010
1000
0100
0010
0100
,  // measure 35
0110
0001
0100
0000
0110
1000
0100
0000
,  // measure 36
0110
0000
0001
1000
0010
0001
0010
1000
,  // measure 37
0001
0000
0000
0001
0000
0000
0100
0000
0010
0000
0000
0010
0000
0000
1000
0000
,  // measure 38
0100
0000
0000
0100
0000
0000
0010
0000
0001
0000
0000
0001
0000
0000
1000
0000
,  // measure 39
0010
0000
0000
0010
0000
0000
0001
0000
1000
0000
0000
0100
0000
0000
0001
0000
,  // measure 40
0020
0000
0000
0130
0000
0000
0020
0000
0032
0000
0000
0000
0010
0000
0000
0000
,  // measure 41
2003
0000
0100
0000
3001
0100
0001
0020
,  // measure 42
0000
0000
0130
0000
1000
0000
0001
1000
0000
0002
0000
0000
0103
0000
0000
0000
,  // measure 43
0020
0000
1030
0001
0020
0000
0130
0010
,  // measure 44
0000
0000
0001
0000
1000
0010
0100
0001
,  // measure 45
2000
0000
0000
0000
0100
0000
0000
0000
3001
0000
0000
0100
0000
0000
0020
0000
,  // measure 46
0000
0000
1030
0000
0001
0000
0100
0001
0000
0000
1000
0000
0100
0000
0020
0000
,  // measure 47
0130
0000
1000
0000
0001
0000
1000
0010
0000
0000
0010
0000
0100
0000
0002
0000
,  // measure 48
0000
0103
0010
2000
0000
3001
0010
0100
,  // measure 49
1000
0000
0000
0000
1000
0000
0000
0000
0002
0000
0003
0001
0100
0000
0010
0000
,  // measure 50
1000
0000
0100
0000
1000
0000
0001
0100
0001
0000
0100
0000
0010
0000
1000
0000
,  // measure 51
0100
0000
0001
0000
0100
0000
1000
0001
1000
0000
0010
0000
0100
0000
0001
0000
,  // measure 52
2000
0000
0000
0000
3001
0010
0100
1000
,  // measure 53
1100
0000
0001
0100
1000
0000
0101
0000
,  // measure 54
1000
0100
0001
0100
1000
0010
0100
0001
,  // measure 55
0101
0000
0000
0000
1000
0000
0100
0000
0010
0000
0000
0200
0000
0000
1300
0000
,  // measure 56
0001
0000
0001
0000
0100
0010
1000
0001
,  // measure 57
0100
0000
0101
0010
1000
0000
1100
0000
,  // measure 58
0001
0100
0010
0000
1000
0100
0020
0000
,  // measure 59
0031
0000
0000
0001
0100
0000
0010
0000
1000
0000
0000
0100
0000
0000
0020
0000
,  // measure 60
0031
0000
1000
0000
0000
0001
0000
0000
2000
0000
0000
0000
3001
0000
1000
0000
,  // measure 61
0010
0000
0100
0000
0010
0000
1000
0000
0001
0000
0000
0001
0100
0000
0010
0000
,  // measure 62
1000
0000
0100
0000
0010
0000
0100
0000
1000
0001
0000
0000
1000
0000
0001
0000
,  // measure 63
0100
0000
0010
0000
0100
0000
0001
0000
0010
0000
0000
0100
1000
0000
0001
0000
,  // measure 64
1000
0010
0001
0010
2000
0000
3001
0010
,  // measure 65
0100
0000
0010
0000
0100
0000
1000
0000
0001
0000
0000
0001
0010
0000
0100
0000
,  // measure 66
1000
0000
0000
1000
0000
0000
0010
0000
0000
0010
0000
0000
0100
0000
0001
0000
,  // measure 67
0010
0000
0100
0000
0010
0000
0001
0000
0100
0000
0000
0010
1000
0000
0001
0000
,  // measure 68
0020
1030
0020
0031
,  // measure 69
2000
0000
0000
0000
,  // measure 70
3000
0000
0000
0000
;

//---------------dance-single - ----------------
#NOTES:
     dance-single:
     9646_CSP:
     Challenge:
     8:
     0.444614,0.657120,0.231075,0.440487,0.173306,431.000000,399.000000,32.000000,61.000000,64.000000,0.000000,0.444614,0.657120,0.231075,0.440487,0.173306,431.000000,399.000000,32.000000,61.000000,64.000000,0.000000:
0000
0000
0000
0000
,
0000
0000
0000
0000
,
0000
0000
0000
0000
,
0000
0000
0000
0000
,
0000
0000
0000
0000
,
0020
0000
0000
0000
0000
0000
0000
0000
0002
0000
0000
0030
0000
0000
2000
0000
,
0000
0000
0000
0003
,
0020
0000
0000
0000
3000
0000
0230
0000
0002
0000
0000
0300
0000
0000
2000
0000
,
0000
0000
0000
0000
0003
0000
0000
0000
3001
0000
0000
0001
0100
0000
0010
0000
,
1000
0000
0100
0000
0010
0000
0100
0000
1000
0000
0000
0001
0010
0000
2000
0000
,
0000
0000
0010
0000
3000
0010
0001
1000
,
0100
0000
0010
0000
1000
0000
0001
0000
0100
0000
0000
1000
0100
0000
0020
0000
,
0000
0000
0100
0000
0030
0100
1000
0001
,
2000
0000
0000
0000
0100
0000
0000
0000
3001
0000
0000
0100
0001
0000
0200
0000
,
0000
0000
0310
0000
1000
0000
0100
0020
0000
0000
0031
0000
0100
0000
0020
0000
,
1000
0000
1030
0000
0001
0000
0010
0100
0000
0000
0100
0000
1000
0000
0002
0000
,
0000
1003
0100
0010
0001
0001
0100
0010
,
1000
0000
0000
0000
1000
0000
0000
0000
0002
0000
0003
0010
0100
0000
0020
0000
,
0031
0000
1000
0000
0010
0000
0100
0001
1000
0000
0010
0000
0100
0000
0002
0000
,
0010
0000
0013
0000
0100
0000
1000
0001
1000
0000
0100
0000
0010
0000
0001
0000
,
2000
0000
0000
0000
3001
0100
0010
1000
,
1100
0101
1100
0110
,
2002
3003
MMMM
0000
0001
0010
0100
0010
,
0110
0001
0100
0000
0110
1000
0100
0000
,
0220
0330
MMMM
0000
1000
0100
0010
0001
,
0101
1100
0101
0110
,
2002
3003
MMMM
0000
1000
0010
0100
0010
,
0110
1000
0100
0000
0110
0001
0100
0000
,
0220
0330
MMMM
0000
0001
0100
0010
1000
,
1100
0000
MMMM
0100
0001
0000
0101
0000
,
MMMM
0000
0000
1000
0000
0000
0100
0000
0010
0100
0000
0000
1000
0000
0000
0100
0000
0000
0010
0000
0000
0001
0000
0000
,
0101
0000
MMMM
0100
1000
0000
1100
0000
,
MMMM
0000
0001
0000
0010
0100
0010
0000
0001
0000
0100
0000
0010
0000
1000
0000
,
MMMM
0000
0101
0100
0010
0000
1100
0000
,
MMMM
0000
0001
0000
1000
0001
1000
0000
0001
0000
0010
0000
0100
0000
0010
0000
,
0110
0001
0100
0000
0110
1000
0100
0000
,
0220
0330
0001
1000
0010
0001
0010
1000
,
0001
0000
0000
0001
0000
0000
0001
0000
0010
0000
0000
0010
0000
0000
0010
0000
,
0100
0000
0000
0100
0000
0000
0100
1000
0001
0000
0000
0001
0000
0000
0001
0000
,
0010
0000
0000
0010
0000
0000
0001
1000
0010
0000
0000
0010
0000
0000
0200
0000
,
0301
0000
0000
0010
0000
0000
0200
0000
0000
0000
0310
0000
0100
0000
2000
0000
,
0000
3001
2000
0000
3001
0100
0010
0200
,
0000
0000
0301
0000
0010
0100
0010
0100
0000
0200
0000
0000
0310
0000
0000
0000
,
0002
0000
1003
0100
0020
0000
0130
1000
,
0020
0000
0130
0001
1000
0001
0100
0010
,
2000
0000
0000
0000
0100
0000
0000
0000
3001
0000
0000
0100
0010
0000
0200
0000
,
0000
0000
0301
0000
1000
0000
0100
0020
0000
0000
0031
0000
0100
0000
0020
0000
,
1000
0000
1030
0000
0001
0000
0010
0100
0000
0000
0100
0000
1000
0000
0002
0000
,
0000
1003
0100
0010
0001
0001
0100
0010
,
1000
0000
0000
0000
1000
0000
0000
0000
0002
0000
0003
0010
0100
0000
0020
0000
,
0031
0000
1000
0000
0010
0000
0100
0001
1000
0000
0010
0000
0100
0000
0001
0000
,
0010
0100
0010
0100
1000
0001
1000
0010
0100
0001
0100
0010
1000
0001
0010
0100
,
2000
0000
0000
0000
3001
0100
0010
1000
,
1100
0000
MMMM
0100
0001
0000
0101
0000
,
MMMM
0100
0001
0000
0010
0001
1000
0010
,
0100
0000
0000
0000
MMMM
0000
0010
0000
0001
0000
0000
0001
2000
0000
3020
0000
,
0130
0000
MMMM
0000
1000
0100
0010
0001
,
MMMM
0000
0101
0100
1000
0000
0110
0000
,
MMMM
1000
0001
0000
0010
0010
0020
0000
,
0031
0000
0000
1000
0100
0000
1000
0000
0010
0000
0000
0010
0100
0000
0001
0000
,
1000
0000
0002
0000
0000
0023
0000
0000
0230
0000
0000
0000
1300
0000
1000
0000
,
0001
0000
0010
0000
0100
0000
1000
0000
0001
0000
0000
0001
0100
0000
0010
0000
,
1000
0000
0100
0000
1000
0000
0010
0000
0100
0001
0000
0000
0101
0000
0010
0000
,
1000
0000
0100
0000
1000
0000
0001
0000
0100
0000
0000
0100
0010
0000
1000
0000
,
0200
0001
0320
1000
0032
0000
1003
0010
,
0100
0000
0001
0000
1000
0000
0001
0000
0010
0000
0000
0010
0100
0000
0010
0000
,
0002
0000
0000
0203
0000
0000
2300
0000
0000
3020
0000
0000
0031
0000
1000
0000
,
0001
0000
0100
0000
0010
0000
1000
0000
0002
0000
0003
0010
0100
0000
2000
0000
,
3001
0101
1000
1100
,
0020
0000
0000
0000
,
0030
0000
0000
0000
;

//---------------dance-single - ----------------
#NOTES:
     dance-single:
     9646_BSP:
     Easy:
     3:
     0.191875,0.252739,0.101095,0.252739,0.000000,186.000000,172.000000,14.000000,35.000000,0.000000,0.000000,0.191875,0.252739,0.101095,0.252739,0.000000,186.000000,172.000000,14.000000,35.000000,0.000000,0.000000:
0000
0000
0000
0000
,
0000
0000
0000
0000
,
0000
0000
0000
0000
,
0000
0000
0000
0000
,
0000
0000
0000
0000
,
0000
0000
0000
0000
,
0000
0000
0000
0000
,
0000
0000
0000
0000
,
0000
0000
0000
0000
,
2000
0100
0000
0100
,
0000
0001
0000
0001
,
3002
0100
0000
0100
,
0000
1000
0000
1000
,
2003
0000
0000
0000
,
3200
0000
0000
0000
,
0320
0000
0000
0000
,
0032
0000
0000
0000
,
1003
1000
0010
0010
,
0001
0001
0100
0100
,
1000
0100
0001
0010
,
2000
0000
3000
0000
,
0100
0100
0100
0100
,
2002
3003
1000
0010
,
0100
0100
0100
0100
,
0220
0330
1000
0001
,
0100
0100
0100
0100
,
2002
3003
0001
0010
,
0100
0100
0100
0100
,
0220
0330
0001
1000
,
0110
0000
1001
0000
,
0100
0100
1000
0010
,
0110
0000
1001
0000
,
0010
0010
0001
0100
,
0000
0110
0100
0000
,
1000
0100
0001
1000
,
0100
0100
0100
0100
,
1001
0100
0010
0100
,
2000
0000
3200
0000
,
0320
0000
0032
0000
,
2003
0000
3001
0100
,
0020
0000
0130
0001
,
2000
0000
3020
0000
,
0130
0001
0002
0003
,
0020
0030
0100
2000
,
3001
0000
0002
0103
,
2001
0000
0100
0000
,
3002
0100
0020
0003
,
0230
0000
0001
0000
,
0320
1000
0002
0033
,
1000
1000
0100
0100
,
0001
0001
0010
0010
,
1000
0010
0001
0100
,
2000
0000
3001
0000
,
0110
0000
1001
0000
,
0100
0100
0001
1000
,
0100
0000
0100
1000
,
0010
0000
0010
0100
,
0000
0110
0100
0000
,
0001
0000
1000
0000
,
0001
0000
0010
0100
,
0100
0000
0010
0000
,
0001
1000
0001
0001
,
0001
0000
1000
0000
,
0010
0100
0010
0010
,
0010
0000
0100
0000
,
0001
1000
0001
0001
,
0001
0000
1000
0000
,
0100
0010
0100
0100
,
0100
0000
0010
0000
,
0200
0000
0000
0000
,
0300
0000
0000
0000
;

//---------------dance-single - ----------------
#NOTES:
     dance-single:
     9646_DSP:
     Medium:
     5:
     0.289876,0.404382,0.187749,0.361055,0.010832,281.000000,255.000000,26.000000,50.000000,0.000000,0.000000,0.289876,0.404382,0.187749,0.361055,0.010832,281.000000,255.000000,26.000000,50.000000,0.000000,0.000000:
0000
0000
0000
0000
,
0000
0000
0000
0000
,
0000
0000
0000
0000
,
0000
0000
0000
0000
,
0000
0000
0000
0000
,
0000
0000
0000
0000
,
0000
0000
0000
0000
,
0000
0000
0000
0000
,
0000
0000
0000
0000
,
2000
0100
0000
0100
,
0000
0100
0000
0100
,
3002
0100
0000
0100
,
0000
0100
0000
0100
,
2003
0000
0200
0300
,
3001
0100
0020
0030
,
2000
0000
0200
0300
,
3001
1000
0002
0003
,
1000
0100
0001
0100
,
1000
0010
0001
0010
,
1000
0100
1000
0100
0001
0100
0001
0100
,
2000
0000
3001
0000
,
1001
0100
1001
0100
,
0220
0000
0330
0000
0001
0100
0010
0000
,
0110
1000
0110
0001
,
2002
0000
3003
0000
0100
0001
1000
0000
,
1001
0100
1001
0100
,
0220
0000
0330
0000
1000
0100
0010
0000
,
0110
0001
0110
1000
,
2002
0000
3003
0000
0100
1000
0001
0000
,
0101
0000
0001
0100
1000
0000
0110
0000
,
0010
1000
0100
0000
0010
0001
0100
0010
,
0100
0000
1001
0100
0010
0000
1100
0000
,
0001
1000
0010
0000
0001
0010
1000
1000
,
0100
0000
1001
0100
0010
0000
0101
0000
,
1000
0001
0010
0000
0100
1000
0010
0100
,
0110
1000
0110
0001
,
1001
0000
0001
0100
0010
1000
0001
0000
,
2000
0000
3200
0000
,
0320
0000
0032
0000
,
2003
0000
0000
0000
0000
0000
0000
0000
3010
0000
0000
0100
0000
0000
0001
0000
,
0020
0000
0000
0000
0130
1000
0001
0000
,
2000
0000
3020
0000
,
0230
0302
2000
3003
,
0002
0000
0000
0000
0023
0000
0130
1000
,
0001
0000
0001
0001
,
2000
0000
0020
0030
,
3001
0010
0200
0300
,
2000
0000
0020
0030
,
3001
1000
0002
0003
,
1000
0010
0001
0010
,
1000
0100
0001
0100
,
1000
0010
1000
0010
0001
0010
0001
0010
,
2000
0000
3001
0000
,
0101
0000
0001
0100
1000
0000
0110
0000
,
0010
1000
0001
0000
0010
0100
0010
0001
,
0100
0000
0000
0000
1001
0000
0100
0000
0010
0000
0000
0100
0000
0000
1000
0000
,
0001
0000
1000
0000
0010
0001
0010
1000
,
0100
0000
1001
0100
0010
0000
0101
0000
,
1000
0001
0010
0000
0100
1000
0020
0000
,
0130
0000
0000
0000
0100
0000
0000
0000
0010
0000
0000
1000
0000
0000
0100
0000
,
0010
0010
0002
2003
,
3001
0100
0010
0100
0001
0000
0010
0000
,
0200
0001
0010
2300
,
3001
0010
0100
0010
0001
0000
1000
0000
,
0010
0100
0010
0100
0020
0000
2030
0000
,
3100
0001
0100
0010
0100
0000
1000
0000
,
0002
0023
0230
2300
,
3010
0001
0010
0100
0020
0000
1030
0000
,
1000
0100
0001
0010
,
2000
0000
0000
0000
,
3000
0000
0000
0000
;
