#VERSION:0.83;
#TITLE:Stay;
#SUBTITLE:;
#ARTIST:Zedd ft. Alessia Cara;
#TITLETRANSLIT:;
#SUBTITLETRANSLIT:;
#ARTISTTRANSLIT:;
#GENRE:;
#ORIGIN:;
#CREDIT:;
#BANNER:Stay.png;
#BACKGROUND:Stay-bg.png;
#PREVIEWVID:;
#JACKET:Stay-jacket.png;
#CDIMAGE:;
#DISCIMAGE:;
#LYRICSPATH:;
#CDTITLE:cdtitle.png;
#MUSIC:Stay.ogg;
#OFFSET:-0.048000;
#SAMPLESTART:66.512108;
#SAMPLELENGTH:10.000000;
#SELECTABLE:YES;
#BPMS:0.000=102.000;
#STOPS:109.000=1.170,
173.000=0.590;
#DELAYS:;
#WARPS:;
#TIMESIGNATURES:0.000=4=4;
#TICKCOUNTS:0.000=4;
#COMBOS:0.000=1;
#SPEEDS:0.000=1.000=0.000=0;
#SCROLLS:0.000=1.000,
81.000=0.000,
81.250=2.000,
81.500=0.000,
81.750=2.000,
82.000=0.000,
82.250=2.000,
82.500=0.000,
82.750=2.000,
83.000=0.000,
83.250=2.000,
83.500=0.000,
83.750=2.000,
84.000=0.000,
84.250=2.000,
84.500=0.000,
84.750=2.000,
85.000=0.000,
85.250=2.000,
85.500=0.000,
85.750=2.000,
86.000=0.000,
86.250=2.000,
86.500=0.000,
86.750=2.000,
87.000=0.000,
87.250=2.000,
87.500=0.000,
87.750=2.000,
88.000=0.000,
88.250=2.000,
88.500=0.000,
88.750=2.000,
89.000=0.000,
89.250=2.000,
89.500=0.000,
89.750=2.000,
90.000=0.000,
90.250=2.000,
90.500=0.000,
90.750=2.000,
91.000=0.000,
91.250=2.000,
91.500=0.000,
91.750=2.000,
92.000=0.000,
92.250=2.000,
92.500=0.000,
92.750=2.000,
93.000=0.000,
93.250=2.000,
93.500=0.000,
93.750=2.000,
94.000=0.000,
94.250=2.000,
94.500=0.000,
94.750=2.000,
95.000=1.000,
109.000=0.500,
109.750=2.000,
110.000=1.000,
127.000=0.000,
127.250=2.000,
127.500=0.000,
127.750=2.000,
128.000=1.000;
#FAKES:;
#LABELS:0.000=Song Start;
#BGCHANGES:0.000=Stay.mp4=1.000=1=0=1===CrossFade==,
222.000=Stay-bg.png=1.000=0=0=1=====,
99999=-nosongbg-=1.000=0=0=0 // don't automatically add -songbackground-
;
#KEYSOUNDS:;
#ATTACKS:
;

//---------------dance-single - ----------------
#NOTEDATA:;
#CHARTNAME:;
#STEPSTYPE:dance-single;
#DESCRIPTION:;
#CHARTSTYLE:;
#DIFFICULTY:Hard;
#METER:9;
#RADARVALUES:0.417251,0.523585,0.407547,0.384906,0.271698,387.000000,333.000000,54.000000,51.000000,51.000000,0.000000,4.000000,0.000000,0.000000,0.417251,0.523585,0.407547,0.384906,0.271698,387.000000,333.000000,54.000000,51.000000,51.000000,0.000000,4.000000,0.000000,0.000000;
#CREDIT:KevinRocker10;
#NOTES:
// measure 0
0000
0000
0000
0000
,  // measure 1
0000
0000
0000
0000
,  // measure 2
0000
0000
0000
0000
,  // measure 3
0000
0000
0000
0000
,  // measure 4
0000
0000
0000
1000
0000
1000
0010
0000
0010
0100
0000
0100
,  // measure 5
0001
0000
0001
2000
0000
0000
3000
0000
0000
0000
0000
0000
,  // measure 6
0000
0000
0000
0001
0000
0001
0010
0000
0010
0100
0000
0100
,  // measure 7
1000
0000
1000
0002
0000
0000
0003
0000
0000
0000
0000
0000
,  // measure 8
0000
0000
0000
1000
0000
1000
0100
0000
0100
1000
0000
1000
,  // measure 9
0010
0000
0000
0000
0010
0000
0200
0000
0000
0000
0000
0000
0300
0000
0000
0000
0000
0000
0000
0000
0000
0001
0000
0000
,  // measure 10
0020
1000
0000
0200
0330
0000
0000
0001
,  // measure 11
0200
0000
0000
0000
1000
0000
0000
0000
0000
0000
0000
0000
0020
0000
0000
0000
0330
0000
0000
0000
0000
0000
0000
0000
0000
0000
0000
0000
0M00
00M0
0M00
00M0
,  // measure 12
0M00
0000
0000
0000
1000
0100
1000
0001
1000
0000
0001
0000
0010
0100
0010
0001
,  // measure 13
1000
0000
0100
0000
0010
0100
1000
0001
0010
0000
1000
0000
0020
0000
0000
0000
,  // measure 14
0130
0000
0000
0000
1000
0100
1000
0010
1000
0000
0001
0000
0010
0100
0010
0001
,  // measure 15
0100
0000
1000
0000
0100
0010
1000
0100
1000
0000
0001
0000
0020
0000
0000
0030
,  // measure 16
0110
0000
0000
0001
0000
0001
0100
0000
0100
0001
0000
0001
,  // measure 17
0010
0000
0000
0000
0010
0000
0200
0000
0000
0000
0000
0000
0300
0000
0000
0000
0000
0000
0000
0000
0000
1000
0000
0000
,  // measure 18
0020
0001
0000
2000
3030
0000
0000
0001
,  // measure 19
0200
0000
1000
0000
0000
0000
0002
0000
0303
0000
0000
0000
1000
0100
0010
0100
,  // measure 20
2000
3001
101M
M100
0M01
001M
10M0
M010
,  // measure 21
01M0
1M00
M010
01M0
0M01
001M
01M0
0M01
,  // measure 22
010M
1M00
M010
10M0
M100
0M01
010M
0M10
,  // measure 23
00M1
0000
100M
0000
M100
0000
0M10
0000
10M0
0000
M010
0000
01M0
1000
0010
0100
,  // measure 24
0002
0000
1003
0000
0011
0000
0001
1000
0000
1000
0100
0010
0100
0000
1000
0000
,  // measure 25
1000
0000
0004
0000
0103
0000
0010
1000
0000
1000
0001
0010
0100
0010
0001
1000
,  // measure 26
0400
0000
0000
0000
1300
0000
0001
0100
0000
0100
0010
1000
0100
0000
0100
0000
,  // measure 27
1000
0000
0004
0000
2003
0000
0000
3000
M000
0000
0000
0000
0202
0000
0303
0000
,  // measure 28
0001
1000
1100
0110
0100
1000
2020
3030
,  // measure 29
0010
0100
0101
1001
1000
0010
0202
0303
,  // measure 30
0001
1000
1100
0011
0001
0100
0220
0330
,  // measure 31
0001
0000
1000
0000
0010
0100
0001
0100
0010
1000
0100
0010
0110
0000
MMMM
0000
,  // measure 32
1001
0001
0101
0110
0100
0001
0022
0033
,  // measure 33
0010
0100
1100
1001
0001
0010
2200
3300
,  // measure 34
1000
0001
0101
1010
1000
0100
0220
0330
,  // measure 35
1000
0000
0001
0000
0010
0100
1000
0100
0010
0000
0100
0000
2002
0000
0000
0000
,  // measure 36
0M00
00M0
0M00
00M0
,  // measure 37
3M03
0000
0000
0000
1000
0100
1000
0010
2000
0000
0002
0000
3000
0000
0000
0203
,  // measure 38
0000
0000
0000
0310
0200
0000
0000
0310
0100
0000
0200
0000
0000
0000
0300
0000
,  // measure 39
0000
0000
0000
0000
0000
0001
0011
0000
,  // measure 40
0011
1100
1100
1010
,  // measure 41
1010
0000
0000
0000
0101
0000
0000
0000
0101
0000
0000
0000
0110
0000
0100
0001
,  // measure 42
1000
0000
1000
0010
0100
0001
0010
0000
0010
0000
0400
0000
1300
0010
1000
0001
,  // measure 43
1000
0100
0010
0100
1000
0000
0000
0000
0020
0000
0000
0000
0130
0000
0010
0000
,  // measure 44
1001
1100
0010
0001
2100
0000
3010
0100
,  // measure 45
1010
0110
0001
0010
1002
0000
0103
0010
,  // measure 46
1001
0011
0100
1000
0201
0000
0310
0100
,  // measure 47
0001
0000
0010
0000
0100
0000
0010
0000
0001
0000
0100
0000
0010
0000
1000
0000
2002
0000
0000
0000
3000
0000
M000
M000
M003
0000
0000
0000
0010
0000
0000
0000
,  // measure 48
0011
0101
0100
0010
2001
0000
3010
0100
,  // measure 49
0110
1100
0010
0100
1002
0000
0013
0001
,  // measure 50
0101
0011
0100
1000
1020
0000
0031
0010
,  // measure 51
0100
0001
0010
0100
1000
0000
0001
0000
2100
0000
0000
0000
0000
0000
0000
0000
,  // measure 52
0000
0000
3200
0000
,  // measure 53
0000
0000
0302
0000
,  // measure 54
0000
0000
0023
0000
,  // measure 55
0000
0000
0000
0030
MMMM
0000
0000
0000
;
