#TITLE:New Rules;
#SUBTITLE:;
#ARTIST:Dua Lipa;
#TITLETRANSLIT:;
#SUBTITLETRANSLIT:;
#ARTISTTRANSLIT:;
#GENRE:;
#CREDIT:;
#MUSIC:New Rules.OGG;
#BANNER:New Rules.png;
#BACKGROUND:New Rules-bg.png;
#CDTITLE:;
#SAMPLESTART:58.675;
#SAMPLELENGTH:15.000;
#SELECTABLE:YES;
#OFFSET:1.325;
#BPMS:0.000=116.000;
#STOPS:;
#BGCHANGES:;
#FGCHANGES:;

//--------------- dance-single - Talkion (X-Scale 13) ----------------
#NOTES:
     dance-single:
     Talkion (X-Scale 13):
     Challenge:
     9:
     0,0,0,0,0:
0000
0000
0000
0000
,
0000
0000
0000
0000
,
0000
0000
0000
0000
,
0000
0000
0000
0000
,
0000
0000
0000
0000
,
1100
0000
0000
1000
0010
0000
0100
0000
0010
0000
0000
0010
1000
0000
0100
0000
,
0011
0000
0000
0001
0100
0000
0010
0000
0100
0000
0000
0100
0001
0000
0010
0000
,
0110
0000
0000
0100
1000
0000
0001
0000
0200
0000
0000
0310
0100
0001
1000
0000
,
0100
0000
0000
0100
0010
0000
0100
0000
1000
0000
0000
0000
1001
0000
0000
0000
,
0011
0000
0000
0010
0100
0000
1000
0000
0100
0000
0000
0100
0010
0000
0001
0000
,
1010
0000
0000
0010
0100
0000
0001
0000
0100
0000
0000
0100
0010
0000
1000
0000
,
1001
0000
0000
0001
0010
0000
0100
0000
2000
0000
0000
3001
0100
0010
1000
0000
,
0100
0000
0000
0100
0010
0000
0001
0000
1000
0000
0000
0000
1001
0000
0000
0000
,
0201
0000
0000
0320
0000
0000
2030
0000
3200
0000
0000
0310
0100
0000
1000
0000
,
0010
0000
0000
M010
0001
0000
0010
0000
0100
0000
0000
0100
0010
0000
0001
0000
,
0200
0000
0000
0320
0000
0000
2030
0000
3002
0000
0000
0013
0100
1000
0001
0000
,
0010
0000
0000
0000
0000
0000
0000
0000
0000
001M
0000
0000
1000
0000
0000
0000
0000
0000
0001
0000
0000
0000
0000
0000
0100
0000
0000
0000
0010
0000
1000
0000
0000
0000
0010
0000
1000
0000
0000
0000
0000
0000
0100
0000
0000
0000
0000
0000
,
1200
0000
0000
0320
0000
0000
0032
0000
0203
0000
0000
0310
0100
0000
0001
0000
,
0010
0000
0000
001M
1000
0000
0010
0000
0100
0000
0000
0100
0010
0000
1000
0000
,
0200
0000
0000
0302
0000
0000
0203
0000
0320
0000
0000
0031
0010
0100
1000
0000
,
0100
0000
0000
M100
0001
0000
1000
0000
0001
0000
0100
0000
0110
0000
0000
0000
,
0010
1000
0000
1000
0010
0000
0100
0000
0001
0010
0000
0010
0001
0000
0100
0000
,
0010
1000
0010
1000
0100
1000
0100
1000
0001
0010
0000
0010
0100
0000
0010
0000
,
0001
0100
0000
0100
0010
0000
0100
0000
0001
1000
0000
1000
0100
0000
0010
0000
,
0100
1000
0100
1000
0001
0100
0001
0100
0010
1000
0000
1000
0001
0000
0010
0000
,
0100
1000
0000
1000
0100
0000
0010
0000
0001
0100
0000
0100
0001
0000
0010
0000
,
0100
1000
0100
1000
0010
1000
0010
1000
0001
0100
0000
0100
0010
0000
0100
0000
,
0001
1000
0000
1000
0100
0000
0001
0000
0100
1000
0000
1000
0010
0000
0001
0000
,
0010
1010
1000
1001
0004
0043
4030
3400
,
0302
0000
0000
0000
0000
0003
MMMM
0000
,
1000
0000
0000
0100
0000
M100
0001
0000
0000
0010
0000
0000
0001
0000
0000
0100
0000
010M
1000
0000
0000
0010
0000
0000
,
2000
0000
0000
3100
0000
0010
0001
0000
0000
0100
0000
0000
0020
0000
0000
1030
0000
0001
0010
0000
0000
0100
0000
0000
,
0010
0000
0000
0100
0000
01M0
0001
0000
0000
0100
0000
0000
0010
0000
0000
0100
0000
01M0
1000
0000
0000
0001
0000
0000
,
0020
0000
0000
0130
0000
1000
0001
0000
0000
0100
0000
0000
0020
0000
0000
0130
0000
0001
1000
0000
0000
0100
0000
0000
,
1000
0000
0000
0010
0000
M010
0001
0000
0000
0100
0000
0000
0001
0000
0000
0010
0000
001M
1000
0000
0000
0100
0000
0000
,
2000
0000
0000
3010
0000
0001
0010
0000
0000
0100
0000
0000
0002
0000
0000
0013
0000
1000
0010
0000
0000
0001
0000
0000
,
0100
0000
0000
0010
0000
0M10
0001
0000
0000
0010
0000
0000
0100
0000
0000
0010
0000
0M10
1000
0000
0000
0001
0000
0000
,
0200
0000
0000
1300
0000
0100
0010
0000
0000
1000
0000
0000
0200
0000
0000
0301
0000
0100
0010
0000
0000
0001
0000
0000
,
0200
0000
0000
0000
0000
0000
0310
0000
0000
1001
0000
0000
1000
0000
0000
0100
0000
M100
0010
0000
0000
0100
0000
0000
,
0001
0011
1000
1010
0001
0101
1000
1100
,
0100
0000
0000
0010
0000
0M10
1000
0000
0000
0010
0000
0000
0001
0000
0000
001M
0000
0010
0001
0000
0000
1000
0000
0000
,
0100
0110
0010
0011
0100
0110
0010
1010
,
1000
0000
0000
0100
0000
M100
0010
0000
0000
0100
0000
0000
0001
0000
0000
0010
0000
001M
0100
0000
0000
0010
0000
0000
,
1000
1100
0001
0101
1000
1010
0001
0011
,
0010
0000
0000
0100
0000
01M0
0001
0000
0000
0100
0000
0000
1000
0000
0000
M100
0000
0100
1000
0000
0000
0001
0000
0000
,
0010
0000
1100
0000
0010
0000
0101
0000
1000
0000
1001
0000
0001
0010
0100
2000
,
0000
0000
0000
0000
,
3000
0000
0000
0000
;
