#TITLE:Naked Romance;
#SUBTITLE:(nmk Eurobeat mix);
#ARTIST:小日向美穂;
#TITLETRANSLIT:;
#SUBTITLETRANSLIT:;
#ARTISTTRANSLIT:;
#GENRE:;
#CREDIT:;
#BANNER:[Be Mine] - Naked Romance(nmk Eurobeat mix).png;
#BACKGROUND:[Be Mine] - Naked Romance(nmk Eurobeat mix)-bg.png;
#LYRICSPATH:;
#CDTITLE:;
#MUSIC:[Be Mine] - Naked Romance(nmk Eurobeat mix).ogg;
#OFFSET:0.020000;
#SAMPLESTART:65.686462;
#SAMPLELENGTH:11.427208;
#SELECTABLE:YES;
#BPMS:0.000000=168.020004
;
#STOPS:
;
#BGCHANGES:;
#KEYSOUNDS:;
#ATTACKS:;

//---------------dance-single - ----------------
#NOTES:
     dance-single:
     :
     Hard:
     8:
     0.476604,0.640286,0.404391,0.126372,0.088461,396.000000,348.000000,48.000000,15.000000,47.000000,0.000000,0.476604,0.640286,0.404391,0.126372,0.088461,396.000000,348.000000,48.000000,15.000000,47.000000,0.000000:
0000
0000
0000
0000
,
0000
0000
0000
0000
,
0000
0000
0000
0000
,
0000
0000
0000
0000
,
0000
0000
0000
0000
,
0000
0000
0000
00M0
,
1000
1000
1000
0001
,
0100
0001
0010
0001
,
1000
0000
0001
0100
,
1000
0000
0100
0010
0000
1000
0000
0000
,
0001
0010
0001
0100
,
0001
0000
1000
0001
0000
0001
1000
0000
,
0001
0000
0001
0000
0001
0000
0001
0010
,
0200
0000
0000
0000
,
0310
0000
0000
0000
0010
1000
0010
0001
,
0000
1MM1
0000
01M0
1001
0000
MMMM
0000
,
1000
0000
0010
0000
0100
0000
0010
0000
1000
0000
0000
1000
0000
0000
0100
0000
,
0010
0000
0000
0010
0000
0000
0100
0000
0000
0100
0000
0000
0010
0000
0001
0000
,
0100
0000
0010
0000
1000
0000
0000
0000
0001
0000
0000
1000
0000
0000
0100
0000
,
0020
0000
0000
0130
0000
0000
0000
0000
,
0010
0000
0001
0000
0010
0000
0100
0000
1000
0000
0000
0100
0000
0000
1000
0000
,
0001
0000
0000
0001
0000
0000
1000
0000
0000
1000
0000
0000
0010
0000
1000
0000
,
0100
0001
0100
0001
0100
0001
0100
1000
,
1001
0000
0000
0101
0000
0000
0011
0000
0000
0000
0010
0000
1001
0000
0000
0000
,
0000
1000
0001
0010
,
0100
0010
0000
0001
0000
1000
0001
0100
,
0000
0000
0102
0000
0013
0001
1000
0100
,
0010
0100
1000
0001
0100
0001
1000
0100
,
0000
1100
0100
1001
,
0100
0010
0000
1000
0000
0100
0010
0001
,
0000
0000
2100
0000
3010
0000
0100
0010
,
1000
0010
0001
0010
,
0000
0101
0011
1001
,
0001
1000
0000
0100
0010
0001
0100
0010
,
0000
0000
0MM0
0000
0000
0100
0010
0010
,
1000
1000
0001
0000
0010
0001
1000
0100
,
0000
0000
0011
0000
0101
0000
1000
0010
,
1000
0001
0000
1000
0000
0100
1000
0010
,
0000
0000
0000
0000
0000
0000
0M00
0000
000M
0000
M000
0000
0000
0000
000M
0010
0000
0000
1000
0000
0000
0001
0000
0000
,
0010
0011
1010
0011
,
1002
0000
0000
0100
0103
0000
0000
0000
,
2010
0000
0000
0001
3001
0000
0000
0000
,
0210
0000
0000
0001
0301
0000
0000
0000
,
0021
0000
0000
0000
0000
0000
0100
0000
0130
0000
0000
0010
0100
0000
1000
0000
,
1001
0110
1001
0110
,
1001
0010
0100
1001
0MM0
0000
M00M
0000
,
0001
0100
1000
0100
0001
0100
0010
1000
,
0100
0001
0100
1000
0000
0100
0000
1000
,
0010
0000
0100
0000
0010
0000
1000
0001
,
0010
1000
0010
0001
0000
0000
0000
0000
,
1000
0010
0001
0010
1000
0010
0001
0010
,
0100
0001
0010
0100
0000
0000
0010
0001
,
1000
0010
0100
0001
1000
0010
0100
0020
,
0000
0000
0130
1001
,
0001
1000
0100
1000
0001
0100
0001
1000
,
0100
0010
0100
1000
0000
0001
0000
0100
,
0010
0000
0000
0000
0100
0000
0001
1000
0001
0000
0010
0000
0100
0000
1000
0000
,
0000
1100
0000
0101
0000
0100
0010
2000
,
0000
0000
3100
0000
0000
0010
0001
0100
,
0001
0000
1000
0100
0000
0000
1000
0000
,
0201
0000
0300
0000
0001
1000
0100
1000
,
0010
0001
0010
1010
0000
0101
0000
0000
,
1001
M1M1
1M1M
11MM
,
M11M
0000
00M1
0011
0000
10M0
1010
0000
,
0100
0000
0100
0000
0100
0000
0100
0010
,
2000
0000
0000
0000
,
3001
0000
0000
0000
0010
1000
0010
0001
,
0000
M1M1
0000
0M10
1001
0000
0000
0000
,
0001
0000
0100
0000
0001
0000
0100
0000
0010
0000
0000
1000
0000
0000
0100
0000
,
0010
0000
0000
0010
0000
0000
0100
0000
0000
0100
0000
0000
0010
0000
0001
0000
,
0100
0000
0010
0000
0100
0000
0010
0000
0100
0000
0000
0001
0000
0000
1000
0000
,
0200
0000
0000
1300
0000
0000
0000
0000
,
0010
0000
0001
0000
0100
0000
0010
0000
1000
0000
0000
0001
0000
0000
0010
0000
,
0100
0000
0000
0100
0000
0000
0010
0000
0000
0010
0000
0000
0100
0000
1000
0000
,
0100
0001
0100
0001
0100
0001
0100
1000
,
1001
0000
0000
1010
0000
0000
0101
0000
0000
0000
0010
0000
0110
0000
0000
0000
,
2002
0M00
00M0
0M00
,
00M0
0000
0M00
00M0
0000
00M0
0M00
0000
,
0000
00M0
0M00
00M0
,
0M00
0000
00M0
0M00
0000
0M00
00M0
0000
,
3003
0000
0000
0000
;

//---------------dance-single - ----------------
#NOTES:
     dance-single:
     :
     Medium:
     6:
     0.388745,0.572887,0.151647,0.101098,0.004212,323.000000,305.000000,18.000000,12.000000,0.000000,0.000000,0.388745,0.572887,0.151647,0.101098,0.004212,323.000000,305.000000,18.000000,12.000000,0.000000,0.000000:
0000
0000
0000
0000
,
0000
0000
0000
0000
,
0000
0000
0000
0000
,
0000
0000
0000
0000
,
0000
0000
0000
0000
,
0000
0000
0000
0000
,
1000
1000
1000
0001
,
1000
0010
1000
0001
,
0100
0000
0001
0010
,
0001
0000
1000
0001
0000
0100
0000
0000
,
1001
0001
1000
0010
,
0100
0000
0010
1000
0000
1000
0010
0000
,
0100
0000
0100
0000
0100
0000
0100
0001
,
0020
0000
0000
0000
,
0130
0000
0000
0000
0100
0010
0001
1000
,
0000
0001
0000
1000
0010
0000
0000
0000
,
1000
0001
1000
0000
0001
0000
0010
0000
,
0001
0100
0010
1000
,
0010
0100
0010
0000
1000
0000
0001
0000
,
0020
0000
0000
0130
0000
0000
0000
0000
,
0010
0001
0010
0000
0001
0000
1000
0000
,
0010
1000
0001
0100
,
0010
1000
0010
1000
0010
1000
0010
1000
,
0010
1000
0001
1001
,
0000
0001
1000
0100
,
1000
0010
0000
0100
0000
0010
1000
0001
,
0000
2000
3100
1000
,
0010
0100
0001
0010
,
0000
0001
0100
0001
,
1000
0001
0000
0010
0000
0100
0010
0001
,
0000
2000
3100
1000
,
0010
0100
0010
1000
,
0000
0001
1000
0100
,
1000
0010
0000
0100
0010
1000
0100
0010
,
0000
0000
1001
0000
0000
0001
0010
0001
,
1000
0010
0100
0001
,
1000
0100
1000
0010
,
0100
0001
0000
0010
0000
0100
0010
0001
,
1000
0000
0101
0000
0000
0001
0100
0001
,
1000
0100
0010
0001
,
2000
0000
0000
0100
3100
0000
0000
0000
,
0020
0000
0000
0001
0031
0000
0000
0000
,
0200
0000
0000
0010
0310
0000
0000
0000
,
2000
0000
0000
0010
3010
0000
0000
0000
,
0010
1001
0110
1001
,
1000
0100
0010
0001
0000
0000
0000
0000
,
1000
0010
1000
0010
1000
0010
1000
0010
,
0100
0001
0010
0001
,
1000
0001
0100
0001
,
1000
0100
1000
0010
0000
0000
0000
0000
,
0100
0010
0100
0010
0100
0010
0100
0010
,
1000
0010
0100
0001
,
1000
0001
0010
0001
,
0101
1001
0110
1001
,
1000
0010
0100
0010
1000
0010
0100
0010
,
1000
0001
0010
0100
,
0010
0000
0001
0000
0100
0010
1000
0001
,
0000
0010
0000
0001
0000
0100
0010
1000
,
0000
0000
1001
0000
0000
1000
0001
0100
,
0001
0000
0100
0010
0000
0000
1000
0000
,
1001
0000
0010
0001
,
0100
0000
0010
0100
0000
0001
0000
0000
,
1000
0011
1010
1001
,
0101
0000
1000
0001
0000
0001
1000
0000
,
0010
0000
0010
0000
0010
0000
0010
0100
,
0002
0000
0000
0000
,
1003
0000
0000
0000
0100
0010
0100
1000
,
0000
0100
0000
0010
0001
0000
0000
0000
,
1000
0001
1000
0000
0010
0000
1000
0000
,
0001
0100
0010
1000
,
0100
0010
0100
0000
0010
0000
0001
1000
,
0002
0000
0000
0103
0000
0000
0000
0000
,
0010
1000
0010
0000
0100
0000
0001
0000
,
0010
0001
1000
0100
,
0010
0001
0010
0001
0010
0001
0010
0001
,
0010
0000
0000
0001
0000
0000
1000
0000
0000
0000
0010
0000
0100
0000
0000
0000
,
2002
0000
0000
0000
,
0000
0000
0000
0000
,
0000
0000
0000
0000
,
0000
0000
0000
0000
,
3003
0000
0000
0000
;

//---------------dance-single - ----------------
#NOTES:
     dance-single:
     :
     Easy:
     4:
     0.268390,0.370692,0.042124,0.050549,0.000000,223.000000,218.000000,5.000000,6.000000,0.000000,0.000000,0.268390,0.370692,0.042124,0.050549,0.000000,223.000000,218.000000,5.000000,6.000000,0.000000,0.000000:
0000
0000
0000
0000
,
0000
0000
0000
0000
,
0000
0000
0000
0000
,
0000
0000
0000
0000
,
0000
0000
0000
0000
,
0000
0000
0000
0000
,
0000
0000
0000
0000
,
0000
0000
0000
0000
,
0000
0000
0000
0000
,
0000
0000
0000
0000
,
1000
0000
0001
0000
,
0100
0000
0010
0000
,
1000
0000
1000
0000
1000
0000
1000
0001
,
0000
0000
0000
0000
,
0001
0000
0100
0010
,
0000
1000
0000
0010
0100
0000
0000
0000
,
0010
1000
0001
0010
,
0001
0001
1000
1000
,
0010
0100
0001
1000
,
0200
0000
0000
0300
0000
0000
0000
0000
,
1000
1000
0100
1000
,
0010
0100
0001
1000
,
0001
0001
0001
0001
,
1000
0001
0100
1001
,
0000
0001
0100
0010
,
1000
0010
0100
0001
,
0000
1000
1000
0001
,
0010
0001
0100
0001
,
0000
1000
0001
0100
,
0001
0010
0001
1000
,
0000
0100
0100
1000
,
0010
0100
0001
1000
,
0000
0001
1000
0010
,
1000
0001
0100
0010
,
0000
1001
0000
0001
,
1000
0000
0001
0000
,
0100
0001
0010
0001
,
1000
0100
1000
0010
,
0100
1001
0000
0000
,
0001
0001
1000
1000
,
0010
0000
1000
0000
,
0100
0000
0010
0000
,
0100
0000
1000
0000
,
0001
0000
1000
0000
,
0010
0100
0010
1000
,
0001
0010
0100
1000
0000
0000
0000
0000
,
0100
0100
0100
0100
,
0010
0001
1000
0100
,
0010
0100
1000
0001
,
0100
0001
0000
0000
,
1000
1000
1000
1000
,
0001
1000
0010
1000
,
0100
0100
0100
0100
,
0020
0000
0000
0030
,
0100
0100
0100
1000
,
0001
1000
0010
1000
,
0001
0010
0100
0010
,
0001
1000
0010
0100
,
0002
0000
0000
0103
,
0010
1000
0001
0010
,
0100
0000
1000
0001
,
0100
0010
1000
0001
,
1001
1000
0010
0100
,
0001
0000
1000
0001
0000
0001
0100
0000
,
0010
0000
0010
0000
0010
0000
0010
0100
,
0000
0000
0000
0000
,
0001
0000
0000
0000
1000
0100
1000
0001
,
0000
0000
0000
0000
,
1000
0001
0100
0001
,
0010
0001
0100
0010
,
1000
0100
0010
0100
,
2000
0000
0000
3000
0000
0000
0000
0000
,
0001
1000
0010
1000
,
0001
0100
0010
1000
,
0001
0001
0001
0001
,
1000
0001
0100
0010
,
2002
0000
0000
0000
,
0000
0000
0000
0000
,
0000
0000
0000
0000
,
0000
0000
0000
0000
,
3003
0000
0000
0000
;

//---------------dance-single - ----------------
#NOTES:
     dance-single:
     :
     Beginner:
     1:
     0.109523,0.192086,0.042124,0.000000,0.000000,91.000000,86.000000,5.000000,0.000000,0.000000,0.000000,0.109523,0.192086,0.042124,0.000000,0.000000,91.000000,86.000000,5.000000,0.000000,0.000000,0.000000:
// measure 0
0000
0000
0000
0000
,  // measure 1
0000
0000
0000
0000
,  // measure 2
0000
0000
0000
0000
,  // measure 3
0000
0000
0000
0000
,  // measure 4
0000
0000
0000
0000
,  // measure 5
0000
0000
0000
0000
,  // measure 6
0000
0000
0000
0000
,  // measure 7
0000
0000
0000
0000
,  // measure 8
0000
0000
0000
0000
,  // measure 9
0000
0000
0000
0000
,  // measure 10
0000
0000
0000
0000
,  // measure 11
0000
0000
0000
0000
,  // measure 12
0010
0000
0000
0000
,  // measure 13
0000
0000
0000
0000
,  // measure 14
0100
0000
0000
0000
,  // measure 15
0000
0000
0000
1001
,  // measure 16
0010
0000
0000
0000
,  // measure 17
1000
0000
0000
0000
,  // measure 18
0100
0000
0000
0000
,  // measure 19
1000
0000
0000
0000
,  // measure 20
0001
0000
0000
0000
,  // measure 21
0010
0000
0000
0000
,  // measure 22
0001
0000
1000
0000
,  // measure 23
0001
0000
0000
0000
,  // measure 24
0100
0000
0000
0000
,  // measure 25
0010
0000
0000
0000
,  // measure 26
0100
0000
0000
0000
,  // measure 27
0001
0000
1000
0000
,  // measure 28
0001
0000
0000
0000
,  // measure 29
1000
0000
0000
0000
,  // measure 30
0010
0000
0000
0000
,  // measure 31
0100
0000
0010
0000
,  // measure 32
0100
0000
0000
0000
,  // measure 33
0001
0000
0000
0000
,  // measure 34
1000
0000
0000
0000
,  // measure 35
0001
0000
1000
0000
,  // measure 36
0100
0000
0000
0000
,  // measure 37
1000
0000
0000
0000
,  // measure 38
0010
0000
0000
0000
,  // measure 39
0100
0000
0010
0000
,  // measure 40
1000
0000
0000
0000
,  // measure 41
0001
0000
0000
0000
,  // measure 42
0100
0000
0000
0000
,  // measure 43
0010
0000
0000
0000
,  // measure 44
0100
0000
0010
0000
,  // measure 45
1001
0000
0000
0000
,  // measure 46
1000
1000
1000
0000
,  // measure 47
0001
0000
0000
0000
,  // measure 48
0100
0000
0000
0000
,  // measure 49
0010
0000
0000
0000
,  // measure 50
0100
0100
0100
0000
,  // measure 51
0010
0000
0000
0000
,  // measure 52
1000
0000
0001
0000
,  // measure 53
0010
0000
0000
0000
,  // measure 54
0001
0001
0001
0000
,  // measure 55
1000
0000
0000
0000
,  // measure 56
0010
0000
0100
0000
,  // measure 57
0001
0000
0000
1000
,  // measure 58
1000
0000
0000
0001
,  // measure 59
0001
0000
0000
0100
,  // measure 60
0100
0000
0000
0010
,  // measure 61
0010
0000
1000
0000
,  // measure 62
1001
0000
0000
0000
,  // measure 63
0000
0000
0000
0000
,  // measure 64
0010
0010
0010
0010
,  // measure 65
0000
0000
0000
0000
,  // measure 66
0100
0000
0100
0100
,  // measure 67
0000
0000
0000
0000
,  // measure 68
1000
0000
0000
0000
,  // measure 69
0001
0000
0000
0000
,  // measure 70
0100
0000
0000
0000
,  // measure 71
0010
0000
0000
0000
,  // measure 72
1000
0000
0000
0000
,  // measure 73
0010
0000
0000
0000
,  // measure 74
0100
0000
0100
0000
,  // measure 75
1001
0000
0000
0000
,  // measure 76
0110
0000
0000
0000
;
