#TITLE:Make Me Feel;
#SUBTITLE:;
#ARTIST:Janelle Monae;
#TITLETRANSLIT:;
#SUBTITLETRANSLIT:;
#ARTISTTRANSLIT:;
#CREDIT:SupremeX;
#BANNER:Make Me Feel-bn.png;
#BACKGROUND:Make Me Feel-bg.png;
#LYRICSPATH:;
#CDTITLE:cdtitle.png;
#MUSIC:Make Me Feel.ogg;
#OFFSET:-0.498;
#SAMPLESTART:54.071;
#SAMPLELENGTH:12.000;
#SELECTABLE:YES;
#BPMS:0.000=115.060,102.500=115.000,135.000=230.020,141.000=115.010,146.000=230.020,152.000=115.010,157.000=230.020,163.000=115.010,168.000=230.020,174.000=115.010;
#STOPS:102.500=1.825
,208.500=3.125
;
#BGCHANGES:;

//---------------dance-single - ----------------
#NOTES:
     dance-single:
     :
     Challenge:
     9:
     0.470,0.575,0.167,0.223,0.000: // measure 1
0000
0000
0000
0000
,  // measure 2
0000
0000
0000
0000
,  // measure 3
0000
0000
0000
1000
0001
0100
MMMM
0100
,  // measure 4
0001
1000
0000
0010
1000
0001
0100
0001
,  // measure 5
1000
0010
MMMM
1000
0100
1000
MMMM
0001
,  // measure 6
0100
0010
MMMM
0010
1000
0100
0010
0001
,  // measure 7
1000
0010
MMMM
0010
1000
0001
MMMM
1000
,  // measure 8
0010
0100
MMMM
0100
0001
1000
0010
0100
,  // measure 9
0010
0100
MMMM
0001
1000
0100
MMMM
0100
,  // measure 10
1000
0001
MMMM
0001
0010
0100
1000
0100
,  // measure 11
1000
0001
MMMM
0001
1000
0010
MMMM
0100
,  // measure 12
0010
0100
MMMM
0001
0110
1000
0100
0010
,  // measure 13
0001
0001
MMMM
1000
0100
1000
MMMM
0001
,  // measure 14
0100
0010
MMMM
0010
0100
0001
1000
0100
,  // measure 15
1000
1000
MMMM
0001
0010
0100
MMMM
1000
,  // measure 16
0010
0100
MMMM
0100
0001
1000
0100
0010
,  // measure 17
0001
0001
MMMM
1000
0010
0100
MMMM
0100
,  // measure 18
0001
1000
MMMM
0010
0100
0001
1000
0010
,  // measure 19
0100
0100
0001
1000
0100
1020
M000
0130
,  // measure 20
020M
0000
0302
0000
1003
MMMM
0010
0100
,  // measure 21
0001
1000
0010
MMMM
0000
1001
MMMM
0010
,  // measure 22
020M
0000
0302
0000
1003
0000
0100
0100
,  // measure 23
00M0
0010
0010
00M0
0000
0001
MMMM
1000
,  // measure 24
0100
0M00
1100
MMMM
1001
MMMM
0010
0100
,  // measure 25
0001
0010
0100
1000
0010
0100
0010
1000
,  // measure 26
0001
0100
0001
1000
0001
MMMM
1000
0100
,  // measure 27
0010
0001
100M
0100
0010
0100
M000
0100
,  // measure 28
0010
0001
1000
0001
1000
0010
00M0
0100
,  // measure 29
0001
1000
0M00
0010
0001
1000
0100
0010
,  // measure 30
0100
1000
0100
0010
0001
1000
M00M
0010
,  // measure 31
0100
0010
M000
0001
0220
0330
M000
0100
,  // measure 32
0010
0001
1000
0100
1000
0100
MM00
0010
,  // measure 33
0001
0010
0100
0010
0001
0010
0MM0
1000
,  // measure 34
0100
0010
0100
1000
MMMM
0001
1000
0100
,  // measure 35
1000
0100
1000
0100
1000
0100
1000
0100
,  // measure 36
1000
0100
M000
0100
0010
0001
0010
0100
,  // measure 37
1000
0100
0010
0001
0M00
0010
0100
0010
,  // measure 38
0M00
0010
0M00
0010
0100
0010
0100
0010
,  // measure 39
0M00
0001
1000
0001
0100
0010
0100
0001
,  // measure 40
1000
0001
0100
0001
0100
000M
0100
0001
,  // measure 41
0100
000M
0100
0001
0100
000M
0100
00M0
,  // measure 42
1000
0100
0010
0001
1000
0100
0010
0001
,  // measure 43
00M0
0001
0010
0001
0010
000M
00M0
000M
,  // measure 44
0010
0001
0010
0001
00M0
0100
1000
0010
,  // measure 45
1000
0001
0100
0010
0100
0010
2002
3003
,  // measure 46
0MM0
0220
0330
2002
3003
0220
0330
1000
,  // measure 47
0100
0010
0001
1000
0M00
0000
2200
3300
,  // measure 48
0020
0032
0000
0203
0000
0320
0000
1030
,  // measure 49
0100
0010
000M
1000
1100
0000
0022
0033
,  // measure 50
0M00
0200
0000
2000
3300
0202
0303
0010
,  // measure 51
1000
0001
1000
00M0
0100
0001
1000
0010
,  // measure 52
0100
0001
1000
0010
1001
M00M
0000
0000
,  // measure 53
0000
0110
000M
0010
0100
1000
0100
0010
,  // measure 54
0100
1000
0MM0
0001
0010
0100
0010
0001
,  // measure 55
0010
0100
M00M
0010
0100
0001
1000
0010
,  // measure 56
0MM0
0MM0
0001
1000
0100
1000
0001
0100
,  // measure 57
0001
1000
1010
0100
0001
0100
000M
1100
,  // measure 58
MM00
0001
0010
0100
1000
0010
0100
0001
,  // measure 59
1000
000M
1001
0100
0010
0100
0001
1000
,  // measure 60
0001
0110
0110
1000
0100
0010
0001
M000
,  // measure 61
200M
0000
000M
3000
M00M
0000
0000
0000
0000
0000
0000
0000
0000
0000
0000
0000
;

//---------------dance-single - ----------------
#NOTES:
     dance-single:
     :
     Hard:
     8:
     0.528,0.599,0.254,0.231,0.000:
0000
0000
0000
0000
,
0000
0000
0000
0000
,
0000
0000
0000
1000
0001
0100
0000
0100
,
0001
1000
0000
0010
1000
0001
0100
0001
,
1000
0010
0000
1000
0100
1000
0000
0001
,
0100
0010
0000
0010
1000
0100
0010
0001
,
1000
0010
0000
0010
1000
0001
0000
1000
,
0010
0100
0000
0100
0001
1000
0010
0100
,
0010
0100
0000
0001
1000
0100
0000
0100
,
1000
0001
0000
0001
0010
0100
1000
0100
,
1000
0001
0000
0001
1000
0010
0000
0100
,
0010
0100
0000
0001
0110
1000
0100
0010
,
0001
0001
0000
1000
0100
1000
0000
0001
,
0100
0010
0000
0010
0100
0001
1000
0100
,
1000
1000
0000
0001
0010
0100
0000
1000
,
0010
0100
0000
0100
0001
1000
0100
0010
,
0001
0001
0000
1000
0010
0100
0000
0100
,
0001
1000
0000
0010
0100
0001
1000
0010
,
0100
0100
0001
1000
0100
1020
0000
0130
,
0200
0000
0302
0000
1003
0000
0010
0100
,
0001
1000
0010
0000
0000
1001
0000
0010
,
0200
0000
0302
0000
1003
0000
0100
0100
,
0000
0010
0010
0000
0000
0001
0000
1000
,
0100
0000
1100
0000
1001
0000
0010
0100
,
0001
0010
0100
1000
0010
0100
0010
1000
,
0001
0100
0001
1000
0001
1001
1000
0100
,
0010
0001
1000
0100
0010
0100
1000
0100
,
0010
0001
1000
0001
1000
0010
0010
0100
,
0001
1000
0100
0010
0001
1000
0100
0010
,
0100
1000
0100
0010
0001
1000
1001
0010
,
0100
0010
1000
0001
0220
0330
1000
0100
,
0010
0001
1000
0100
1000
0100
1100
0010
,
0001
0010
0100
0010
0001
0010
0100
1000
,
0100
0010
0100
1000
1001
0001
1000
0100
,
1000
0100
1000
0100
1000
0100
1000
0100
,
1000
0100
1000
0100
0010
0001
0010
0100
,
1000
0100
0010
0001
0100
0010
0100
0010
,
0100
0010
0100
0010
0100
0010
0100
0010
,
0100
0001
1000
0001
0100
0010
0100
0001
,
1000
0001
0100
0001
0100
0001
0100
0001
,
0100
0001
0100
0001
0100
0001
0100
0010
,
1000
0100
0010
0001
1000
0100
0010
0001
,
0010
0001
0010
0001
0010
0001
0010
0001
,
0010
0001
0010
0001
0010
0100
1000
0010
,
1000
0001
0100
0010
0100
0010
2002
3003
,
0100
0220
0330
2002
3003
0220
0330
1000
,
0100
0010
0001
1000
0100
0000
2200
3300
,
0020
0032
0000
0203
0000
0320
0000
1030
,
0100
0010
0001
1000
1100
0000
0022
0033
,
0100
0200
0000
2000
3300
0202
0303
0010
,
1000
0001
1000
0010
0100
0001
1000
0010
,
0100
0001
1000
0010
1001
1001
0000
0000
,
0000
0110
0001
0010
0100
1000
0100
0010
,
0100
1000
0110
0001
0010
0100
0010
0001
,
0010
0100
1001
0010
0100
0001
1000
0010
,
0110
0110
0001
1000
0100
1000
0001
0100
,
0001
1000
1010
0100
0001
0100
0001
1100
,
1100
0001
0010
0100
1000
0010
0100
0001
,
1000
0001
1001
0100
0010
0100
0001
1000
,
0001
0110
0110
1000
0100
0010
0001
1000
,
2002
3003
0000
0000
;

//---------------dance-single - ----------------
#NOTES:
     dance-single:
     :
     Medium:
     5:
     0.316,0.335,0.095,0.056,0.000:
0000
0000
0000
0000
,
0000
0000
0000
0000
,
0000
0000
0000
0000
0000
1000
0000
0010
,
0000
0100
0000
0001
0001
0000
0000
1000
,
0000
0100
0000
0010
0000
0001
0000
1000
,
0000
0100
0000
1000
1000
0000
0000
0001
,
0000
1000
0000
0010
0000
0100
0000
0001
,
0000
0100
0000
0010
0010
0000
0000
0100
,
0000
0001
0000
0000
0000
1000
0000
0100
,
0000
1000
0000
0001
0001
0000
0000
0010
,
0000
0100
0000
0000
0000
1000
0000
0001
,
0000
0100
0000
0010
0010
0000
0000
1000
,
0000
0001
0000
0100
0000
0001
0000
1000
,
0000
0010
0000
1000
1000
0000
0000
0001
,
0000
0100
0000
0010
0000
1000
0000
0100
,
0000
1000
0000
0100
0100
0000
0000
0010
,
0000
0001
0000
0010
0000
0001
0000
1000
,
0100
0100
0000
1000
0001
0000
0000
1000
,
0000
0010
0000
1000
0000
0002
0000
0003
,
2000
0000
0000
3000
0020
0000
0200
0000
,
0000
0000
0330
0000
0000
0002
0000
0000
,
2003
0000
0000
0000
3010
0000
0000
1000
,
0000
0001
0100
0010
0000
0010
0000
1000
,
0001
0000
0001
0000
0110
0000
1000
0100
,
0000
1000
1000
0000
0000
0001
0000
0010
,
0000
0100
0100
1000
0001
0100
0001
0000
,
1000
0100
1000
0000
0001
0010
0100
0000
,
1000
0010
0100
0000
0100
0001
1000
0000
,
0010
0100
0010
0000
1000
1000
0000
0001
,
0100
0100
1010
0101
,
1000
0010
0010
1000
0100
0000
0100
0000
,
1000
0000
0001
0100
0001
0000
1000
0000
,
0010
0100
0010
0000
1000
0001
0100
0000
,
0100
0001
1000
0100
1000
0000
0001
0000
,
0001
0001
0001
0001
,
0001
0001
1000
0001
,
0100
0010
1000
0000
0100
0000
0100
0000
,
0100
0100
0100
0100
,
0100
0000
1000
0000
0001
0000
1000
0001
,
0100
0010
0010
0010
,
0010
0010
0010
0010
,
0100
0000
0001
0000
0010
1000
0010
0000
,
1000
1000
1000
1000
,
1000
1000
1000
0001
,
0100
0000
0001
1000
0010
0000
1001
0000
,
0000
0110
0000
0000
0000
0101
0000
0010
,
0100
0001
1000
0001
0000
0000
1100
0000
,
0000
0011
0000
0000
0000
1001
0000
0100
,
0010
0000
1000
1000
0000
0000
0101
0000
,
0000
1010
0000
0000
0000
1001
0000
0010
,
0100
0000
0010
0010
0000
0000
0000
1000
,
0100
0000
0010
0010
0001
0001
0000
0000
,
0000
1000
1000
0000
0010
0000
0100
0000
,
0001
1000
0001
0000
0100
0000
0001
0000
,
1000
0010
0100
0000
0100
0010
1000
0000
,
0001
0100
0010
0000
0010
1000
0100
0000
,
0100
1000
0100
0000
0010
0001
0010
0100
,
0100
0000
1000
0100
0010
0001
1000
0000
,
0100
1000
1000
0000
0001
0010
0010
0000
,
0100
1000
0001
0000
0010
0100
1000
0100
,
0020
0030
0000
0000
;

//---------------dance-single - ----------------
#NOTES:
     dance-single:
     :
     Easy:
     3:
     0.240,0.240,0.167,0.032,0.000:
0000
0000
0000
0000
,
0000
0000
0000
0000
,
0000
0000
0000
0000
0000
1000
0000
0010
,
0000
0100
0000
0001
0000
0000
0000
1000
,
0000
0010
0000
0100
0000
0001
0000
1000
,
0000
0010
0000
1000
0000
0001
0000
0100
,
0000
0100
0000
0010
0000
1000
0000
0001
,
0000
0100
0000
0010
0000
1000
0000
0001
,
0000
0001
0000
1000
0000
0010
0000
0100
,
0000
0001
0000
1000
0000
0010
0000
0100
,
0000
0100
0000
0001
0000
1000
0000
0010
,
0000
0100
0000
0001
0000
1000
0000
0010
,
0000
0010
0000
1000
0000
0010
0000
0100
,
0000
0001
0000
1000
0000
0010
0000
0100
,
0000
0100
0000
0001
0000
1000
0000
0010
,
0000
0100
0000
0010
0000
0001
0000
0001
,
0000
0001
0000
1000
0000
0010
0000
0100
,
0000
0001
0000
1000
0000
0010
0000
1000
,
0000
1000
0000
0000
0000
1001
0000
0000
,
0110
0000
0000
0000
1001
0000
0000
0010
,
0000
0100
0000
0000
0000
1001
0000
0000
,
0110
0000
0000
0000
1001
0000
0000
0010
,
0000
0100
0000
0000
0000
1001
0000
0000
,
0110
0000
0000
0000
1001
0000
0000
0010
,
0000
0100
0000
0000
0000
0000
0000
1000
,
0000
0001
0000
1000
0000
0000
1000
0000
,
1000
0010
0010
0100
,
0100
0001
0001
1000
,
0010
1000
0010
0100
,
0001
0100
0001
1000
,
1000
0010
0010
0100
,
0100
0001
0001
1000
,
0010
1000
0001
0100
,
0001
1000
1001
0020
,
0000
0000
0000
0000
,
0030
0000
1000
0010
,
1000
0001
2000
0000
,
0000
0000
0000
0000
0000
0000
0000
3000
,
0000
0010
0100
0010
,
0100
0002
0000
0000
,
0000
0000
0000
0000
0000
0003
0000
0000
,
1000
0010
0100
0001
,
0200
0000
0000
0000
,
0000
0000
0000
0300
0000
0000
0010
0000
,
1000
0010
0100
1001
,
0000
0110
0000
0000
0000
1001
0000
0000
,
0010
0100
0010
1001
,
0000
0110
0000
0000
0000
1001
0000
0000
,
0010
0100
0010
1001
,
0000
0110
0000
0000
0000
1001
0000
0000
,
0010
0010
0000
0000
,
0100
0100
0100
0000
,
0000
1001
0010
0000
0010
0000
0100
0000
,
0100
0001
0001
1000
,
1000
0010
0100
0001
,
1000
0010
0100
0001
,
1000
0010
0010
0100
,
0100
0001
0001
1000
,
1000
0001
0100
0010
,
1000
0001
0100
0010
,
1000
1001
0000
0000
;

//---------------dance-single - Copied from----------------
#NOTES:
     dance-single:
     Copied from:
     Beginner:
     1:
     0.065,0.095,0.008,0.000,0.000:
0000
0000
0000
0000
,
0000
0000
0000
0000
,
0000
0000
0000
0000
0000
1000
0000
0000
,
0000
0000
0000
1000
0000
0000
0000
0000
,
0000
0000
0000
0000
0000
0001
0000
0000
,
0000
0000
0000
0001
0000
0000
0000
0000
,
0000
0000
0000
0000
0000
0100
0000
0000
,
0000
0000
0000
0100
0000
0000
0000
0000
,
0000
0000
0000
0000
0000
0010
0000
0000
,
0000
0000
0000
0010
0000
0000
0000
0000
,
0000
0000
0000
0000
0000
1000
0000
0000
,
0000
0000
0000
1000
0000
0000
0000
0000
,
0000
0000
0000
0000
0000
0001
0000
0000
,
0000
0000
0000
0001
0000
0000
0000
0000
,
0000
0000
0000
0000
0000
0100
0000
0000
,
0000
0000
0000
0100
0000
0000
0000
0000
,
0000
0000
0000
0000
0000
0010
0000
0000
,
0000
0000
0000
0010
0000
0000
0000
0000
,
0000
0000
0000
0000
0000
1000
0000
0000
,
0000
0000
0000
0000
,
0000
1000
0000
0000
0000
0001
0000
0000
,
0000
0000
0000
0000
0000
0000
0000
0001
,
0000
0000
0000
0000
0000
0100
0000
0000
,
0000
0000
0100
0000
,
0000
0000
0000
0000
0000
0010
0000
0000
,
0000
0000
0000
1000
,
0000
0000
0000
1000
,
0000
0000
0000
0100
,
0000
0000
0000
0100
,
0000
0000
0000
0010
,
0000
0000
0000
0010
,
0000
0000
0000
0001
,
0000
0000
0000
0001
,
0000
0000
0000
1000
,
0000
0000
0000
0000
,
0000
1000
0000
0000
,
0000
0000
0010
0000
,
0000
0000
0000
0000
,
0010
0000
0000
0000
,
0000
0100
0000
0000
,
0000
0000
0000
0100
,
0000
0000
0000
0000
,
0001
0000
0000
0000
,
0000
0000
0001
0000
,
0000
0000
0000
1000
,
0000
0000
0000
0000
0000
1000
0000
0000
,
0000
0000
0000
0010
,
0000
0000
0000
0000
0000
0010
0000
0000
,
0000
0000
0000
0100
,
0000
0000
0000
0000
0000
0100
0000
0000
,
0000
0000
0000
0001
,
0000
0000
0000
0000
,
0000
0001
1000
0000
0000
0000
0000
0000
,
0000
1000
0000
0000
,
0000
0010
0000
0000
,
0010
0000
0000
0000
,
0100
0000
0000
0000
,
0100
0000
0000
0000
,
0001
0000
0000
0000
,
0001
0000
0000
0000
,
1001
0000
0000
0000
;
