#TITLE:Love Is Eternity ;
#SUBTITLE:-SF SYNTH TRANCE MIX-;
#ARTIST:kors k (remixed by Sota Fujimori);
#TITLETRANSLIT:;
#SUBTITLETRANSLIT:;
#ARTISTTRANSLIT:;
#GENRE:;
#CREDIT:;
#MUSIC:Love is Eternity SF Trance REMIX.ogg;
#BANNER:LIE banner.png;
#BACKGROUND:LIE BG.png;
#CDTITLE:;
#SAMPLESTART:83.204;
#SAMPLELENGTH:15.310;
#SELECTABLE:YES;
#OFFSET:-0.032;
#BPMS:0.000=145.000;
#STOPS:;
#BGCHANGES:;
#FGCHANGES:;

//--------------- dance-single - ----------------
#NOTES:
     dance-single:
     :
     Hard:
     9:
     0,0,0,0,0:
0000
0000
0000
0000
,
0000
0000
0000
0000
,
0000
0000
0000
0000
,
0000
0000
0000
0000
,
0000
0000
0000
0000
0010
0000
0100
0000
0001
0000
1000
0001
0000
0100
0001
0000
,
0100
0100
0010
0010
1000
1000
0001
0000
,
1001
0000
0000
0000
0100
0000
0010
0000
0100
0000
0001
0010
0000
0100
1000
0000
,
0001
0001
0010
0010
0100
0100
1000
0000
,
1100
0000
1000
0000
0001
1000
0000
0010
1000
0000
0010
1000
0000
0100
1000
0000
,
0010
1000
0100
0001
0100
1000
0100
0100
,
0010
0000
0010
0000
0001
0100
0000
0010
0100
0000
0010
1000
0000
0001
1000
0000
,
0010
0001
0010
1000
0010
0010
0100
0100
,
0010
0000
0010
0000
1000
0100
0000
0010
0001
0000
0010
0100
0000
0001
0010
0000
,
0001
0100
0010
1000
0010
0001
0010
1000
,
1000
0000
0010
0000
0010
0100
0000
0001
1000
0000
0010
0100
0000
0010
1000
0000
,
0100
1000
0220
0000
0000
0000
0330
0000
,
0010
0100
0010
0000
0210
0000
0000
0000
0301
0000
0000
0000
0100
0000
0001
0000
,
0010
0000
0102
0000
0103
0000
0010
1000
,
0100
0000
2100
0000
3100
0000
1000
0010
,
1000
0000
0012
0000
1003
0000
0001
0100
,
0001
0000
0012
0000
0103
0000
0010
1000
,
0001
0000
2010
0000
3100
0000
0010
0001
,
0100
0000
0120
0000
1030
0000
0100
1000
,
0100
0000
0012
0000
0013
0000
0100
0010
,
0001
0000
0100
0000
0010
0000
0100
0000
0001
0000
1000
0010
0000
0010
0001
0000
,
0100
0000
0010
0000
1000
0000
0001
0000
0100
0000
0001
0010
0000
0010
1000
0000
,
0100
0000
1000
0000
0010
0000
0100
0000
0001
0000
1000
0100
0000
0100
0001
0000
,
0100
0000
0010
0000
1000
0000
0001
0000
0100
0000
0001
0100
0000
0100
1000
0000
,
0100
0000
1000
0000
0010
0000
0100
0000
0001
0000
1000
0010
0000
0010
0001
0000
,
0010
0000
0001
0000
0100
0000
0010
0000
1000
0000
0001
0010
0000
0010
1000
0000
,
0010
0000
1000
0000
0100
0000
0010
0000
0100
0000
0000
1100
0000
0000
1010
0000
,
1001
0000
0000
0000
1000
0000
0010
0000
1000
0000
0000
0001
0000
0000
0011
0000
,
0101
0200
0000
0000
,
0000
0302
0000
0023
,
0000
0032
0000
0000
,
0000
0203
0000
0320
,
0000
0000
0000
0000
1030
0000
0001
0000
0010
0000
0000
0001
0000
0000
1000
0000
,
0100
0000
0000
0000
1000
0000
0010
0000
0100
0000
0000
1000
0000
0000
0100
0000
,
0001
0000
0000
0000
1000
0000
0001
0000
0100
0000
0000
0010
0000
0000
0001
0000
,
0010
0000
0000
0000
1000
0000
0010
0000
0100
0000
0000
0001
0000
0000
0010
0000
,
0001
0000
0000
0000
0200
0000
0000
0320
0000
0000
2030
0000
3002
0000
0000
0023
,
0000
0000
0230
0000
2300
0000
0000
3020
0000
0000
0230
0000
0320
0000
0000
2030
,
0000
0000
3002
0000
0023
0000
0000
0032
0000
0000
2003
0000
3200
0000
0000
2300
,
0000
0000
3020
0000
0230
0000
0000
0302
0000
0000
0023
0000
0032
0000
0000
0203
,
0000
0000
0302
0000
2003
0000
0000
3020
0000
0000
2030
0000
3200
0000
0000
2300
,
0000
0000
3002
0000
0023
0000
0000
0230
0000
0000
2300
0000
3200
0000
0000
0320
,
0000
0000
0032
0000
0203
0000
0000
0320
0000
0000
2030
0000
3020
0000
0000
0200
,
0030
0000
0302
0000
1003
0000
0000
0011
0000
0000
0110
0000
1001
0000
0000
1010
,
0000
1100
2002
0000
0000
0000
0000
0000
,
3003
0000
0000
0000
0010
0100
0010
0000
1000
0000
0010
0000
1000
0010
0000
0100
,
0001
0000
0000
0000
1000
0100
0000
0010
0001
0000
1000
0010
0000
1000
0100
0000
,
0010
0000
0100
0000
1000
0001
0000
0010
0001
0000
0100
0001
0000
0100
0001
0000
,
0100
0000
0010
0000
0100
0010
0000
1000
0001
0000
0100
0010
0000
0100
0001
0000
,
0010
0000
0001
0000
0100
0010
0000
1000
0100
0000
1000
0010
0000
1000
0100
0000
,
1000
0000
0100
0000
1000
0010
0000
0100
0010
0000
0100
0001
0000
0010
0001
0000
,
0010
0000
0001
0000
0100
0010
0000
1000
0100
0000
1000
0001
0000
0100
0001
0000
,
0100
0000
0010
0000
0100
0010
0000
0100
0001
0000
0010
0100
0000
1000
0001
0000
,
0100
0000
0010
0000
0100
0001
0000
0010
0100
0000
1000
0100
0000
0010
0100
0000
,
1000
0000
0001
0000
0100
0000
0010
0000
2000
0000
0000
0010
0000
3010
0100
0000
,
0001
0000
0010
0000
0100
0000
1000
0000
0002
0000
0000
0010
0000
0013
0100
0000
,
1000
0000
0001
0000
0100
0000
0010
0000
2000
0000
0000
0010
0000
3010
0100
0000
,
0001
0000
0100
0000
0001
0000
0010
0000
0002
0000
0000
1000
0000
1003
0010
0000
,
0100
0000
0010
0000
1000
0000
0010
0000
0200
0000
0000
0010
0000
0310
0100
0000
,
0010
0000
1000
0000
0100
0000
0010
0000
0002
0000
0000
0010
0000
0013
0100
0000
,
1000
0000
0010
0000
1000
0100
0000
1000
0100
0000
0010
0001
0000
0100
0001
0000
,
1000
0000
0100
0000
1000
0010
1000
0000
0001
0010
0001
0000
1000
0000
0000
0001
,
0000
0100
0220
0000
0000
0000
0000
0000
,
0000
0000
0000
0000
0000
0000
0000
0000
0000
0000
0000
0000
0000
0000
0000
0330
;

//--------------- dance-single - ----------------
#NOTES:
     dance-single:
     :
     Challenge:
     10:
     0,0,0,0,0:
0000
0000
0000
0000
,
0000
0000
0000
0000
,
0000
0000
0000
0000
,
0000
0000
0000
0000
,
0000
0000
0000
0000
0010
0000
0100
0000
0001
0000
0100
0010
0000
0010
0100
0000
,
0001
1000
0001
0000
1000
0000
0100
0000
0010
0000
0001
0000
0011
0000
0001
0000
,
1000
0100
1000
0000
0001
0000
0100
0000
0010
0000
1000
0010
0000
0010
1000
0000
,
0010
0100
0010
0000
0100
0000
0001
0000
0010
0000
0100
0000
0010
0000
0011
0000
,
0001
1000
0100
0000
1000
0010
0000
0100
0010
0000
0100
0010
0000
0100
0001
0000
,
0010
0100
0010
0000
0100
1000
0000
0010
0100
0000
0001
0000
0100
0010
0100
0000
,
0001
0000
1000
0000
0100
0010
0000
0100
1000
0000
0010
0100
0000
0010
0100
0000
,
0010
1000
0001
0000
0010
0001
0000
1000
0001
0000
0100
0000
0010
1000
0100
0000
,
1000
0000
0010
0000
0100
0001
0000
0100
0010
0000
1000
0010
0000
0100
0001
0000
,
0100
0010
0100
0000
0001
1000
0000
0100
1000
0000
0010
0000
0100
0010
1000
0000
,
0010
0000
0100
0000
0010
1000
0000
0010
0100
0000
0001
0100
0000
0001
0010
0000
,
0001
0100
0220
0000
0000
0000
0000
0000
,
0330
MMMM
1000
0100
0101
MMMM
1000
0010
,
0011
0000
MMMM
0000
1000
0000
0100
0000
0101
0000
MMMM
0000
1000
0100
0010
0000
,
0001
0100
1000
0100
0101
MMMM
0001
0010
,
1010
0000
MMMM
0000
0001
0000
0100
0000
1100
0000
MMMM
0000
0001
0010
0100
0000
,
1000
0010
0100
0010
1010
MMMM
1000
0001
,
0011
0000
MMMM
0000
0100
0000
0010
0000
1000
0000
0001
1000
0001
0000
0010
0000
,
0101
MMMM
0010
1000
1100
MMMM
0001
0010
,
0011
0000
MMMM
0000
0100
0000
0010
0000
0100
0000
0001
0000
1000
0100
0010
0001
,
0010
0100
1000
0001
1000
0000
0010
0000
1000
0000
0100
1000
0000
0010
0100
0000
,
0010
0100
0001
0000
0010
0000
0001
0000
0100
0000
0010
1000
0000
0010
0100
0000
,
0001
1000
0001
0000
0100
0000
0010
0000
1000
0000
0100
0010
0000
0001
0100
0000
,
0010
1000
0010
0000
1000
0000
0100
0000
1000
0000
0010
1000
0000
0001
0100
0000
,
0010
0100
0001
0000
1000
0000
0010
0000
0100
0000
0010
1000
0000
0100
1000
0000
,
0100
1000
0100
0000
1000
0000
0010
0000
0100
0000
0010
0100
0000
0001
0010
0000
,
0100
1000
0001
0000
2002
0000
0000
0000
3003
0000
0100
0010
0000
0100
0010
0000
,
1000
0000
MMMM
0000
0010
0000
1000
0000
0100
0000
1000
0010
0000
0100
0010
0000
,
1000
0100
0010
0100
1000
0000
0100
0000
1000
0000
0000
0010
0000
0000
0001
0000
,
0010
0000
0000
1000
0000
0000
0001
0000
0100
0000
0000
0010
0000
1000
0100
0000
,
1000
0000
0000
0001
0000
0000
0100
0000
0001
0000
0000
0010
0000
0001
0100
0000
,
0010
0000
0000
1000
0000
0000
0100
0000
0001
0000
0000
0100
0000
1000
0100
0000
,
1000
0000
0000
0010
0000
0000
0001
0000
0010
0000
0000
1000
0000
0001
0100
0000
,
0001
0000
0000
0100
0000
0000
1000
0000
0100
0000
0000
0001
0000
0010
0001
0000
,
1000
0000
0000
0100
0000
0000
1000
0000
0010
0000
0000
1000
0000
0010
0100
0000
,
0001
0000
0000
0100
0000
0000
0010
0000
0100
0000
0000
0001
0000
1000
0010
0000
,
1000
0000
MMMM
0000
0200
0000
0000
0010
0000
0000
1300
0000
0020
0000
0000
0100
,
0000
0000
1030
0000
0002
0000
0000
0010
0000
0000
0103
0000
0020
0000
0000
0100
,
0000
0000
1030
0000
0200
0000
0000
0010
0000
0000
1300
0000
0002
0000
0000
0010
,
0000
0000
0013
0000
0200
0000
0000
1000
0000
0000
1300
0000
0020
0000
0000
0100
,
0000
0000
0130
0000
0002
0000
0000
0010
0000
0000
0013
0000
0002
0000
0000
0100
,
0000
0000
0103
0000
2000
0000
0000
0100
0000
0000
3100
0000
0002
0000
0000
0010
,
0000
0000
0013
0000
2000
0000
0000
0010
0000
0000
3010
0000
0200
0000
0000
0010
,
0000
0000
0310
0000
0002
0000
0000
0010
0000
0000
0013
0000
0011
0000
0000
0101
,
0000
1010
0220
0000
0000
0000
0000
0000
,
0330
0000
MMMM
0000
1000
0100
0010
0001
1000
0001
1000
0100
1000
0001
0000
0100
,
0010
0000
MMMM
0000
1000
0100
0000
0001
0100
0000
1000
0010
0000
0001
0010
0000
,
1000
0010
1000
0000
0001
0010
0000
1000
0010
0000
0001
0100
0000
1000
0100
0000
,
0001
0100
0001
0000
1000
0100
0000
0001
0100
0000
1000
0010
0000
0001
0010
0000
,
1000
0010
1000
0000
0001
0100
0000
1000
0100
0000
0001
0100
0000
1000
0100
0000
,
0001
0100
0001
0000
1000
0010
0000
0001
0010
0000
1000
0100
0000
0001
0100
0000
,
1000
0100
1000
0000
0010
0001
0000
0010
1000
0000
1000
0100
0000
0001
0100
0000
,
1000
0100
1000
0000
0001
0100
0000
0010
0100
0000
0001
1000
0000
0010
1000
0000
,
0100
0010
0100
0000
1000
0100
0000
0010
0001
0000
0010
0100
0000
1000
0001
0000
,
1000
0000
0001
0000
0100
0010
0100
0000
0001
0000
1000
0100
0000
0100
0001
0000
,
0100
0000
MMMM
0000
0010
0100
0001
0000
0010
0000
1000
0010
0000
0010
0001
0000
,
0100
0000
MMMM
0000
0010
0100
0010
0000
1000
0000
0001
0010
0000
0010
1000
0000
,
0100
0000
MMMM
0000
1000
0010
0100
0000
0001
0000
1000
0100
0000
0100
0001
0000
,
0100
0000
MMMM
0000
0001
0010
0100
0000
1000
0000
0001
0100
0000
0100
1000
0000
,
0001
0000
MMMM
0000
1000
0001
0010
0000
0100
0000
0001
0010
0000
0010
1000
0000
,
0010
0000
MMMM
0000
1000
0100
0010
0000
0001
0000
1000
0100
0000
0100
0001
0000
,
0100
0000
MMMM
0000
0001
1000
0001
0000
0100
0010
0100
0000
0101
0000
0000
0110
,
0000
1010
2002
0000
0000
0000
0000
0000
,
0000
0000
0000
0000
0000
0000
0000
0000
0000
0000
0000
0000
0000
0000
0000
3003
;
