#TITLE:Like A Man;
#SUBTITLE:;
#ARTIST:Outsider;
#TITLETRANSLIT:Like A Man;
#SUBTITLETRANSLIT:;
#ARTISTTRANSLIT:Outsider;
#GENRE:Rap;
#CREDIT:;
#BANNER:[Be Mine] - Like A Man.png;
#BACKGROUND:[Be Mine] - Like A Man-bg.png;
#LYRICSPATH:;
#CDTITLE:cdtitle.png;
#MUSIC:[Be Mine] - Like A Man.ogg;
#OFFSET:-0.085250;
#SAMPLESTART:21.420584;
#SAMPLELENGTH:10.646666;
#LASTBEATHINT:356.489014;
#SELECTABLE:YES;
#BPMS:0.000000=180.000000
;
#STOPS:192.000000=2.333000
;
#BGCHANGES:;
#KEYSOUNDS:;
#ATTACKS:;

//---------------dance-single - ----------------
#NOTES:
     dance-single:
     09-13:
     Hard:
     9:
     0.713986,0.653041,0.477559,0.634001,0.000000,607.000000,549.000000,58.000000,77.000000,24.000000,0.000000,0.713986,0.653041,0.477559,0.634001,0.000000,607.000000,549.000000,58.000000,77.000000,24.000000,0.000000:
// measure 0
0000
0000
0000
0000
,  // measure 1
0000
0000
0000
0000
,  // measure 2
0000
0000
0000
0000
,  // measure 3
0000
0000
0000
0000
,  // measure 4
1000
0000
0000
1000
0000
1000
0000
1000
,  // measure 5
0001
0000
0000
0001
0000
0001
0000
0001
,  // measure 6
1000
0000
0000
1000
0000
1000
0001
0000
,  // measure 7
0010
0001
1000
0010
0000
1000
0001
0000
,  // measure 8
1000
0100
1000
0100
0010
0100
0010
0100
,  // measure 9
1000
0001
0100
0001
1000
0001
0020
0000
,  // measure 10
0031
0100
0001
0100
0010
0100
0010
0100
,  // measure 11
0001
1000
0100
1000
0010
1000
0002
0000
,  // measure 12
0013
0100
0010
0100
1000
0001
1000
0001
,  // measure 13
1000
0010
0100
0010
0001
0010
2000
0000
,  // measure 14
3010
0100
0010
0100
0001
1000
0001
1000
,  // measure 15
0001
0010
1000
0010
0001
0100
0010
0000
,  // measure 16
2020
3030
M0M0
2020
3030
1000
0100
0010
,  // measure 17
0022
0033
00MM
0022
0033
0001
0100
0010
,  // measure 18
2020
3030
M0M0
2020
3030
1000
0100
0010
,  // measure 19
0001
0100
1000
0000
1000
0100
0001
0000
,  // measure 20
1000
0100
0010
0100
1000
0100
0010
0000
,  // measure 21
0001
0100
0010
0100
0001
0100
0010
0000
,  // measure 22
1010
1000
0001
0000
0011
0001
1000
0000
,  // measure 23
1010
0010
0100
0001
1000
0100
0010
0000
,  // measure 24
0022
0033
00MM
0022
0033
0001
0100
0010
,  // measure 25
2020
3030
M0M0
2020
3030
1000
0100
0010
,  // measure 26
0022
0033
00MM
0022
0033
0001
0100
0010
,  // measure 27
1000
0100
0001
0000
0001
0100
1000
0000
,  // measure 28
0001
0010
0100
0010
0001
0010
0100
0000
,  // measure 29
1000
0010
0100
0010
1000
0010
0100
0000
,  // measure 30
0101
0001
1000
0000
1100
1000
0001
0000
,  // measure 31
0101
0100
0010
1000
0001
0010
0100
0000
,  // measure 32
1000
0100
1000
0100
0010
0100
0010
0100
,  // measure 33
1000
0100
0010
0001
0100
0010
1000
1000
,  // measure 34
0001
0010
0001
0010
0100
0010
0100
0010
,  // measure 35
0001
0100
0010
1000
0100
0010
0001
0000
,  // measure 36
1000
0010
1000
0010
0100
0010
1000
1000
,  // measure 37
0001
0010
0001
0010
0100
0010
0001
1000
,  // measure 38
2020
3030
0202
0303
0022
0033
2200
3300
,  // measure 39
1000
0000
1000
0000
1000
0010
1000
0100
,  // measure 40
0010
0001
0010
0001
1000
0001
1000
0001
,  // measure 41
0100
1000
0100
0001
0100
1000
0100
0000
,  // measure 42
0001
0100
0001
0100
0001
1000
0001
0010
,  // measure 43
1000
0010
0001
1000
0010
0001
0010
0100
,  // measure 44
0010
1000
0010
1000
0001
1000
0001
1000
,  // measure 45
0100
0001
0100
1000
0100
0001
0100
0000
,  // measure 46
1000
0100
0001
0100
1000
0010
0001
0010
,  // measure 47
1000
0100
0010
0001
0100
0100
0010
1000
,  // measure 48
0100
0000
0012
0000
0003
1002
0000
0103
,  // measure 49
0001
1000
2010
0000
3000
2001
0000
3100
,  // measure 50
1000
0001
0012
0000
0003
1002
0000
0103
,  // measure 51
0001
0001
0200
1000
1300
0200
0000
0320
,  // measure 52
1030
0000
0100
1000
0010
1000
0100
1000
,  // measure 53
0001
0000
0100
0001
0010
0001
0100
0001
,  // measure 54
1000
0000
1100
0100
0010
0000
0011
0010
,  // measure 55
0100
0000
1100
1000
0001
0100
0010
0100
,  // measure 56
0001
0000
2010
0000
3000
2001
0000
3100
,  // measure 57
1000
0001
0012
0000
0003
1002
0000
0103
,  // measure 58
0001
1000
2010
0000
3000
2001
0000
3100
,  // measure 59
1000
1000
0200
0001
0301
0200
0000
0320
,  // measure 60
0031
0000
0010
0001
0100
0001
0010
0001
,  // measure 61
1000
0000
0010
1000
0100
1000
0010
1000
,  // measure 62
0001
0000
0101
0100
0010
0000
1010
0010
,  // measure 63
0100
0000
0101
0001
1000
0100
0010
0001
,  // measure 64
1000
1000
0001
0100
1000
0100
0001
0100
,  // measure 65
1000
0100
0001
0010
1000
0010
0001
0010
,  // measure 66
1000
0010
0001
0100
0010
0001
0010
0100
,  // measure 67
0010
0001
0010
1000
0100
0010
1000
0010
,  // measure 68
0001
0001
1000
0100
0001
0100
1000
0100
,  // measure 69
0001
0100
1000
0010
0001
0010
1000
0010
,  // measure 70
0001
0010
1000
0100
0010
1000
0010
0100
,  // measure 71
0010
1000
0010
0001
0100
0010
0001
0010
,  // measure 72
1000
0100
2002
3003
M00M
2002
3003
0001
,  // measure 73
0100
0000
2002
3003
M00M
2002
3003
1000
,  // measure 74
0100
0000
2002
3003
M00M
2002
3003
0001
,  // measure 75
0100
0000
0010
1000
0001
0010
0000
0100
,  // measure 76
1000
0000
0001
0100
0010
0100
0001
0010
,  // measure 77
0100
0000
1000
0100
0010
0100
1000
0010
,  // measure 78
0100
0000
1001
0001
0100
0000
1001
1000
,  // measure 79
0100
0000
1001
0001
0010
0100
1000
0001
,  // measure 80
0100
0000
0202
0303
0M0M
0202
0303
0001
,  // measure 81
0010
0100
2200
3300
MM00
2200
3300
1000
,  // measure 82
0010
0100
0202
0303
0M0M
0202
0303
0001
,  // measure 83
0010
0100
1000
0010
0001
0000
0001
0010
,  // measure 84
1000
0000
0001
0010
0100
0001
0100
0010
,  // measure 85
0001
0000
1000
0010
0100
1000
0100
0010
,  // measure 86
1000
0000
1010
0100
0001
0000
0011
0100
,  // measure 87
1000
0000
1010
0100
0001
1000
0100
0010
,  // measure 88
0100
0100
0000
0000
0000
0000
0000
0000
;

//---------------dance-single - ----------------
#NOTES:
     dance-single:
     07-10:
     Medium:
     7:
     0.484616,0.507921,0.074104,0.312883,0.000000,412.000000,403.000000,9.000000,38.000000,0.000000,0.000000,0.484616,0.507921,0.074104,0.312883,0.000000,412.000000,403.000000,9.000000,38.000000,0.000000,0.000000:
// measure 0
0000
0000
0000
0000
,  // measure 1
0000
0000
0000
0000
,  // measure 2
0000
0000
0000
0000
,  // measure 3
0000
0000
0000
0000
,  // measure 4
1000
0000
0000
1000
0000
1000
0000
0000
,  // measure 5
0001
0000
0000
0001
0000
0001
0000
0000
,  // measure 6
1000
0000
0000
1000
0000
1000
0000
0000
,  // measure 7
0010
0000
0000
1000
0000
0000
0001
0000
,  // measure 8
1000
0100
1000
0100
,  // measure 9
1000
0000
0100
0000
0010
0001
0010
0000
,  // measure 10
0001
0100
0001
0100
,  // measure 11
0001
0000
0100
0000
0010
1000
0010
0000
,  // measure 12
1000
0100
0010
0001
,  // measure 13
0100
0000
0010
0000
1000
0001
1000
0000
,  // measure 14
0001
0010
0100
1000
,  // measure 15
0010
0000
0100
0000
0001
1000
0001
0000
,  // measure 16
0020
0030
0000
0020
0030
0000
0001
1000
,  // measure 17
0020
0030
0000
0020
0030
0000
1000
0001
,  // measure 18
0020
0030
0000
0020
0030
0000
0001
1000
,  // measure 19
0010
0100
0001
0000
0010
0100
1000
0000
,  // measure 20
0001
0000
0100
0000
0010
0000
0100
0001
,  // measure 21
1000
0000
0100
0000
0010
0000
0100
1000
,  // measure 22
0001
0000
0001
1000
0010
0000
0010
1000
,  // measure 23
0001
0000
0001
0010
0100
0000
1000
0000
,  // measure 24
0020
0030
0000
0020
0030
0000
1000
0001
,  // measure 25
0020
0030
0000
0020
0030
0000
0001
1000
,  // measure 26
0020
0030
0000
0020
0030
0000
1000
0001
,  // measure 27
0010
0100
1000
0000
0010
0100
0001
0000
,  // measure 28
1000
0000
0100
0000
0010
0000
0100
1000
,  // measure 29
0001
0000
0100
0000
0010
0000
0100
0001
,  // measure 30
1000
0000
1000
0001
0010
0000
0010
0001
,  // measure 31
1000
0000
1000
0010
0100
0000
0001
0000
,  // measure 32
1000
0000
1000
0000
0100
0010
0100
0010
,  // measure 33
0001
0000
0001
0000
0100
0010
1000
0000
,  // measure 34
0001
0000
0001
0000
0010
0100
1000
0000
,  // measure 35
0001
0100
0001
0100
0010
0000
1000
0000
,  // measure 36
0001
0000
0010
0000
0100
0010
0100
0000
,  // measure 37
1000
0000
0010
0000
0100
0010
0100
0000
,  // measure 38
0001
0001
1000
0001
,  // measure 39
1000
0100
0010
0001
,  // measure 40
1000
0010
0001
0010
,  // measure 41
1000
0100
1000
0100
1000
0100
1000
0000
,  // measure 42
0001
0000
0100
0000
1000
0000
0100
0001
,  // measure 43
0000
0001
1000
0001
1000
0001
1000
0000
,  // measure 44
0001
0010
1000
0010
,  // measure 45
0001
0100
0001
0100
0001
0100
0001
0000
,  // measure 46
1000
1000
0001
0001
,  // measure 47
1000
0100
0010
0001
0010
0000
0022
0000
,  // measure 48
0033
0000
0002
0000
0000
1000
0000
1003
,  // measure 49
0000
0010
0200
0000
0000
0302
0000
0000
,  // measure 50
1003
0100
0020
0000
0000
0130
0000
0100
,  // measure 51
1000
0000
0002
0000
1000
2003
0000
0010
,  // measure 52
3010
1000
0100
0010
,  // measure 53
0100
1000
0001
0000
0100
0000
0010
0000
,  // measure 54
0100
0001
1000
0000
1000
0001
0010
0000
,  // measure 55
0010
0001
1000
0000
1000
0010
0100
0000
,  // measure 56
0001
0000
2000
0000
0000
0001
0000
3001
,  // measure 57
0000
0010
0200
0000
0000
2300
0000
0000
,  // measure 58
3001
0100
0020
0000
0000
0130
0000
0100
,  // measure 59
0001
0000
2000
0000
0001
3002
0000
0010
,  // measure 60
0013
0001
0100
0010
,  // measure 61
0100
0001
1000
0000
0100
0000
0010
0000
,  // measure 62
0100
1000
0001
0000
0001
1000
0010
0000
,  // measure 63
0010
1000
0001
0000
0001
0010
0100
0000
,  // measure 64
1000
0000
1001
0000
0001
0000
0001
0100
,  // measure 65
0001
0000
1001
0000
1000
0000
1000
0100
,  // measure 66
1000
0000
1001
0000
0001
0000
0001
0010
,  // measure 67
0001
0000
1001
0000
1000
0000
1000
0010
,  // measure 68
1000
0000
0101
0000
0001
0000
0001
0100
,  // measure 69
0001
0000
1100
0000
1000
0000
1000
0100
,  // measure 70
1000
0000
0011
0000
0001
0000
0001
0010
,  // measure 71
0001
0000
1010
0000
1000
0000
1000
0010
,  // measure 72
1000
0000
0002
0003
0000
0002
0003
1000
,  // measure 73
0100
0000
2000
3000
0000
2000
3000
0001
,  // measure 74
0100
0000
0002
0003
0000
0002
0003
1000
,  // measure 75
0100
0000
0010
0001
0000
1000
0000
0010
,  // measure 76
0100
0001
1000
0100
,  // measure 77
0010
0001
1000
0000
0001
0000
0100
0000
,  // measure 78
0010
1000
0001
0000
0001
0010
0100
0000
,  // measure 79
0100
0010
0001
0000
0001
0100
0010
0000
,  // measure 80
1000
0000
0200
0300
0000
0200
0300
0000
,  // measure 81
1000
0001
0200
0300
0000
0200
0300
0000
,  // measure 82
0001
1000
0200
0300
0000
0200
0300
0000
,  // measure 83
1000
0001
0100
0010
1000
0000
0100
0010
,  // measure 84
0001
1000
0010
0100
,  // measure 85
0010
1000
0001
0000
0010
0000
0100
0000
,  // measure 86
0010
0001
1000
0000
1000
0001
0100
0000
,  // measure 87
0100
0001
1000
0000
1000
0100
0010
0000
,  // measure 88
0001
0001
0000
0000
0000
0000
0000
0000
;

//---------------dance-single - ----------------
#NOTES:
     dance-single:
     05-07:
     Easy:
     5:
     0.341113,0.362286,0.082338,0.543429,0.000000,290.000000,280.000000,10.000000,66.000000,0.000000,0.000000,0.341113,0.362286,0.082338,0.543429,0.000000,290.000000,280.000000,10.000000,66.000000,0.000000,0.000000:
// measure 0
0000
0000
0000
0000
,  // measure 1
0000
0000
0000
0000
,  // measure 2
0000
0000
0000
0000
,  // measure 3
0000
0000
0000
0000
,  // measure 4
2000
0000
0000
3000
,  // measure 5
0002
0000
0000
0003
,  // measure 6
2000
0000
0000
3000
,  // measure 7
0200
0000
0000
0300
,  // measure 8
1000
1000
0100
0100
,  // measure 9
1000
1000
0010
1000
,  // measure 10
0001
0001
0100
0100
,  // measure 11
0001
0001
0010
0001
,  // measure 12
1000
0010
0100
0010
,  // measure 13
1000
0010
0100
0001
,  // measure 14
1000
0100
0010
0100
,  // measure 15
1000
0100
0010
0001
,  // measure 16
2000
3000
0000
2000
3000
0000
0010
0000
,  // measure 17
0002
0003
0000
0002
0003
0000
0010
0000
,  // measure 18
2000
3000
0000
2000
3000
0000
0010
0000
,  // measure 19
2020
3030
0022
0033
,  // measure 20
1000
0100
0010
0100
,  // measure 21
1000
0010
0100
0010
,  // measure 22
1000
0100
0001
0100
,  // measure 23
1000
0010
0100
0100
,  // measure 24
0002
0003
0000
0002
0003
0000
0010
0000
,  // measure 25
2000
3000
0000
2000
3000
0000
0010
0000
,  // measure 26
0002
0003
0000
0002
0003
0000
0010
0000
,  // measure 27
0022
0033
2020
3030
,  // measure 28
0001
0100
0010
0100
,  // measure 29
0001
0010
0100
0010
,  // measure 30
0001
0100
1000
0100
,  // measure 31
0001
0010
0100
0100
,  // measure 32
2000
0000
3100
1000
,  // measure 33
0002
0000
0103
0001
,  // measure 34
2000
0000
3100
1000
,  // measure 35
0001
0100
0010
0000
,  // measure 36
2000
0000
3010
1000
,  // measure 37
0200
0000
0310
0001
,  // measure 38
1000
1000
0001
0001
,  // measure 39
1000
0100
0010
0001
,  // measure 40
2000
0000
3010
0000
,  // measure 41
0010
1000
0100
0010
,  // measure 42
0002
0000
0013
0000
,  // measure 43
0001
0010
1000
0010
,  // measure 44
0002
0000
0103
0000
,  // measure 45
0100
0010
1000
0001
,  // measure 46
0010
0000
0100
0000
,  // measure 47
0010
0100
1001
2002
,  // measure 48
3003
2002
3003
0001
,  // measure 49
0100
0000
0020
0000
0000
0230
0000
0000
,  // measure 50
1300
0200
0000
0301
,  // measure 51
1000
0000
0200
0000
0000
0320
0000
0000
,  // measure 52
0032
1003
0010
0100
,  // measure 53
0010
1000
0100
0010
,  // measure 54
0100
1000
0010
0001
,  // measure 55
0010
0100
0010
1000
,  // measure 56
0001
2002
3003
1000
,  // measure 57
0100
0000
0020
0000
0000
0230
0000
0000
,  // measure 58
0301
0200
0000
1300
,  // measure 59
0001
0000
0200
0000
0000
0320
0000
0000
,  // measure 60
2030
3001
0010
0100
,  // measure 61
0010
0001
0100
0010
,  // measure 62
0100
0001
0010
1000
,  // measure 63
0010
0100
0010
0001
,  // measure 64
1000
0001
0001
0001
,  // measure 65
0001
0100
0100
0100
,  // measure 66
0100
1000
1000
1000
,  // measure 67
1000
0010
0010
0010
,  // measure 68
0010
1000
1000
1000
,  // measure 69
1000
0100
0100
0100
,  // measure 70
0100
0001
0001
0001
,  // measure 71
0001
0010
0010
0010
,  // measure 72
0010
0000
0002
0003
0000
0002
0003
0000
,  // measure 73
0000
0000
2000
3000
0000
2000
3000
0000
,  // measure 74
0000
0000
0002
0003
0000
0002
0003
0000
,  // measure 75
0000
0000
1000
0000
0000
0010
0000
0100
,  // measure 76
0000
0001
0010
0100
,  // measure 77
0010
0001
0100
0010
,  // measure 78
0100
0001
0010
1000
,  // measure 79
0010
0001
0100
0010
,  // measure 80
0010
0000
2000
3000
0000
2000
3000
0000
,  // measure 81
0100
0000
0002
0003
0000
0002
0003
0000
,  // measure 82
0100
0000
2000
3000
0000
2000
3000
0000
,  // measure 83
0001
2002
3003
0220
,  // measure 84
0330
1000
0100
0010
,  // measure 85
0100
1000
0010
0100
,  // measure 86
0010
1000
0100
0001
,  // measure 87
0100
1000
0010
0100
,  // measure 88
0001
0000
0000
0000
;

//---------------dance-single - ----------------
#NOTES:
     dance-single:
     02-03:
     Beginner:
     2:
     0.189377,0.325131,0.115273,0.255247,0.000000,161.000000,147.000000,14.000000,31.000000,0.000000,0.000000,0.189377,0.325131,0.115273,0.255247,0.000000,161.000000,147.000000,14.000000,31.000000,0.000000,0.000000:
// measure 0
0000
0000
0000
0000
,  // measure 1
0000
0000
0000
0000
,  // measure 2
0000
0000
0000
0000
,  // measure 3
0000
0000
0000
0000
,  // measure 4
2000
0000
0000
3000
,  // measure 5
0002
0000
0000
0003
,  // measure 6
2000
0000
0000
3000
,  // measure 7
0002
0000
0000
0003
,  // measure 8
1000
0000
1000
0000
,  // measure 9
1000
0000
1000
0000
,  // measure 10
0001
0000
0001
0000
,  // measure 11
0001
0000
0001
0000
,  // measure 12
1000
0000
0010
0000
,  // measure 13
1000
0000
0010
0000
,  // measure 14
0100
0000
0001
0000
,  // measure 15
0100
0000
0001
0000
,  // measure 16
2002
0000
0000
3003
0000
0000
0000
0000
,  // measure 17
2002
0000
0000
3003
0000
0000
0000
0000
,  // measure 18
2002
0000
0000
3003
0000
0000
0000
0000
,  // measure 19
0010
0000
0010
0000
,  // measure 20
0001
0000
0001
0000
,  // measure 21
1000
0000
1000
0000
,  // measure 22
0001
0000
0010
0000
,  // measure 23
0001
0000
0100
0000
,  // measure 24
2002
0000
0000
3003
0000
0000
0000
0000
,  // measure 25
2002
0000
0000
3003
0000
0000
0000
0000
,  // measure 26
2002
0000
0000
3003
0000
0000
0000
0000
,  // measure 27
0010
0000
0010
0000
,  // measure 28
1000
0000
1000
0000
,  // measure 29
0001
0000
0001
0000
,  // measure 30
1000
0000
0010
0000
,  // measure 31
1000
0000
0100
0000
,  // measure 32
0010
0000
0000
0000
,  // measure 33
0100
0000
0000
0000
,  // measure 34
0010
0000
0000
0000
,  // measure 35
0001
0000
0000
0000
,  // measure 36
1000
0000
0000
0000
,  // measure 37
0010
0000
0000
0000
,  // measure 38
0010
0000
0010
0000
,  // measure 39
1000
0000
0001
0000
,  // measure 40
0010
0000
0000
0000
,  // measure 41
0010
0000
0100
0000
,  // measure 42
0010
0000
0000
0000
,  // measure 43
0001
0000
1000
0000
,  // measure 44
0001
0000
0000
0000
,  // measure 45
0100
0000
0010
0000
,  // measure 46
0100
0000
0100
0000
,  // measure 47
1001
0000
1001
1001
,  // measure 48
0000
2002
0000
3003
,  // measure 49
0000
1000
0000
0100
,  // measure 50
0000
2000
0000
3000
,  // measure 51
0000
0010
0000
0010
,  // measure 52
0000
1000
0000
1000
,  // measure 53
0000
0001
0000
0001
,  // measure 54
0000
1000
0000
0100
,  // measure 55
0000
1000
0000
0010
,  // measure 56
0000
2002
0000
3003
,  // measure 57
0000
0001
0000
0100
,  // measure 58
0000
0002
0000
0003
,  // measure 59
0000
0010
0000
0010
,  // measure 60
0000
0001
0000
0001
,  // measure 61
0000
1000
0000
1000
,  // measure 62
0000
0001
0000
0100
,  // measure 63
0000
0001
0000
0010
,  // measure 64
0000
0100
0100
0100
,  // measure 65
0000
0100
0100
0100
,  // measure 66
0000
0010
0010
0010
,  // measure 67
0000
0010
0010
0010
,  // measure 68
0000
0001
0001
0001
,  // measure 69
0000
0001
0001
0001
,  // measure 70
0000
1000
1000
1000
,  // measure 71
0000
1000
1000
1000
,  // measure 72
0000
0000
0020
0000
0000
0030
0000
0000
,  // measure 73
0000
0000
0020
0000
0000
0030
0000
0000
,  // measure 74
0000
0000
0020
0000
0000
0030
0000
0000
,  // measure 75
0000
0100
0000
0000
,  // measure 76
0000
0001
0000
0001
,  // measure 77
0000
1000
0000
1000
,  // measure 78
0000
0001
0000
0010
,  // measure 79
0000
0001
0000
0100
,  // measure 80
0000
0000
2002
0000
0000
3003
0000
0000
,  // measure 81
0000
0000
2002
0000
0000
3003
0000
0000
,  // measure 82
0000
0000
2002
0000
0000
3003
0000
0000
,  // measure 83
0000
0010
0000
0010
,  // measure 84
0000
1000
0000
1000
,  // measure 85
0000
0001
0000
0001
,  // measure 86
0000
1000
0000
0010
,  // measure 87
0000
1000
0000
0100
;

//---------------dance-single - ----------------
#NOTES:
     dance-single:
     10-15:
     Challenge:
     10:
     0.904539,0.917294,0.469325,0.592832,0.605182,769.000000,712.000000,57.000000,72.000000,86.000000,0.000000,0.904539,0.917294,0.469325,0.592832,0.605182,769.000000,712.000000,57.000000,72.000000,86.000000,0.000000:
// measure 0
0000
0000
0000
0000
,  // measure 1
0000
0000
0000
0000
,  // measure 2
0000
0000
0000
0000
,  // measure 3
0000
0000
0000
0000
,  // measure 4
0001
0000
0010
0001
0000
0001
0000
0001
,  // measure 5
1000
0000
0010
1000
0000
1000
0000
1000
,  // measure 6
0001
0000
0010
0001
0000
0001
0100
0000
,  // measure 7
0010
0000
1000
0000
0001
0000
0010
0000
0000
0000
0010
0000
0001
1000
0001
0000
,  // measure 8
0100
0000
0010
0000
1000
0000
1000
0000
0010
0000
0100
0000
0001
0000
0001
1000
,  // measure 9
0100
0000
0100
1000
0001
0000
1000
0010
1000
0000
0001
0000
0021
0000
0000
0000
,  // measure 10
0130
0000
1000
0000
0001
0000
0001
0000
0100
0000
0010
0000
1000
0000
1000
0100
,  // measure 11
0010
0000
0001
0000
1000
0000
0010
0100
0010
0000
1000
0000
1002
0000
0000
0000
,  // measure 12
1003
0000
0100
0000
0001
0000
0100
0000
1000
0000
0100
0000
0010
0000
0001
1000
,  // measure 13
0010
0000
1000
0001
0010
0000
0001
0100
0010
0000
1000
0000
2010
0000
0000
0000
,  // measure 14
3001
0000
0100
0000
1000
0000
0100
0000
0001
0000
0100
0000
0010
0000
1000
0100
,  // measure 15
0010
0000
0001
0000
0010
0000
0100
1000
0001
0000
0100
0000
0010
0000
0000
0000
,  // measure 16
2010
0000
0000
0000
0000
00M0
0000
0000
3010
0000
0000
0000
2010
0000
0000
0000
0000
00M0
0000
0000
3001
0000
0100
0000
0001
0000
0000
0000
0010
0000
0000
0000
,  // measure 17
0012
0000
0000
0000
0000
00M0
0000
0000
0013
0000
0000
0000
0012
0000
0000
0000
0000
00M0
0000
0000
1003
0000
0100
0000
1000
0000
0000
0000
0010
0000
0000
0000
,  // measure 18
2010
0000
0000
0000
0000
00M0
0000
0000
3010
0000
0000
0000
2010
0000
0000
0000
0000
00M0
0000
0000
3001
0000
0100
0000
0001
0000
0000
0000
1000
0000
0000
0000
,  // measure 19
0100
1000
0010
0000
1M2M
0000
0030
0000
0100
0001
0010
0000
MM12
0000
0003
0000
,  // measure 20
1000
0000
0010
1000
0001
0000
1000
0000
0100
0000
0010
0000
0100
0000
1000
0000
,  // measure 21
0010
0000
0100
0001
0010
0000
0100
1000
0010
0000
1000
0000
0001
0000
0010
0000
,  // measure 22
1000
0000
0010
0100
0010
0000
0001
0000
0100
0000
1000
0000
0100
0010
0100
0000
,  // measure 23
0001
0000
1000
0000
0100
0010
0000
0010
0001
0000
0100
0000
0010
0000
0000
0000
,  // measure 24
0102
0000
0000
0000
0000
0M00
0000
0000
0103
0000
0000
0000
0102
0000
0000
0000
0000
0M00
0000
0000
1003
0000
0010
0000
1000
0000
0000
0000
0100
0000
0000
0000
,  // measure 25
2100
0000
0000
0000
0000
0M00
0000
0000
3100
0000
0000
0000
2100
0000
0000
0000
0000
0M00
0000
0000
3001
0000
0010
0000
0001
0000
0000
0000
0100
0000
0000
0000
,  // measure 26
0102
0000
0000
0000
0000
0M00
0000
0000
0103
0000
0000
0000
0102
0000
0000
0000
0000
0M00
0000
0000
1003
0000
0010
0000
1000
0000
0000
0000
0001
0000
0000
0000
,  // measure 27
0010
0001
0100
0000
M2M1
0000
0300
0000
0010
1000
0100
0000
21MM
0000
3000
0000
,  // measure 28
0001
0000
0010
0001
1000
0000
0001
0000
0100
0000
0010
0000
0100
0000
0001
0000
,  // measure 29
0010
0000
0100
1000
0010
0000
0100
0001
0010
0000
0001
0000
1000
0000
0010
0000
,  // measure 30
0001
0000
0010
0100
0010
0000
1000
0000
0100
0000
0001
0000
0100
0010
0100
0000
,  // measure 31
1000
0000
0001
0000
0100
0010
0000
0010
1000
0000
0100
0000
0010
0000
0000
0000
,  // measure 32
0001
0010
0001
0010
0001
0000
1000
0000
0001
0100
0001
0100
0001
0100
0001
0000
,  // measure 33
1000
0000
0100
0000
0010
0000
0001
1000
0001
1000
0001
0000
0100
0000
0001
0000
,  // measure 34
1000
0010
1000
0010
1000
0000
0001
0010
0001
0010
0001
0010
0001
0000
1000
0000
,  // measure 35
0001
0000
0100
0000
0010
0000
1000
0001
1000
0001
1000
0000
0100
0000
0000
0000
,  // measure 36
1000
0000
0100
0000
0001
0000
0100
0000
1000
0100
1000
0100
0010
0000
0001
0000
,  // measure 37
0100
0000
1000
0000
0100
0000
0001
0000
0100
0001
0100
0001
1000
0000
0100
0000
,  // measure 38
0011
0000
0000
0000
0000
00MM
0000
0000
1100
0000
0000
0000
0000
MM00
0000
0000
1010
0000
0000
0000
0000
M0M0
0000
0000
0101
0000
0000
0000
0000
0M0M
0000
0000
,  // measure 39
1000
0000
0010
0000
0100
0000
0001
0000
0010
0000
0100
0000
1000
0000
0000
0010
0000
0000
0100
0000
0000
0001
0000
0000
,  // measure 40
1000
0100
0010
0001
1000
0010
1000
0001
,  // measure 41
0200
2300
3002
0023
0230
0302
0023
0030
,  // measure 42
0001
0000
0100
0010
1000
0000
0010
0000
1000
0000
0100
0000
0001
0000
0200
0000
,  // measure 43
1300
0020
0032
2003
3200
0320
2030
3001
,  // measure 44
0010
0100
0010
0001
1000
0001
0100
0010
,  // measure 45
0200
2300
3002
0023
2030
3002
0023
0030
,  // measure 46
0100
0000
1000
0100
1000
0000
0001
0000
0100
0000
0001
0100
0001
0000
1000
0100
,  // measure 47
0010
0000
0001
0000
1000
0000
0001
0000
0100
0000
0100
0000
0010
0100
0001
1000
,  // measure 48
0100
0000
1002
0000
M103
0201
0000
031M
,  // measure 49
0100
0000
0001
0000
2001
0000
0000
0000
310M
0000
1200
0000
0000
0000
M310
0001
,  // measure 50
1000
0010
0210
0000
03M1
0102
0000
1M03
,  // measure 51
0100
0000
0010
0001
2000
0000
0010
0000
3001
0000
MM12
0000
0000
0000
20M3
0000
,  // measure 52
3010
0000
0100
0000
0001
0000
1000
0100
1000
0000
0001
0000
0100
0000
0010
0000
,  // measure 53
1000
0000
0001
0000
0010
0000
0100
1000
0100
0000
0010
0001
1000
0000
0010
0000
,  // measure 54
0100
0000
0010
0000
0001
0000
0010
1000
0010
0000
1000
0000
0100
0000
0001
0000
,  // measure 55
0100
0010
0100
0000
1000
0000
0001
0000
1000
0010
0000
0010
0100
0000
0001
0000
,  // measure 56
0010
0000
0021
0000
013M
0210
0000
13M0
,  // measure 57
0001
0000
1000
0000
1020
0000
0000
0000
M130
0000
0210
0000
0000
0000
03M1
1000
,  // measure 58
0100
1000
1200
0000
M310
0120
0000
0M31
,  // measure 59
0100
0000
0010
1000
0002
0000
0010
0000
1003
0000
2M1M
0000
0000
0000
30M2
0000
,  // measure 60
0013
0000
0100
0000
1000
0000
0001
0100
0001
0000
1000
0000
0100
0000
0010
0000
,  // measure 61
0001
0000
1000
0000
0010
0000
0100
0001
0100
0000
0010
1000
0001
0000
0010
0000
,  // measure 62
0100
0000
0010
0000
1000
0000
0010
0001
0010
0000
0001
0000
0100
0000
1000
0000
,  // measure 63
0100
0010
0100
0000
0001
0000
1000
0000
0001
0010
0000
0010
0100
0000
1000
0000
,  // measure 64
0001
0000
1000
0000
1M1M
0000
0010
1000
0100
0000
0100
1000
0010
0000
0010
0000
,  // measure 65
1000
0000
0100
0000
11MM
0000
0010
0000
0001
0000
0010
0001
0100
0000
0100
0000
,  // measure 66
0010
0000
0100
0000
M1M1
0000
0001
0000
0010
0000
0100
0010
0100
0000
1000
0000
,  // measure 67
1000
0000
0010
0100
M0M1
0000
0100
0010
1000
0100
0010
0000
0100
0000
1000
0000
,  // measure 68
1000
0000
0001
0000
MM11
0000
0010
0001
0100
0000
0100
0001
0010
0000
0010
0000
,  // measure 69
0001
0000
0100
0000
M1M1
0000
0010
0000
1000
0000
0010
1000
0100
0000
0100
0000
,  // measure 70
0010
0000
0100
0000
11MM
0000
1000
0000
0010
0000
0100
0010
0100
0000
0001
0000
,  // measure 71
0001
0000
0010
0100
10MM
0000
0100
0010
0001
0100
0010
0000
1000
0000
0100
0000
,  // measure 72
0010
0000
0000
0000
0001
0000
0000
0000
1002
0000
0000
0000
0000
M000
0000
0000
1003
0000
0000
0000
1002
0000
0000
0000
0000
M000
0000
0000
1003
0000
0000
0000
,  // measure 73
0010
0000
0000
0000
1000
0000
0000
0000
2001
0000
0000
0000
0000
000M
0000
0000
3001
0000
0000
0000
2001
0000
0000
0000
0000
000M
0000
0000
3001
0000
0000
0000
,  // measure 74
0010
0000
0000
0000
0001
0000
0000
0000
1002
0000
0000
0000
0000
M000
0000
0000
1003
0000
0000
0000
1002
0000
0000
0000
0000
M000
0000
0000
1003
0000
0000
0000
,  // measure 75
0100
0000
0010
0001
0100
0000
1000
0000
0100
0000
0001
0000
0000
0000
0001
0000
,  // measure 76
0010
0000
0100
0000
1000
0000
0001
0100
0010
0000
1000
0100
0010
0000
0001
0000
,  // measure 77
0100
0000
0010
0000
1000
0000
0001
0010
0100
0000
0010
0001
0100
0000
1000
0000
,  // measure 78
0100
0000
0001
0000
0010
0000
0100
1000
0001
0000
1000
0000
0010
0000
0001
0000
,  // measure 79
0010
0100
0010
0000
1000
0000
0001
0000
1000
0100
0000
0100
0010
0000
0001
0000
,  // measure 80
0100
0000
0000
0000
0000
0000
0000
0000
2010
0000
0000
0000
0000
00M0
0000
0000
3010
0000
0000
0000
2010
0000
0000
0000
0000
00M0
0000
0000
3001
0000
0100
0000
,  // measure 81
0001
0000
0000
0000
0010
0000
0000
0000
0012
0000
0000
0000
0000
00M0
0000
0000
0013
0000
0000
0000
0012
0000
0000
0000
0000
00M0
0000
0000
1003
0000
0100
0000
,  // measure 82
1000
0000
0000
0000
0010
0000
0000
0000
2010
0000
0000
0000
0000
00M0
0000
0000
3010
0000
0000
0000
2010
0000
0000
0000
0000
00M0
0000
0000
3001
0000
0100
0000
,  // measure 83
0001
0000
0000
0000
0010
0000
0000
0000
0100
0000
1000
0000
0010
0000
0000
0000
1M02
00M0
0000
0000
0003
0000
0000
0000
0100
0000
0001
0000
0010
0000
0000
0000
,  // measure 84
2M01
00M0
0000
0000
3000
0000
0000
0000
0001
0000
0000
0000
1000
0000
0100
0000
0010
0000
0000
0000
0001
0000
0100
0000
0010
0000
0000
0000
1000
0000
0000
0000
,  // measure 85
0100
0000
0010
0000
0001
0000
1000
0010
0100
0000
0010
1000
0100
0000
0001
0000
,  // measure 86
0100
0000
1000
0000
0010
0000
0100
0001
1000
0000
0001
0000
0010
0000
1000
0000
,  // measure 87
0010
0100
0010
0000
0001
0000
1000
0000
0001
0100
0000
0100
0010
0000
1000
0000
,  // measure 88
0001
0001
M000
0M00
00M0
0M00
00M0
000M
,  // measure 89
0M00
00M0
0000
0000
0000
0000
0000
0000
;
