#TITLE:♥LOVE² シュガ→♥ (かめりあ&ななひら's Over-Sweet-Dempa 恋愛教室 Remix);
#SUBTITLE:;
#ARTIST:dj TAKA feat.のりあ remixed by かめりあ feat.ななひら;
#TITLETRANSLIT:;
#SUBTITLETRANSLIT:;
#ARTISTTRANSLIT:;
#GENRE:LOVEJUMP CORE;
#CREDIT:;
#BANNER:[Be Mine] - LOVE2 Sugar (Camellia&nanahira's Over-Sweet-Dempa na renai kyoushitsu Remix)-bn.PNG;
#BACKGROUND:[Be Mine] - LOVE2 Sugar (Camellia&nanahira's Over-Sweet-Dempa na renai kyoushitsu Remix)-bg.png;
#LYRICSPATH:;
#CDTITLE:;
#MUSIC:[Be Mine] - LOVE2 Sugar (Camellia&nanahira's Over-Sweet-Dempa na renai kyoushitsu Remix).mp3;
#OFFSET:-0.028000;
#SAMPLESTART:55.698002;
#SAMPLELENGTH:16.082001;
#SELECTABLE:YES;
#BPMS:0.000000=194.000000
,136.000000=97.000000
,152.000000=194.000000
;
#STOPS:
;
#BGCHANGES:;
#KEYSOUNDS:;
#ATTACKS:;

//---------------dance-single - X Scale 16----------------
#NOTES:
     dance-single:
     X Scale 16:
     Challenge:
     10:
     0.709102,0.949180,0.911213,0.031972,0.111903,621.000000,507.000000,114.000000,4.000000,324.000000,0.000000,0.709102,0.949180,0.911213,0.031972,0.111903,621.000000,507.000000,114.000000,4.000000,324.000000,0.000000:
// measure 0
0000
0000
0000
0000
,  // measure 1
0000
0000
0000
0000
,  // measure 2
0000
0000
0000
0000
,  // measure 3
0000
0000
0000
0000
,  // measure 4
0000
0000
0000
0000
,  // measure 5
0000
0000
0000
0000
,  // measure 6
0000
0000
0000
0000
,  // measure 7
0000
0000
0000
0000
,  // measure 8
0000
0000
0000
0000
,  // measure 9
MMMM
1010
MMMM
0011
MMMM
0101
MMMM
1100
,  // measure 10
MMMM
1010
MMMM
1100
MMMM
0101
MMMM
0011
,  // measure 11
MMMM
1010
MMMM
0011
MMMM
0101
MMMM
1100
,  // measure 12
MMMM
1010
MMMM
1001
MMMM
0110
0110
0110
,  // measure 13
MMMM
0011
MMMM
1010
MMMM
0101
MMMM
1100
,  // measure 14
MMMM
0011
MMMM
1010
MMMM
0101
MMMM
1100
,  // measure 15
0000
0010
1000
0000
0100
0010
0001
0000
,  // measure 16
1010
0000
0000
1001
0000
0000
1100
0000
0000
1001
0000
0000
1010
0000
1001
0000
,  // measure 17
0011
0000
0000
1001
0000
0000
0101
0000
0000
0001
0000
0000
0100
0000
0010
0000
,  // measure 18
0100
0001
0010
0100
1000
0010
0100
0001
,  // measure 19
0100
0001
0010
0100
1000
0010
0100
0001
,  // measure 20
0010
0001
0100
0010
1000
0100
0010
0001
,  // measure 21
0010
0001
0100
0010
1000
0100
0010
0001
,  // measure 22
0001
1000
0010
0100
0001
1000
0001
0010
,  // measure 23
0001
1000
0010
0100
0001
1000
0001
0010
,  // measure 24
1000
0001
0100
0010
1000
0001
1000
0100
,  // measure 25
1000
0010
0100
0200
0000
0000
0000
0000
,  // measure 26
0301
1000
0001
1000
0001
0000
0010
0100
,  // measure 27
0000
1000
0010
0100
0000
0001
0010
0100
,  // measure 28
0000
0010
0100
1000
0000
0001
0100
0010
,  // measure 29
1000
0001
0100
0010
0000
0020
0000
0000
,  // measure 30
1030
0001
1000
0001
1000
0000
0100
0010
,  // measure 31
0000
0001
0100
0010
0000
1000
0100
0010
,  // measure 32
0000
0100
0010
0001
0000
1000
0010
0100
,  // measure 33
0000
0001
0000
0010
0000
0010
0000
0000
,  // measure 34
0001
0000
0001
0000
0100
0001
0100
0001
1000
0000
1000
0000
0100
1000
0100
1000
,  // measure 35
0010
0000
1000
0000
0001
0000
0010
0000
0100
0000
1000
0000
0001
0000
0100
0010
,  // measure 36
0000
0000
0000
0000
0100
0010
0100
0001
0000
0000
0010
0000
0100
0010
0100
1000
,  // measure 37
0000
0000
0001
0000
0010
0001
0100
0001
0010
0001
0100
0001
0000
0010
0100
0000
,  // measure 38
1000
0100
0010
0001
,  // measure 39
1000
0001
1000
0001
0100
0010
0100
0000
,  // measure 40
0001
0100
0001
0100
0010
1000
0010
1000
0001
0100
0001
0100
0010
0000
0000
0000
,  // measure 41
1001
0000
0000
1001
0000
1000
0100
0010
,  // measure 42
MMMM
0110
MMMM
0110
MMMM
0100
1000
0100
,  // measure 43
1000
0000
0000
0010
0000
0100
1000
0100
,  // measure 44
0010
1000
0010
1000
0100
0000
0010
0001
,  // measure 45
0000
MMMM
1001
MMMM
0100
0010
0100
MMMM
,  // measure 46
0110
MMMM
0110
0100
0000
0001
0010
MMMM
,  // measure 47
1001
MMMM
1001
1000
0000
0100
0010
0100
,  // measure 48
0010
0001
0000
0100
0000
0010
1000
0100
,  // measure 49
0110
0000
0000
0110
0000
0100
1000
0001
,  // measure 50
MMMM
1001
MMMM
1001
MMMM
1000
0100
1000
,  // measure 51
0100
0000
0000
0010
0000
0001
0100
0001
,  // measure 52
1000
0100
1000
0100
1000
0000
0001
0010
,  // measure 53
0000
MMMM
0110
MMMM
1000
0001
1000
MMMM
,  // measure 54
1001
MMMM
1001
1000
0000
0010
1000
MMMM
,  // measure 55
0110
MMMM
0110
0010
0000
1000
0001
1000
,  // measure 56
0010
1000
0000
0100
0000
0000
0000
0000
,  // measure 57
0010
0001
0100
0010
1000
0100
0010
0001
,  // measure 58
0010
0001
0100
0010
1000
0100
0010
0001
,  // measure 59
0100
0001
0010
0100
1000
0010
0100
0001
,  // measure 60
0100
0001
0010
0100
1000
0010
0100
0001
,  // measure 61
0100
0001
0010
0100
1000
0010
0100
0001
,  // measure 62
0100
0001
0010
0100
1000
0010
0100
0001
,  // measure 63
0010
0001
0100
0010
1000
0100
0010
0001
,  // measure 64
0010
0001
0100
0010
1000
0100
0010
0001
,  // measure 65
1000
0100
0010
0100
1000
0100
0010
0001
,  // measure 66
0100
0001
0100
0010
0100
0001
0010
0100
,  // measure 67
1001
MMMM
1001
MMMM
1001
1001
1001
0000
,  // measure 68
0110
0000
0000
0000
,  // measure 69
1001
1001
0000
0000
0000
0000
0000
0000
,  // measure 70
0011
0011
0000
1100
0000
0000
0000
0000
,  // measure 71
0001
1000
0001
1000
0001
0000
0100
0010
,  // measure 72
0000
MMMM
1001
MMMM
0100
0010
0100
MMMM
,  // measure 73
0110
MMMM
0110
0100
0000
0001
0010
MMMM
,  // measure 74
1001
MMMM
1001
1000
0000
0100
0010
0100
,  // measure 75
0010
0001
0000
0100
0000
0010
1000
0100
,  // measure 76
0110
0000
0000
0110
0000
0100
1000
0001
,  // measure 77
MMMM
1001
MMMM
1001
MMMM
1000
0100
1000
,  // measure 78
0100
0000
0000
0010
0000
0001
0100
0001
,  // measure 79
1000
0100
1000
0100
1000
0000
0001
0010
,  // measure 80
0000
MMMM
0110
MMMM
1000
0001
1000
MMMM
,  // measure 81
1001
MMMM
1001
1000
0000
0010
1000
MMMM
,  // measure 82
0110
MMMM
0110
0010
0000
1000
0001
1000
,  // measure 83
0010
1000
0000
0100
0000
0000
0000
0000
,  // measure 84
MMMM
1010
MMMM
0011
MMMM
0101
MMMM
1100
,  // measure 85
MMMM
1010
MMMM
1100
MMMM
0101
MMMM
0011
,  // measure 86
MMMM
1010
MMMM
0011
MMMM
0101
MMMM
1100
,  // measure 87
MMMM
1010
MMMM
1001
MMMM
0110
0110
0110
,  // measure 88
MMMM
0011
MMMM
1010
MMMM
0101
MMMM
1100
,  // measure 89
MMMM
0011
MMMM
1010
MMMM
0101
MMMM
1100
,  // measure 90
0000
0010
1000
0000
0100
0010
0001
0000
,  // measure 91
1010
0000
0000
1001
0000
0000
1100
0000
0000
1001
0000
0000
1010
0000
1001
0000
,  // measure 92
0011
0000
0000
1001
0000
0000
0101
0000
0000
1001
0000
0000
0011
0000
1001
0000
,  // measure 93
0100
1000
0100
0010
0001
1000
0001
1000
,  // measure 94
0000
0020
0200
0000
0000
0000
0000
0000
,  // measure 95
0330
0000
0000
0000
;
