#TITLE:L.O.V.E. (Sex On The Beach);
#SUBTITLE:(B4 ZA BEAT Euro Mix);
#ARTIST:E-Rotic;
#TITLETRANSLIT:;
#SUBTITLETRANSLIT:;
#ARTISTTRANSLIT:;
#GENRE:Eurobeat;
#CREDIT:tikal.;
#MUSIC:[Be Mine] - L.O.V.E. (Sex On The Beach) (B4 ZA BEAT euro mix).ogg;
#BANNER:[Be Mine] - L.O.V.E. (Sex On The Beach) (B4 ZA BEAT euro mix).png;
#BACKGROUND:[Be Mine] - L.O.V.E. (Sex On The Beach) (B4 ZA BEAT euro mix)-bg.png;
#CDTITLE:cdtitle.png;
#SAMPLESTART:30.983;
#SAMPLELENGTH:12.387;
#SELECTABLE:YES;
#OFFSET:-0.015;
#BPMS:0.000=155.000
,152.000=160.000
,153.000=155.000
;
#STOPS:;
#BGCHANGES:;
#FGCHANGES:;

//--------------- dance-single - tikal. ----------------
#NOTES:
     dance-single:
     tikal.:
     Hard:
     8:
     0,0,0,0,0:
0000
0000
0000
0000
,
0000
0000
0000
0000
,
1000
0000
1100
0000
0000
0101
0000
0000
1010
0000
0000
0101
0000
0000
1100
0000
,
0001
0000
0101
0000
0000
1100
0000
0000
0011
0000
0000
1100
0000
0000
0101
0000
,
1000
0000
1010
0000
0000
0110
0000
0000
0101
0000
0000
0110
0000
0000
1010
0000
,
0001
0000
0011
0000
0000
0110
0000
0100
1000
0001
0000
0001
0000
0000
1000
0001
,
1000
0000
1010
0000
0000
0011
0000
0000
1100
0000
0000
0011
0000
0000
1010
0000
,
0001
0000
0011
0000
0000
1010
0000
0000
0101
0000
0000
1010
0000
0000
0011
0000
,
1000
0000
1100
0000
0000
0110
0000
0000
0011
0000
0000
0110
0000
0000
1100
0000
,
0001
0000
0101
0000
0000
0110
0000
0010
1000
0001
0000
0001
0000
0000
1000
0001
,
1000
0001
0001
0001
,
1000
0100
0010
0100
1000
0100
0010
0100
,
1000
0001
0100
0001
1000
0001
0100
0001
,
0010
0100
0010
0001
0010
0100
0010
0001
,
1000
0010
0100
0001
1000
0100
0010
0001
,
0001
0100
0010
0100
0001
0100
0010
0100
,
0001
1000
0100
1000
0001
1000
0100
1000
,
0010
0100
0010
1000
0010
0100
0010
1000
,
1010
1001
0011
1001
,
0110
0101
1001
1100
,
1001
0000
1000
0100
0001
1000
0010
0002
,
1000
0003
0001
0100
0010
0100
0010
2000
,
0000
3001
1000
0001
0010
0100
0010
0002
,
0000
1003
0100
0010
0011
0000
1000
1010
,
0000
1000
0001
0100
1000
0001
0010
2000
,
0001
3000
1000
0100
0010
0100
0010
0002
,
0000
1003
0001
1000
0010
0100
0010
2000
,
0000
3001
0011
0000
1001
0000
1010
0000
,
1001
0000
1000
0010
0001
1000
0100
0002
,
1000
0003
0001
0010
0100
0010
0100
2000
,
0000
3001
1000
0001
0100
0010
0100
0002
,
0000
1003
0010
0100
0101
0000
1000
1100
,
0000
1000
0001
0010
1000
0001
0100
2000
,
0001
3000
1000
0010
0100
0010
0100
0002
,
0000
1003
0001
1000
0100
0010
0100
2000
,
0000
3001
0000
1001
0000
1000
0200
0000
,
0000
0020
0000
0000
0000
0000
0330
0000
,
0001
0000
0101
0000
0000
1100
0000
0000
0011
0000
0000
1100
0000
0000
0101
0000
,
1000
0000
1100
0000
0000
0101
0000
0000
1010
0000
0000
0101
0000
0000
1100
0000
,
0001
0000
0011
0000
0000
0110
0000
0000
1100
0000
0000
0110
0000
0000
0011
0000
,
1000
0000
1010
0000
0000
0110
0000
0100
0001
1000
0000
1000
0000
0000
0001
1000
,
0001
0000
0011
0000
0000
1010
0000
0000
0101
0000
0000
1010
0000
0000
0011
0000
,
1000
0000
1010
0000
0000
0011
0000
0000
1100
0000
0000
0011
0000
0000
1010
0000
,
0001
0000
0101
0000
0000
0110
0000
0000
1010
0000
0000
0110
0000
0000
0101
0000
,
1000
0000
1100
0000
0000
0110
0000
0010
0001
1000
0000
1000
0000
0000
0001
1000
;

//--------------- dance-single - tikal. ----------------
#NOTES:
     dance-single:
     tikal.:
     Challenge:
     10:
     0,0,0,0,0:
0000
0000
0000
0000
,
0000
0000
0000
0000
,
1000
0100
0010
0000
0100
1000
0000
0001
1000
0000
0010
1000
0000
0010
0100
0000
,
0001
0100
0010
0000
0100
0001
0000
1000
0001
0000
0010
0001
0000
0010
0100
0000
,
1000
0010
0100
0000
0010
1000
0000
0001
1000
0000
0100
1000
0000
0100
0010
0000
,
0001
0010
0100
0000
0010
0001
0000
1000
0001
0100
0000
0100
0000
0100
0001
1000
,
0001
0100
0010
0000
0100
0001
0000
1000
0001
0000
0010
0001
0000
0010
0100
0000
,
1000
0100
0010
0000
0100
1000
0000
0001
1000
0000
0010
1000
0000
0010
0100
0000
,
0001
0010
0100
0000
0010
0001
0000
1000
0001
0000
0100
0001
0000
0100
0010
0000
,
1000
0010
0100
0000
0010
1000
0000
0001
1000
0100
0000
0100
0000
0100
1000
0001
,
0200
0000
0000
0000
0000
0000
0010
0000
0010
0000
0010
0000
0010
0000
0310
0100
,
0001
0000
1000
0000
0100
0000
0010
0000
0010
0000
0100
1000
0001
0000
0100
0001
,
1000
0000
0010
1000
0001
0000
0010
0001
1000
0000
0001
0100
0000
010M
1000
0000
,
1001
0000
0001
0000
0100
0000
0010
0000
0010
0000
0100
0001
0000
0000
1000
0100
,
1000
0100
0010
0100
0010
0100
0010
0001
0010
0001
1000
0001
1000
0001
0100
0010
,
1000
0001
0010
0100
1000
1000
0001
0100
,
0001
0000
0010
0000
1000
0000
0010
0000
0100
0000
1000
0010
0000
M010
0001
0000
,
1001
1000
0010
0100
0001
1000
0001
0010
,
0011
0000
0000
0000
1001
0000
0000
0000
1010
0000
0000
0000
1001
0000
1000
0001
,
1000
0000
0000
0000
1100
0000
0000
0000
1001
0000
0000
0000
0101
0000
0001
1000
,
0001
0010
0001
0000
1000
0010
1000
0000
0001
0100
0020
0000
0000
0000
1030
0000
,
0001
0100
0001
0000
1000
0100
1000
0000
0001
0010
0200
0000
0000
0000
1300
0000
,
0001
0100
0001
0000
1000
0100
1000
0000
0001
0000
0011
0000
0000
0000
1010
0000
,
0000
1001
0000
0101
1100
0000
1001
0001
,
1000
0010
1000
0000
0001
0010
0001
0000
1000
0100
0020
0000
0000
0000
0031
0000
,
1000
0100
1000
0000
0001
0100
0001
0000
1000
0010
0200
0000
0000
0000
0301
0000
,
1000
0100
1000
0000
0001
0100
0001
0000
1000
0000
1010
0000
0000
0000
0011
0000
,
0000
0000
1000
0000
0001
0000
1000
0100
0000
0100
1000
0000
0001
0000
0001
0000
,
1000
0010
1000
0000
0001
0010
0001
0000
1000
0100
0020
0000
0000
0000
0031
0000
,
1000
0100
1000
0000
0001
0100
0001
0000
1000
0010
0200
0000
0000
0000
0301
0000
,
1000
0100
1000
0000
0001
0100
0001
0000
1000
0000
1010
0000
0000
0000
0011
0000
,
0000
1001
0000
1100
0101
0000
1001
1000
,
0001
0010
0001
0000
1000
0010
1000
0000
0001
0100
0020
0000
0000
0000
1030
0000
,
0001
0100
0001
0000
1000
0100
1000
0000
0001
0010
0200
0000
0000
0000
1300
0000
,
0001
0100
0001
0000
1000
0100
1000
0000
0001
0000
0011
0000
0000
0000
1010
0000
,
0000
0000
0001
0000
1000
0000
0001
0100
0000
0100
0001
0000
1000
0000
1000
0000
,
1000
0000
0000
0010
0100
0000
0001
0000
1000
0100
0010
0001
1000
0000
1000
0000
,
0001
0010
0100
0000
0010
0001
0000
1000
0001
0000
0100
0001
0000
0100
0010
0000
,
1000
0010
0100
0000
0010
1000
0000
0001
1000
0000
0100
1000
0000
0100
0010
0000
,
0001
0100
0010
0000
0100
0001
0000
1000
0001
0000
0010
0001
0000
0010
0100
0000
,
1000
0100
0010
0000
0100
1000
0000
0001
1000
0010
0000
0010
0000
0010
1000
0001
,
1000
0010
0100
0000
0010
1000
0000
0001
1000
0000
0100
1000
0000
0100
0010
0000
,
0001
0010
0100
0000
0010
0001
0000
1000
0001
0000
0100
0001
0000
0100
0010
0000
,
1000
0100
0010
0000
0100
1000
0000
0001
1000
0000
0010
1000
0000
0010
0100
0000
,
0001
0100
0010
0000
0100
0001
0000
1000
0001
0010
0000
0010
0000
0010
0001
1000
;
