#VERSION:0.82;
#TITLE:Kiss Me;
#SUBTITLE:;
#ARTIST:ヒゲドライVAN;
#TITLETRANSLIT:;
#SUBTITLETRANSLIT:;
#ARTISTTRANSLIT:Hige DriVAN;
#GENRE:;
#ORIGIN:;
#CREDIT:;
#BANNER:[Be Mine] - Kiss Me.png;
#BACKGROUND:[Be Mine] - Kiss Me-bg.png;
#PREVIEWVID:;
#JACKET:[Be Mine] - Kiss Me-jacket.png;
#CDIMAGE:;
#DISCIMAGE:;
#LYRICSPATH:;
#CDTITLE:;
#MUSIC:[Be Mine] - Kiss Me.ogg;
#OFFSET:-0.033000;
#SAMPLESTART:76.333046;
#SAMPLELENGTH:15.000000;
#SELECTABLE:YES;
#BPMS:0.000=195.000;
#STOPS:;
#DELAYS:;
#WARPS:;
#TIMESIGNATURES:0.000=4=4;
#TICKCOUNTS:0.000=4;
#COMBOS:0.000=1;
#SPEEDS:0.000=1.000=0.000=0;
#SCROLLS:0.000=1.000;
#FAKES:;
#LABELS:0.000=Song Start;
#BGCHANGES:14.500=[Be Mine] - Kiss Me.avi=1.000=1=0=0=StretchNoLoop==CrossFade==,
400.500=[Be Mine] - Kiss Me-bg.png=1.000=0=0=1=====,
99999=-nosongbg-=1.000=0=0=0 // don't automatically add -songbackground-
;
#KEYSOUNDS:;
#ATTACKS:
;

//---------------dance-single - ----------------
#NOTEDATA:;
#CHARTNAME:;
#STEPSTYPE:dance-single;
#DESCRIPTION:;
#CHARTSTYLE:;
#DIFFICULTY:Hard;
#METER:8;
#RADARVALUES:0.538925,0.621531,0.154610,0.425177,0.003865,413.000000,20.000000,55.000000,0.000000,0.000000,0.000000,0.000000,0.000000,0.538925,0.621531,0.154610,0.425177,0.003865,413.000000,20.000000,55.000000,0.000000,0.000000,0.000000,0.000000,0.000000;
#CREDIT:;
#NOTES:
0000
0000
0000
0000
,
0000
0000
0000
0000
,
0000
0000
0000
0000
,
0000
0000
0000
0000
,
0000
0000
0000
0000
,
0000
0000
0000
0000
,
0000
0000
0000
0000
,
0000
0000
0000
0000
,
0000
0000
0000
0000
,
0000
0000
0000
0000
,
1000
0001
1000
0100
0000
0010
0001
0010
,
0000
0100
1000
0100
0000
1000
0001
0010
,
0001
1000
0001
0100
0000
0010
1000
0010
,
0000
0100
0001
0100
0000
0010
1000
0001
,
0100
0001
1000
0100
0000
1000
0001
0100
,
0000
0001
1000
0010
0000
1000
0001
0010
,
0100
0000
0110
0000
0100
1000
0001
0010
,
0000
0010
0001
0200
0000
0301
0000
0100
,
0001
1000
0001
0100
0000
0010
1000
0010
,
0000
0100
0001
0100
0000
0001
1000
0010
,
1000
0001
1000
0100
0000
0010
0001
0010
,
0000
0100
1000
0100
0000
0010
0001
1000
,
0100
1000
0010
0100
0000
0010
1000
0001
,
0100
0010
1000
0100
0000
0010
0001
1000
,
0100
0010
0100
0010
0000
0001
1000
0001
,
0000
0100
0010
0100
0000
0001
0100
0001
,
1000
0000
0000
1000
0000
0000
1000
0000
0002
0000
0000
0000
0000
0000
0000
0000
,
0100
0000
0000
0100
0000
1000
0000
0010
,
0000
1000
2003
0000
,
0000
0000
0010
0010
0000
0000
0000
0000
,
0000
0000
3200
0000
,
1000
0000
0000
0010
0000
0001
0000
0010
,
0000
1000
0320
0000
,
0000
0000
0000
0000
,
0030
0000
2000
0000
,
0010
0000
0000
0010
0000
0001
0000
0100
,
0000
0001
3020
0000
,
0000
0000
1000
1000
0000
0000
0000
0000
,
0000
0000
0230
0000
,
0001
0000
0000
0010
0000
0002
0000
0003
,
0000
0300
2002
0000
,
0003
0000
3200
0020
0000
0000
0000
0000
,
0000
0330
0100
1001
,
0001
0100
0010
0100
0001
0000
1001
0000
,
1000
0010
0100
0010
2000
0000
0100
0000
,
0001
0100
3002
0010
,
1000
0010
1003
1100
,
0100
1000
0000
0001
0000
1000
0000
0010
,
0000
0010
0100
0000
0001
0000
0101
0000
,
0001
0000
0100
0010
0000
1000
0000
0100
,
0000
0100
0010
0000
0002
0000
0013
0000
,
2000
3010
0002
0103
,
2000
0000
3200
0000
0320
0000
0000
0030
,
0010
0001
1000
0020
0000
0000
0030
0000
,
0100
0101
2020
0030
,
3001
0100
0001
0010
0000
1100
0000
0011
,
0000
1000
0220
0000
,
0330
0002
0000
2000
0000
0000
3003
0000
,
0110
0000
1001
0000
0001
0000
1000
0100
,
0000
1000
0000
0010
0000
0101
0000
1100
,
0000
0100
1000
0001
1000
0000
1000
0010
,
0000
1010
0000
0012
0000
1003
0100
1000
,
0001
1000
0010
0100
0020
0000
1030
0000
,
0001
0100
0010
2000
0000
0001
3001
0000
,
1000
0100
0000
0020
0000
0000
0130
0000
,
1000
0100
0010
0002
0000
1000
1003
0000
,
0010
1000
0000
0200
0000
0000
1300
0000
,
0001
1000
0010
0200
0000
0310
0010
0000
,
0100
0001
0000
0020
0000
0000
0130
0000
,
0010
0001
1000
0100
0000
0100
0010
0000
,
0001
1000
0001
0020
0000
0000
0031
0000
,
0010
0001
0000
0200
0000
0010
0310
0000
,
0001
1000
0000
0020
0000
0000
1030
0000
,
0001
1000
0000
0200
0000
0010
0310
0000
,
0100
1000
0001
0020
0000
0000
0032
0000
,
0103
0001
1000
0020
0000
0100
0130
0000
,
0010
1000
0000
2001
0000
0000
3100
0000
,
0100
0010
0000
1002
0000
0100
0103
0000
,
0002
0000
2000
0000
,
0000
0003
0100
0100
,
0100
0000
3001
0000
0001
0100
0001
2000
,
0000
3010
1000
0200
0000
0310
0001
0200
,
0000
0301
0000
0001
1000
0100
1000
0002
,
0000
0013
0001
0200
0000
0310
1000
0200
,
0000
1300
0000
1000
0001
0010
0100
0000
,
0010
0100
1000
0000
1000
0010
0100
0000
,
0010
0100
0001
0000
0001
0100
1000
0000
,
1000
0100
0001
0000
0001
0010
1000
0010
,
0200
0000
0310
1001
,
1000
0001
0100
0000
0001
1000
0010
0000
,
0010
1000
0100
0000
1000
0001
0010
0000
,
0010
0001
0100
0000
0100
0001
1000
0010
,
1000
0001
0100
0000
0001
1000
0100
0010
,
0100
1000
0001
0010
0001
0100
0010
1000
,
0010
0100
0001
1000
0100
0010
0100
1000
,
0001
0010
0001
0100
0010
1000
0010
0100
,
0001
0010
0100
1000
0020
0000
0000
0000
,
0000
0000
0000
0000
,
0000
0000
0000
0000
,
0000
0000
0000
0000
,
0000
0000
0030
0000
;

//---------------dance-single - ----------------
#NOTEDATA:;
#CHARTNAME:;
#STEPSTYPE:dance-single;
#DESCRIPTION:;
#CHARTSTYLE:;
#DIFFICULTY:Challenge;
#METER:9;
#RADARVALUES:0.561012,0.621531,0.347872,0.487021,0.019326,400.000000,45.000000,63.000000,101.000000,0.000000,0.000000,0.000000,0.000000,0.561012,0.621531,0.347872,0.487021,0.019326,400.000000,45.000000,63.000000,101.000000,0.000000,0.000000,0.000000,0.000000;
#CREDIT:;
#NOTES:
0000
0000
0000
0000
,
0000
0000
0000
0000
,
0000
0000
0000
0000
,
0000
0000
0000
0000
,
0000
0000
0000
0000
,
0000
0000
0000
0000
,
0000
0000
0000
0000
,
0000
0000
0000
0000
,
0000
0000
0000
0000
,
0000
0000
0000
MMMM
,
0001
1000
0001
0100
0000
0010
1000
0010
,
0000
0100
0001
0100
0000
0001
1000
0010
,
0100
0001
1000
0100
0000
0010
0001
0010
,
0000
0100
1000
0100
0000
0010
0001
1000
,
0010
1000
0001
0100
0000
0001
0100
0010
,
0000
0010
1000
0100
0000
0100
1000
0001
,
0010
0000
0110
0000
0010
0001
0100
0010
,
MMMM
1010
MMMM
0101
,
1000
0001
1000
0100
0000
0010
0001
0010
,
0000
0100
1000
0100
0000
1000
0001
0010
,
0100
1000
0001
0100
0000
0010
1000
0010
,
0000
0100
0001
0100
0000
0010
1000
0001
,
0010
0001
1000
0100
0000
0010
0001
1000
,
0100
1000
0010
0100
0000
0010
1000
0001
,
MMMM
0101
MMMM
0011
,
MMMM
1010
MMMM
2100
,
3001
0000
0000
0011
0000
0000
0110
0000
2000
0000
0000
0000
0000
0000
0000
0000
,
0001
0000
0000
0010
0000
0100
0000
0010
,
0000
3001
0002
0000
,
0000
0000
1000
0100
0000
0000
0000
0000
,
0000
0000
0203
0000
,
0010
0000
0000
0001
0000
1000
0000
0001
,
0000
1000
0320
0000
,
0000
0000
0000
0000
,
0030
0000
0002
0000
,
1000
0000
0000
0100
0000
0010
0000
0100
,
0000
1000
0023
0000
,
0000
0000
0100
0001
0000
0000
0000
0000
,
0000
0000
0230
0000
,
1000
0000
0000
0001
0000
0020
0000
0030
,
0000
0300
2002
0000
,
0003
0000
3020
0200
0000
0000
0000
0000
,
0000
0330
MMMM
0000
0001
0100
0010
0100
,
0001
0010
0100
0010
0001
0100
0010
1000
,
0010
0100
0001
0000
2000
0000
0100
0000
,
3010
0000
1000
0002
0000
0100
0100
0000
,
0010
0100
1003
1100
,
0100
0010
0000
0011
0000
1001
0000
0101
,
0000
0001
1000
0000
0001
0000
0101
0000
,
1000
0000
0010
1010
0000
0110
0000
0101
,
0000
1000
0100
0000
2000
0000
3100
0000
,
0002
0013
2000
3010
,
0002
0203
0320
0030
,
MMMM
0000
1000
0002
0000
0000
2003
0000
,
3200
0001
2300
0000
,
3001
0100
0010
1000
0000
0101
0000
1010
,
0000
0001
0220
0000
,
0330
2000
0000
0002
0000
0000
3003
0000
,
0110
0000
1001
0000
M1M1
0000
0100
M11M
,
0000
0010
0000
1M1M
0000
11MM
0000
1M1M
,
0000
0010
0100
0000
M11M
0000
0001
MM11
,
0000
M1M1
0000
MM12
0000
0103
0010
0100
,
0010
0000
0100
0000
0001
1000
0001
1000
0002
0000
0000
0000
0103
0000
0000
0000
,
0001
0100
0000
2020
0000
3000
MM3M
0000
,
1000
0001
0000
2200
0000
0300
3MMM
0000
,
0001
0100
0000
0022
0000
0030
MMM3
0000
,
0010
0001
0000
0202
0000
0003
M3MM
0000
,
0010
1000
0000
2020
0000
0030
3MMM
0000
,
0001
1000
0000
0220
0000
0300
MM3M
0000
,
0100
0010
0000
2002
0000
3003
MMMM
0000
,
0001
0000
1000
0000
0010
0100
0010
0100
0020
0000
0000
0000
1030
0000
0000
0000
,
0001
0100
0000
2010
0000
3010
MM1M
0000
,
1000
0001
0010
0200
0000
0000
0310
0000
,
0100
1000
0000
0021
0000
0130
M1MM
0000
,
0100
1000
0001
0020
0000
0000
0031
0000
,
0001
0100
0010
0120
0000
1030
1MMM
0000
,
0010
1000
0000
1000
0001
0100
0001
0100
,
0010
1000
0100
0020
0000
0000
0030
0000
,
0001
0100
0010
2000
0000
0000
0000
0000
,
0000
0000
0001
0002
0000
0000
0000
0000
,
0000
3003
MMMM
0000
0001
1000
0010
0200
,
0000
0301
1000
0020
0000
0130
0001
2000
,
0000
3010
0100
0010
1000
0001
0010
0200
,
0000
1300
0001
0020
0000
0130
1000
0002
,
0000
0013
0100
0010
0001
0010
0100
1000
,
MMMM
1000
0010
0100
0010
1000
0001
0100
,
MMMM
0100
0001
1000
1001
0000
0110
0000
,
1000
0100
0010
0001
0000
0001
1000
0010
,
0200
0310
MMMM
1001
,
0001
1000
0100
0010
0000
0010
0100
1000
,
0001
0100
0010
0200
0000
0301
1000
0000
,
1000
0001
0100
0010
0000
0010
0100
0001
,
1000
0001
0010
0000
0001
0010
1000
0010
,
0100
1000
0001
0100
1000
0100
0010
1000
,
0010
0001
0010
0100
0001
0010
0100
1000
,
0100
0001
0100
0010
0001
1000
0010
0100
,
0001
0010
0100
1000
0020
0000
0000
0000
,
0000
0000
0000
0000
,
0000
0000
0000
0000
,
0000
0000
0000
0000
,
0000
0000
0030
0000
;

//---------------dance-single - ----------------
#NOTEDATA:;
#CHARTNAME:;
#STEPSTYPE:dance-single;
#DESCRIPTION:;
#CHARTSTYLE:;
#DIFFICULTY:Beginner;
#METER:1;
#RADARVALUES:0.086140,0.111899,0.023191,0.000000,0.000000,75.000000,3.000000,0.000000,0.000000,0.000000,0.000000,0.000000,0.000000,0.086140,0.111899,0.023191,0.000000,0.000000,75.000000,3.000000,0.000000,0.000000,0.000000,0.000000,0.000000,0.000000;
#CREDIT:;
#NOTES:
0000
0000
0000
0000
,
0000
0000
0000
0000
,
0000
0000
0000
0000
,
0000
0000
0000
0000
,
0000
0000
0000
0000
,
0000
0000
0000
0000
,
0000
0000
0000
0000
,
0000
0000
0000
0000
,
0000
0000
0000
0000
,
0000
0000
0000
0000
,
1000
0000
0000
0000
,
0000
0000
0000
0000
,
0100
0000
0000
0000
,
0000
0000
0000
0000
,
0010
0000
0000
0000
,
0000
0000
0000
0000
,
0001
0000
0000
0000
,
0000
0000
0000
0000
,
1000
0000
0000
0000
,
0000
0000
0000
0000
,
0010
0000
0000
0000
,
0000
0000
0000
0000
,
0100
0000
0000
0000
,
0000
0000
0000
0000
,
0001
0000
0000
0000
,
0000
0000
0000
0000
,
0000
0000
1000
0000
,
0000
0000
1000
0000
,
0000
0000
0100
0000
,
0000
0000
0000
0000
,
0000
0000
0001
0000
,
0000
0000
0001
0000
,
0000
0000
0100
0000
,
0000
0000
0000
0000
,
0000
0000
1000
0000
,
0000
0000
1000
0000
,
0000
0000
0010
0000
,
0000
0000
0000
0000
,
0000
0000
0001
0000
,
0000
0000
0001
0000
,
0000
0000
0010
0000
,
0000
0000
0100
0000
,
0000
0000
1000
0000
,
0000
0000
1000
0000
,
0000
0000
0001
0000
,
0000
0000
0001
0000
,
0000
0000
1000
0000
,
0000
0000
0100
0000
,
0000
0000
0001
0000
,
0000
0000
0100
0000
,
0000
0000
1000
0000
,
0000
0000
0100
0000
,
0000
0000
0001
0000
,
0000
0000
0010
0000
,
0000
0000
0001
0000
,
0000
0000
0100
0000
,
0000
0000
1000
0000
,
0000
0000
0010
0000
,
0000
0000
1001
0000
,
0000
0000
0000
0000
,
0000
0000
1001
0000
,
0000
0000
0000
0000
,
0000
0000
1000
0000
,
0000
0000
0100
0000
,
0000
0000
1000
0000
,
0000
0000
0001
0000
,
0000
0000
1000
0000
,
0000
0000
0010
0000
,
0000
0000
0100
0000
,
0000
0000
0001
0000
,
0000
0000
0001
0000
,
0000
0000
0100
0000
,
0000
0000
0001
0000
,
0000
0000
1000
0000
,
0000
0000
0001
0000
,
0000
0000
0010
0000
,
0000
0000
0100
0000
,
0000
0000
1000
0000
,
0000
0000
0110
0000
,
0000
0000
0000
0000
,
0000
0000
0001
0000
,
0000
0000
0001
0000
,
0000
0000
0100
0000
,
0000
0000
0100
0000
,
0000
0000
0010
0000
,
0000
0000
0010
0000
,
0000
0000
1000
0000
,
0000
0000
1000
0000
,
0001
0000
0000
1000
,
0000
0000
1000
0000
,
0000
0000
0100
0000
,
0000
0000
0100
0000
,
0000
0000
0010
0000
,
0000
0000
0010
0000
,
0000
0000
0001
0000
,
0000
0000
1000
0000
,
0001
0000
0010
0000
;

//---------------dance-single - ----------------
#NOTEDATA:;
#CHARTNAME:;
#STEPSTYPE:dance-single;
#DESCRIPTION:;
#CHARTSTYLE:;
#DIFFICULTY:Easy;
#METER:3;
#RADARVALUES:0.198784,0.261097,0.023191,0.131418,0.000000,160.000000,3.000000,17.000000,0.000000,0.000000,0.000000,0.000000,0.000000,0.198784,0.261097,0.023191,0.131418,0.000000,160.000000,3.000000,17.000000,0.000000,0.000000,0.000000,0.000000,0.000000;
#CREDIT:;
#NOTES:
0000
0000
0000
0000
,
0000
0000
0000
0000
,
0000
0000
0000
0000
,
0000
0000
0000
0000
,
0000
0000
0000
0000
,
0000
0000
0000
0000
,
0000
0000
0000
0000
,
0000
0000
0000
0000
,
0000
0000
0000
0000
,
0000
0000
0000
0000
,
0000
1000
0000
1000
,
0000
0001
0000
0001
,
0000
1000
0000
1000
,
0000
0001
0000
0001
,
0000
1000
0000
1000
,
0000
0100
0000
0100
,
0000
0010
0000
0010
,
0000
0001
0000
1000
,
0000
0001
0000
0001
,
0000
1000
0000
1000
,
0000
0001
0000
0001
,
0000
1000
0000
1000
,
0000
0001
0000
0001
,
0000
0100
0000
0100
,
0000
0010
0000
0010
,
0000
1000
0000
0100
,
0020
0030
0000
0000
,
0002
0000
0003
0000
,
1000
0000
2000
0000
,
0000
3000
0000
0000
,
0100
0000
0100
0000
,
1000
0000
0001
0000
,
0100
0000
0020
0000
,
0000
0030
0000
0000
,
0100
0000
0001
0000
,
0100
0000
0100
0000
,
0010
0000
2000
0000
,
0000
3002
0000
0000
,
0003
0000
0010
0000
,
0100
0000
1000
0000
,
0001
0000
0020
0000
,
0000
0230
0000
0000
,
0000
0300
1000
0000
,
1000
0000
0001
0000
,
0010
0000
0200
0000
,
0300
0200
0000
0000
,
0300
0000
0010
0000
,
0001
0000
0100
0000
,
0100
0000
0001
0000
,
0010
0000
0100
0000
,
2000
3000
1000
0000
,
0010
0000
0001
0000
,
0010
0000
0200
0000
,
0300
0020
0000
0000
,
0030
0010
0000
0001
,
0000
0100
0000
1000
,
0000
0100
2000
0000
,
0000
0000
3000
0000
,
1001
0000
0000
0000
0110
0000
0000
0001
,
0000
0000
0000
1000
0000
0000
0000
0001
,
0000
0000
0000
0000
0110
0000
0000
1000
,
0000
0000
0000
0002
0000
0000
0000
0000
,
0003
0000
0000
1000
,
0000
0001
0000
1000
,
0100
1000
0000
0001
,
0000
1000
0000
0001
,
0100
0010
0000
1000
,
0000
0100
0000
0010
,
0001
0010
0000
0001
,
0000
0100
0000
0010
,
0020
0030
0000
1000
,
0000
0001
0000
0010
,
0100
0010
0000
0001
,
0000
1000
0000
0010
,
0100
0010
0000
1000
,
0000
0100
0000
0001
,
0000
0100
0000
1000
,
0000
0010
0000
0001
,
0000
0010
0020
0000
,
0000
0000
0030
0000
,
0000
0000
0000
1000
,
0000
1000
0000
0001
,
0000
0001
0000
1000
,
0000
1000
0000
0001
,
0000
0001
0000
1000
,
0000
1000
0000
0010
,
0000
0010
0000
0100
,
0000
0100
0000
0001
,
0000
1000
0000
0001
,
0000
0001
0000
1000
,
0000
1000
0000
0001
,
0000
0001
0000
1000
,
0000
1000
0000
0001
,
0000
0001
0000
0010
,
0000
0010
0000
0100
,
0000
0100
0000
1000
,
0000
1000
0010
0000
;

//---------------dance-single - ----------------
#NOTEDATA:;
#CHARTNAME:;
#STEPSTYPE:dance-single;
#DESCRIPTION:;
#CHARTSTYLE:;
#DIFFICULTY:Medium;
#METER:5;
#RADARVALUES:0.389837,0.466148,0.038652,0.363333,0.000000,301.000000,5.000000,47.000000,0.000000,0.000000,0.000000,0.000000,0.000000,0.389837,0.466148,0.038652,0.363333,0.000000,301.000000,5.000000,47.000000,0.000000,0.000000,0.000000,0.000000,0.000000;
#CREDIT:;
#NOTES:
// measure 0
0000
0000
0000
0000
,  // measure 1
0000
0000
0000
0000
,  // measure 2
0000
0000
0000
0000
,  // measure 3
0000
0000
0000
0000
,  // measure 4
0000
0000
0000
0000
,  // measure 5
0000
0000
0000
0000
,  // measure 6
0000
0000
0000
0000
,  // measure 7
0000
0000
0000
0000
,  // measure 8
0000
0000
0000
0000
,  // measure 9
0000
0000
0000
0000
,  // measure 10
1000
1000
0100
1000
,  // measure 11
0001
0001
0010
0001
,  // measure 12
1000
1000
0010
1000
,  // measure 13
0001
0001
0100
0001
,  // measure 14
1000
1000
0100
0010
,  // measure 15
0001
0001
0100
0010
,  // measure 16
1000
1000
0010
0100
,  // measure 17
0001
0001
0010
0100
,  // measure 18
1000
0010
0100
0100
,  // measure 19
0001
0010
0100
0100
,  // measure 20
1000
0100
0010
0010
,  // measure 21
0001
0100
0010
0010
,  // measure 22
2000
3000
1000
1000
,  // measure 23
0200
0300
0100
0100
,  // measure 24
0020
0030
0010
0010
,  // measure 25
0001
0010
0100
1000
,  // measure 26
2002
3003
0002
0000
,  // measure 27
1000
0000
2003
0000
,  // measure 28
0001
0000
3020
0000
,  // measure 29
0000
0230
0000
0000
,  // measure 30
0000
0300
0002
0000
,  // measure 31
0010
0000
0023
0000
,  // measure 32
0100
0000
0230
0000
,  // measure 33
0000
0000
0300
0000
,  // measure 34
0000
0000
2000
0000
,  // measure 35
0001
0000
3002
0000
,  // measure 36
0100
0000
0023
0000
,  // measure 37
0000
0230
0000
0000
,  // measure 38
0000
0000
0300
0000
,  // measure 39
2000
0000
3200
0000
,  // measure 40
1000
0000
0320
0000
,  // measure 41
0000
0032
0000
0000
,  // measure 42
0000
0003
1000
1000
,  // measure 43
0100
0000
1000
0100
,  // measure 44
0010
0100
0020
0000
,  // measure 45
0031
0100
0020
0000
,  // measure 46
0000
0030
0100
0001
,  // measure 47
0100
0000
0001
1000
0000
0010
0000
2000
,  // measure 48
0000
3000
0100
1000
,  // measure 49
0100
0000
1000
0001
0000
0010
0000
0002
,  // measure 50
0000
0013
0001
0100
,  // measure 51
0010
1000
0010
0100
,  // measure 52
0001
1000
0200
0000
,  // measure 53
0300
0000
1000
0020
0000
0000
0000
0000
,  // measure 54
0030
0010
1001
1000
,  // measure 55
0001
0100
0001
1000
,  // measure 56
0100
1000
0001
0001
,  // measure 57
0001
0100
0000
0020
0000
0000
0030
0000
,  // measure 58
0101
0000
1010
0000
1000
0000
0100
0010
,  // measure 59
0000
0010
0000
0100
0000
1000
0000
0001
,  // measure 60
0000
0001
0100
0000
0010
0000
0100
0001
,  // measure 61
0000
1000
0000
0020
0000
0000
0030
0000
,  // measure 62
1000
0001
1000
0001
2000
0000
3100
0000
,  // measure 63
1000
0001
0000
0020
0000
0000
0031
0000
,  // measure 64
0100
0001
0000
2000
0000
0000
3010
0000
,  // measure 65
1000
0001
0000
0200
0000
0000
0310
0000
,  // measure 66
0010
1000
0000
0002
0000
0000
0013
0000
,  // measure 67
0001
1000
0000
0200
0000
0000
0310
0000
,  // measure 68
0100
1000
0000
0020
0000
0000
1030
0000
,  // measure 69
0001
1000
0100
0020
0000
0000
0030
0000
,  // measure 70
0001
1000
0001
1000
0002
0000
0103
0000
,  // measure 71
0001
1000
0000
0020
0000
0000
1030
0000
,  // measure 72
0100
1000
0000
0002
0000
0000
0013
0000
,  // measure 73
0001
1000
0000
0200
0000
0000
0310
0000
,  // measure 74
0010
0001
0000
2000
0000
0000
3010
0000
,  // measure 75
1000
0001
0000
0200
0000
0000
0310
0000
,  // measure 76
0100
0001
0000
0020
0000
0000
0031
0000
,  // measure 77
1000
0010
0100
0002
0000
0000
0003
0000
,  // measure 78
1000
0001
0200
0000
,  // measure 79
0000
0000
0000
0020
0000
0000
0000
0000
,  // measure 80
0000
0330
1000
0010
,  // measure 81
1000
0100
1000
0010
,  // measure 82
0100
0001
0100
0000
0001
0000
0010
0000
,  // measure 83
0001
0100
0001
0010
,  // measure 84
0100
1000
0100
0000
1000
0000
0010
0000
,  // measure 85
0100
0010
1000
0001
,  // measure 86
0010
0001
0010
0000
0001
0000
0010
0000
,  // measure 87
0100
0010
0001
0001
,  // measure 88
1000
0010
1000
0010
0000
0000
1001
0000
,  // measure 89
1000
0010
1000
0001
,  // measure 90
0100
0010
1000
0000
0100
0000
1000
0000
,  // measure 91
0001
0010
0001
1000
,  // measure 92
0100
0010
0001
0000
1000
0000
0010
0000
,  // measure 93
0100
0001
1000
0000
0001
0000
0010
0000
,  // measure 94
0100
1000
0001
0000
0001
0100
0010
0000
,  // measure 95
0100
0010
1000
0000
0010
1000
0001
0000
,  // measure 96
1000
0100
1000
0001
0020
0000
0000
0000
,  // measure 97
0000
0000
0000
0000
,  // measure 98
0000
0000
0000
0000
,  // measure 99
0000
0000
0000
0000
,  // measure 100
0000
0000
0030
0000
;
