#VERSION:0.83;
#TITLE:It's all About You;
#SUBTITLE:;
#ARTIST:Daiki Kasho;
#TITLETRANSLIT:;
#SUBTITLETRANSLIT:;
#ARTISTTRANSLIT:;
#GENRE:;
#ORIGIN:;
#CREDIT:;
#BANNER:It's all About You.png;
#BACKGROUND:It's all About You-bg.png;
#PREVIEWVID:;
#JACKET:It's all About You-jacket.png;
#CDIMAGE:;
#DISCIMAGE:;
#LYRICSPATH:;
#CDTITLE:;
#MUSIC:It's all About You.ogg;
#OFFSET:-0.125000;
#SAMPLESTART:56.158180;
#SAMPLELENGTH:21.333336;
#SELECTABLE:YES;
#BPMS:0.000=90.000;
#STOPS:;
#DELAYS:;
#WARPS:;
#TIMESIGNATURES:0.000=4=4;
#TICKCOUNTS:0.000=4;
#COMBOS:0.000=1;
#SPEEDS:0.000=1.000=0.000=0;
#SCROLLS:0.000=1.000;
#FAKES:;
#LABELS:0.000=Song Start;
#BGCHANGES:;
#KEYSOUNDS:;
#ATTACKS:
;

//---------------dance-single - ----------------
#NOTEDATA:;
#CHARTNAME:;
#STEPSTYPE:dance-single;
#DESCRIPTION:;
#CHARTSTYLE:;
#DIFFICULTY:Challenge;
#METER:8;
#RADARVALUES:0.493738,0.554934,0.184978,0.155771,0.720440,355.000000,336.000000,19.000000,16.000000,15.000000,0.000000,0.000000,0.000000,0.000000,0.493738,0.554934,0.184978,0.155771,0.720440,355.000000,336.000000,19.000000,16.000000,15.000000,0.000000,0.000000,0.000000,0.000000;
#CREDIT:;
#NOTES:
// measure 0
0000
0000
0000
0000
,  // measure 1
0000
0000
0000
0000
,  // measure 2
0000
0000
0000
0000
,  // measure 3
0000
0000
0000
0000
,  // measure 4
1000
0000
0100
0000
0010
0000
0010
0001
0000
0001
0100
0000
0010
0000
0010
1000
,  // measure 5
0000
1000
0100
0000
0010
0100
0000
1100
0000
MMMM
0000
0011
0000
MMMM
0000
1100
,  // measure 6
0000
0100
0010
0000
0110
0000
0010
0011
0000
0001
1000
0000
1001
0000
1000
1010
,  // measure 7
0000
0010
0100
0000
0110
0000
0100
0101
0000
0001
1000
0000
1000
0100
0010
0000
,  // measure 8
0110
0000
0000
0000
0000
0000
0000
0010
0000
0010
0000
0001
0000
0001
0000
1000
,  // measure 9
0000
1000
0001
0000
1000
0000
0000
1000
0000
1000
0000
0010
0000
0010
0000
0100
,  // measure 10
0000
0100
0010
0000
0100
0000
0000
0010
0100
0000
0010
0100
0000
0100
0000
0010
,  // measure 11
0000
0000
0100
0000
0010
0000
0000
0000
1000
0000
0000
0000
0000
0000
1000
0000
0000
0000
0001
0000
1000
0000
0000
0000
0001
0000
0000
0000
0001
0000
0001
0010
,  // measure 12
0001
0010
0100
1000
0001
0100
0010
0100
0000
0100
0000
0001
0000
0001
0000
1000
,  // measure 13
0000
1000
0001
0000
1000
0000
0000
1000
0000
1000
0000
0100
0000
0100
0000
0010
,  // measure 14
0020
0000
0100
0000
0032
0000
0010
0000
2003
0000
0001
0000
3010
0000
0100
0001
,  // measure 15
0000
0010
0100
0000
1000
0000
0100
0010
0000
0001
0100
0000
0010
0000
0010
0000
,  // measure 16
1000
0100
0010
0001
1000
0000
1000
0001
1000
0100
0010
0001
1000
0000
1000
0001
,  // measure 17
1000
0100
0010
0001
1000
0000
1000
0001
1000
0100
0010
0001
0010
0100
1000
0001
,  // measure 18
0000
0001
0100
0010
0100
0001
1000
0001
0000
0001
0010
0100
1000
0001
0100
0010
,  // measure 19
0200
1000
0010
0001
0320
1000
0230
1000
,  // measure 20
0310
0000
0010
1000
0000
1000
0001
0010
0000
0010
0001
1000
0010
0100
0000
0100
,  // measure 21
0010
0000
0010
0000
1000
0100
0010
0001
0000
0100
0000
0001
0000
0010
0000
0200
,  // measure 22
1000
0000
0010
0000
0310
0000
0010
0100
0000
1100
0000
1001
0000
0101
0000
0120
,  // measure 23
0000
0000
0100
0000
0130
0000
0100
0001
0000
1000
0000
0100
0000
0001
0000
0100
,  // measure 24
2000
0000
0001
0000
0010
0000
3001
0010
0000
0001
0010
0100
1000
0001
0100
0010
,  // measure 25
0100
0000
0100
0000
0001
0010
0100
1000
0000
0010
0000
1000
0000
0100
0000
0020
,  // measure 26
0001
0000
0100
0000
0130
0000
0100
0010
0000
0011
0000
1001
0000
1010
0000
0110
,  // measure 27
0200
0000
0010
0000
0302
0000
0100
0000
2003
0000
0001
0000
3100
0000
0100
0010
,  // measure 28
0000
0100
1000
0001
0010
0100
1000
0010
0000
0010
1000
0100
0010
0001
0100
0000
,  // measure 29
0001
0000
0010
0000
0100
0000
0100
1000
0000
1000
0010
0000
0100
0000
0100
0001
,  // measure 30
0000
0001
0010
0000
0100
0010
0000
0011
0000
MMMM
0000
1000
0001
0000
0001
0010
,  // measure 31
0100
0000
1000
0000
0010
0000
1000
0100
0000
M100
0001
0000
0010
0000
0001
0100
,  // measure 32
0000
010M
1000
0000
0010
0000
1000
0100
0000
M100
0001
0000
1000
0100
0010
0000
,  // measure 33
0001
0000
0100
0000
0010
0000
0010
1000
0001
0000
0010
0000
0100
0000
0100
1000
,  // measure 34
0001
0000
0100
0000
0010
0000
0010
1000
0001
0000
0010
0000
0100
0000
0100
1000
,  // measure 35
0001
0000
0100
0000
1000
0000
0100
0001
1000
0000
0100
0000
0001
0000
0100
1000
,  // measure 36
0002
0100
1000
0023
0100
0100
0001
0000
,  // measure 37
0130
0000
0100
0000
1000
0000
1000
0000
0010
0000
0010
0000
1000
1000
0002
0000
,  // measure 38
0003
0000
0000
0000
;
