#TITLE:In My Head;
#SUBTITLE:;
#ARTIST:AlunaGeorge;
#TITLETRANSLIT:;
#SUBTITLETRANSLIT:;
#ARTISTTRANSLIT:;
#GENRE:;
#CREDIT:;
#BANNER:banner.png;
#BACKGROUND:In My Head-bg.png;
#LYRICSPATH:;
#CDTITLE:;
#MUSIC:In My Head.ogg;
#OFFSET:-0.101683;
#SAMPLESTART:66.859917;
#SAMPLELENGTH:12.000000;
#SELECTABLE:YES;
#BPMS:0.000000=115.000000
;
#STOPS:
;
#BGCHANGES:;
#KEYSOUNDS:;
#ATTACKS:;

//---------------dance-single - ----------------
#NOTES:
     dance-single:
     :
     Beginner:
     1:
     0.052435,0.064283,0.000000,0.000000,0.000000,91.000000,91.000000,0.000000,0.000000,0.000000,0.000000,0.052435,0.064283,0.000000,0.000000,0.000000,91.000000,91.000000,0.000000,0.000000,0.000000,0.000000:
0000
0000
0000
0000
,
0000
0000
0000
0000
,
0000
0000
0000
0000
,
0000
0000
0000
0000
,
0000
0000
0000
0000
,
0000
1000
0000
1000
,
0000
0001
0000
0001
,
0000
0100
0000
0010
,
0010
0000
0000
0000
,
0010
0000
0010
0000
,
1000
0000
0000
0000
,
1000
0000
1000
0000
,
0100
0000
0000
0000
,
0100
0000
0100
0000
,
0010
0000
0000
0000
,
0010
0000
0000
0000
,
0001
0000
0001
0000
,
0100
0100
0000
0000
,
0010
0000
0010
0000
,
1000
0000
1000
0000
,
0001
0000
0001
0000
,
0010
0010
0000
0000
,
0100
0000
0100
0000
,
1000
0000
1000
0000
,
0001
0000
0000
0000
,
0100
0000
0000
0000
,
0010
0000
0000
0000
,
1000
0000
0000
0000
,
0001
0000
0000
0000
,
0010
0000
0000
0000
,
0100
0000
0000
0000
,
1000
0000
0000
0000
,
0001
0000
0001
0000
,
0100
0000
0100
0000
,
0010
0000
0010
0000
,
1000
0000
1000
0000
,
0100
0000
0100
0000
,
0010
0000
0010
0000
,
0001
0000
0001
0000
,
1000
0000
1000
0000
,
0010
0000
0010
0000
,
0100
0000
0100
0000
,
0001
0000
1000
0000
,
0001
0000
1000
0000
,
0001
0000
0001
0000
,
0010
0000
0010
0000
,
0100
0000
1000
0000
,
0100
0000
1000
0000
,
0001
0000
0000
0000
,
0100
0000
0000
0000
,
0010
0000
0000
0000
,
1000
0000
0000
0000
,
0100
0000
0000
0000
,
0010
0000
0000
0000
,
0001
0000
0000
0000
,
1000
0000
0000
0000
,
0010
0000
0000
0000
,
0100
0000
0000
0000
,
0001
0000
0000
0000
,
1000
0000
0000
0000
,
0100
0000
0000
0000
,
0010
0000
0000
0000
,
0001
0000
0000
0000
,
1000
0000
0010
0010
;

//---------------dance-single - ----------------
#NOTES:
     dance-single:
     :
     Easy:
     4:
     0.122155,0.141422,0.016134,0.048401,0.000000,212.000000,208.000000,4.000000,12.000000,0.000000,0.000000,0.122155,0.141422,0.016134,0.048401,0.000000,212.000000,208.000000,4.000000,12.000000,0.000000,0.000000:
0000
0000
0000
0000
,
0000
0000
0000
0000
,
0000
0000
0000
0000
,
0000
0000
0000
0000
,
0000
0000
0000
0000
,
0001
1000
1000
0001
,
0001
0100
0100
0010
,
0000
0010
0100
0001
,
1000
0000
0100
0000
,
1000
1000
0010
0010
,
0100
0000
0100
0000
,
0001
0001
0010
0010
,
0100
0000
0100
0000
,
0010
0010
0001
0001
,
1000
0000
1000
0000
,
0010
0000
0010
0000
,
0100
0000
0100
0001
,
1000
1000
0000
0100
,
1000
0000
1000
0000
,
0010
0000
0010
0000
,
0100
0000
0100
0001
,
0010
0010
0000
0001
,
0100
0000
0100
0000
,
0010
0000
1000
0001
,
1000
0100
0010
0001
,
2000
3000
0001
0010
,
0100
1000
0001
1000
,
0010
0100
0002
0003
,
0001
0100
0010
1000
,
0002
0003
0001
0010
,
0100
1000
0100
0010
,
0001
0001
1000
1000
,
0001
0100
1000
0100
,
0002
0003
0001
1000
,
0001
0010
1000
0010
,
0001
1000
2000
3000
,
1000
0010
0001
0010
,
2000
3000
1000
0100
,
0001
0100
1000
0001
,
1000
0001
0100
0100
,
0001
0001
0010
0010
,
0100
0100
1000
1000
,
0020
0130
0020
0130
,
0020
0130
0110
0110
,
0001
0010
0100
1000
,
0001
1000
0010
0100
,
0002
1003
0002
1003
,
0002
1003
1001
1001
,
1000
0100
0010
0010
,
0001
0100
0010
0010
,
1000
0010
0100
0100
,
0001
0010
0100
0100
,
1000
0001
0100
0100
,
0001
1000
0100
0100
,
1000
0001
0010
0010
,
0001
1000
0010
0010
,
1000
0010
0100
0001
,
1000
0010
0010
0010
,
0100
0001
0010
0100
,
1000
0001
0001
0001
,
1000
0010
0100
0001
,
0010
0100
0100
0100
,
1000
0001
0100
0010
,
1000
0001
0010
0010
;

//---------------dance-single - ----------------
#NOTES:
     dance-single:
     :
     Medium:
     5:
     0.167676,0.192849,0.044368,0.040334,0.000000,291.000000,280.000000,11.000000,10.000000,0.000000,0.000000,0.167676,0.192849,0.044368,0.040334,0.000000,291.000000,280.000000,11.000000,10.000000,0.000000,0.000000:
0000
0000
0000
0000
,
0000
0000
0000
0000
,
0000
0000
0000
0000
,
0000
0000
0000
0000
,
0000
0000
0000
0000
,
1000
0100
0010
0001
,
0100
0010
1000
1000
,
0001
0010
0001
0001
,
0100
0000
0010
0000
1000
0000
0001
1000
,
0001
0010
0110
1100
,
1000
0000
0010
0000
0100
0000
0001
1000
,
0001
0100
0110
1010
,
1000
0000
0001
0000
0010
0000
0100
0010
,
0100
1000
0011
1100
,
0001
0000
1000
0000
0000
0000
1000
0001
,
1000
0000
0010
0000
0000
0000
0010
0100
,
0010
0000
0100
0000
0001
0001
1000
1000
,
0100
0100
0000
1000
,
0001
0001
1000
0010
,
0100
0110
0110
0110
,
0001
0000
1000
0000
0001
0001
0010
0010
,
0100
0100
1000
0000
0001
0000
0001
0000
,
1000
0000
0010
0000
,
0100
0000
0000
0100
0001
0000
0001
0000
,
1000
0100
0010
0001
0010
0000
0100
0000
,
2000
0000
0000
3000
0001
0100
0010
0100
,
0002
0000
2003
0000
3100
0010
0000
0200
,
0000
1300
0001
0000
0100
0100
0100
0000
,
0010
1000
0100
0010
0002
0000
2003
0000
,
3020
0000
0000
0030
0100
0001
0010
0100
,
2000
0000
3002
0000
0013
0100
0000
0020
,
0000
0031
1000
0000
0010
0010
0100
0000
,
1000
0010
0100
0001
1000
0000
1000
0000
,
0001
0000
0001
0000
1000
0100
0010
0001
,
1000
0000
1000
0000
0001
0010
0000
0100
,
0000
1000
0001
0000
0100
0100
0100
0000
,
0001
0010
0100
1000
0001
0000
0001
0000
,
1000
0000
1000
0000
0001
0010
0100
1000
,
0001
0000
1000
0000
0010
0010
0000
0100
,
0000
0001
0001
0000
1000
0000
1000
0000
,
0001
0000
0010
0000
0100
1000
0001
0000
,
1000
0000
0010
0000
0100
0000
0001
1000
,
0100
0000
1000
0001
0100
0000
0001
1000
,
0100
0000
1000
0001
0100
0000
0100
0000
,
0001
0000
1000
0000
0010
0100
0001
0000
,
1000
0000
0001
0000
0010
0000
0001
0100
,
0010
0000
1000
0100
0010
0000
0001
0100
,
0010
0000
1000
0100
0010
0000
0010
0000
,
0001
1000
0001
0001
,
1000
0001
1000
1000
,
0010
0100
0010
0010
,
0100
0010
0100
0100
,
0001
0010
0001
0001
,
1000
0100
1000
1000
,
0001
0100
0001
0001
,
1000
0010
1000
1000
,
0001
0010
0100
0000
0010
0000
0001
0100
,
0010
0010
0100
0001
,
1000
0100
0010
0000
0100
0000
1000
0010
,
0100
0100
0010
1000
,
0001
0010
1000
0000
0010
0000
0001
1000
,
0010
0010
0100
0001
,
1000
0100
0001
0000
0100
0000
0010
0001
,
1000
1000
1001
0110
;

//---------------dance-single - ----------------
#NOTES:
     dance-single:
     :
     Hard:
     8:
     0.240854,0.270517,0.072602,0.064535,0.191588,418.000000,400.000000,18.000000,16.000000,70.000000,0.000000,0.240854,0.270517,0.072602,0.064535,0.191588,418.000000,400.000000,18.000000,16.000000,70.000000,0.000000:
// measure 0
0000
0000
0000
0000
,  // measure 1
0000
0000
0000
0000
,  // measure 2
0000
0000
0000
0000
,  // measure 3
0000
0000
0000
0000
,  // measure 4
0000
0000
0000
0000
,  // measure 5
0001
0000
0000
0000
1000
0000
0000
1000
0100
0000
0000
0000
0010
0000
0000
0000
,  // measure 6
0001
0000
0000
0000
0100
0000
0000
0000
0010
0000
0000
1000
0000
0000
1000
0000
,  // measure 7
0001
0000
0000
0000
0010
0000
0000
0010
0001
0000
0000
0000
1000
0000
0000
0000
,  // measure 8
1000
0000
0010
0000
0100
0000
0000
0001
,  // measure 9
1000
0000
0000
0000
0100
0000
0000
0100
0010
0000
0000
0000
0001
0000
0000
0000
,  // measure 10
1000
0000
0000
0000
0010
0000
0000
0000
1000
0000
0000
1000
0000
0000
0001
0000
,  // measure 11
0100
0000
0000
0000
0001
0000
0000
0010
0100
0000
0000
0000
1000
0000
0000
0000
,  // measure 12
0100
0000
1000
0000
0010
0000
0101
0001
,  // measure 13
1000
0000
0000
0000
0100
0000
0000
0100
0010
0000
0000
0000
0100
0000
0000
0000
,  // measure 14
1000
0000
0000
0000
0001
0000
0000
0000
0010
0000
0000
0010
0001
0000
0001
0000
,  // measure 15
1000
0000
0000
0000
0010
0000
0000
0010
0100
0000
0000
0000
1001
0000
0000
0000
,  // measure 16
0001
0000
0000
0000
0000
0000
0000
0000
0000
0001
0000
0000
0100
0000
0000
0000
0000
0000
0010
0000
0000
0000
0000
0000
1000
0000
0000
0000
1000
0000
0100
0000
0000
0000
0010
0000
0000
0000
0000
0000
0000
0000
0010
0000
0000
0000
0000
0000
,  // measure 17
0001
0000
0001
0000
1000
0000
0000
1000
0010
0000
0000
0000
0100
0000
0100
0000
,  // measure 18
0001
0000
0000
0001
1000
0000
0000
0000
0100
0000
0000
0100
0010
0000
0000
0100
,  // measure 19
1000
0000
0000
0100
1000
0000
0000
0000
1100
0000
0000
0000
1010
0000
0010
0000
,  // measure 20
0100
0000
0000
0100
0000
0000
0001
0000
0000
0000
0000
0000
0010
0000
0010
0001
0000
0001
0100
0000
0000
0100
0000
0000
,  // measure 21
0010
0000
0010
0000
1000
0000
0000
1000
0001
0000
0000
0000
1001
0000
0001
0000
,  // measure 22
0010
0000
0000
0010
0001
0000
0001
0000
0100
0000
0000
0100
0010
0000
0010
0000
,  // measure 23
1000
0000
0000
0001
1000
0000
0000
1000
0100
0000
0000
0000
0000
0000
0000
0000
,  // measure 24
1000
0100
0001
0100
1000
0000
1000
0000
,  // measure 25
0002
0000
0003
000M
0001
0100
1000
0100
,  // measure 26
0002
0000
2003
000M
3100
M010
0000
0200
,  // measure 27
0000
1300
0M01
0000
1MM1
1MM1
M11M
0000
,  // measure 28
0001
0000
0100
0000
1000
0000
0000
0100
,  // measure 29
0001
0000
0000
0000
0010
0000
0000
0010
0100
0000
0000
0000
0010
0000
0000
0000
,  // measure 30
0001
0000
0000
0000
1000
0000
0000
0000
0010
0000
0000
0010
0000
0000
0100
0000
,  // measure 31
0001
0000
0000
0000
0010
0000
0000
0010
0100
0000
0000
0000
1001
0000
0000
0000
,  // measure 32
1000
0000
0000
0100
0001
0000
0000
0100
1000
0000
0100
0010
0001
0000
0001
0000
,  // measure 33
1000
0000
0000
0010
0001
0000
0000
0010
0100
0000
0100
0000
1001
0000
0000
0000
,  // measure 34
0001
0000
0000
0100
0010
0000
0000
0010
1000
0000
0010
1000
0100
0000
0010
0000
,  // measure 35
0100
0000
0000
0100
1000
0000
0001
0000
M11M
0000
M11M
0000
1MM1
0000
0000
0000
,  // measure 36
0001
0000
0000
0001
0010
0000
0000
0010
0100
0000
1000
0010
0100
0000
0010
0000
,  // measure 37
1000
0000
0000
1000
0001
0000
0000
0001
0010
0000
0000
0000
0110
0000
0000
0000
,  // measure 38
1000
0000
0000
1000
0001
0000
0000
0001
0100
0000
0010
0100
0001
0000
0001
0000
,  // measure 39
1000
0000
0000
1000
0100
0000
0000
0100
0010
0000
0000
0000
0110
0000
0000
0000
,  // measure 40
0001
0100
1000
0100
0001
1000
0002
1MM0
,  // measure 41
1MM3
0001
0010
1000
0010
0001
2000
0MM1
,  // measure 42
3MM1
1000
0002
1MM0
1MM3
0001
2000
0MM1
,  // measure 43
3MM1
1000
0002
1MM0
1MM3
0000
1001
0000
,  // measure 44
0001
0010
1000
0010
0001
1000
0002
1MM0
,  // measure 45
1MM3
0001
0100
1000
0100
0001
2000
0MM1
,  // measure 46
3MM1
1000
0002
1MM0
1MM3
0001
2000
0MM1
,  // measure 47
3MM2
0000
1MM0
1MM0
1MM3
0MM0
1MM1
0000
,  // measure 48
0001
0010
0000
0100
0000
0000
1000
0000
0010
0000
0100
0000
0001
0000
0000
0001
,  // measure 49
0010
0000
0000
0010
0100
0000
0000
0100
1000
0000
0000
1000
0001
0000
0000
0001
,  // measure 50
1000
0010
0000
0100
0000
0000
0010
0000
1000
0000
0001
0000
0010
0000
0000
0100
,  // measure 51
1000
0000
0000
1000
0010
0000
0000
0010
0100
0000
0000
0000
0101
0000
0000
0001
,  // measure 52
0000
1000
0000
0100
0000
0000
1000
0000
0001
0000
0010
0000
0001
0000
0000
1000
,  // measure 53
0010
0000
0000
0010
0100
0000
0000
0100
0001
0000
0000
0001
1000
0000
0000
0001
,  // measure 54
0010
0001
0000
1000
0000
0000
0010
0000
0100
0000
0100
0000
0001
0000
0000
0001
,  // measure 55
0010
0000
0000
0010
0100
0000
0100
0000
1000
0000
1000
0000
0001
0000
0001
0000
,  // measure 56
1000
0010
0000
1000
0000
0000
0010
0000
0100
0000
0001
0000
0010
0000
0001
0100
,  // measure 57
0000
0000
0000
0100
0010
0000
0000
0010
1000
0000
0000
1000
0001
0000
0000
0001
,  // measure 58
0010
0001
0000
1000
0000
0000
0010
0000
0100
0000
0001
0000
1000
0000
0100
0010
,  // measure 59
0000
0000
0000
0010
0100
0000
0000
0100
1000
0000
0000
1000
0001
0000
0001
1000
,  // measure 60
0000
1000
0000
0010
0000
0000
0010
0000
0100
0000
0100
0000
0001
0000
0001
0010
,  // measure 61
0000
0000
0000
0010
0001
0000
0000
0001
0100
0000
0000
0100
0010
0000
0000
0010
,  // measure 62
1000
0100
0000
0100
0000
0000
1000
0000
0010
0000
0010
0000
0100
0000
0100
0001
,  // measure 63
0000
0000
0000
0001
0010
0000
0100
0000
2MM0
0000
0MM1
0000
3MM2
0000
1MM3
0000
;
