#TITLE:HAPPY HAPPY;
#SUBTITLE:;
#ARTIST:TWICE;
#TITLETRANSLIT:;
#SUBTITLETRANSLIT:;
#ARTISTTRANSLIT:;
#GENRE:;
#CREDIT:mf32892;
#BANNER:HAPPY HAPPY.png;
#BACKGROUND:HAPPY HAPPY-jacket.png;
#LYRICSPATH:;
#CDTITLE:;
#MUSIC:HAPPY HAPPY.ogg;
#OFFSET:-0.099817;
#SAMPLESTART:43.602001;
#SAMPLELENGTH:15.000000;
#SELECTABLE:YES;
#BPMS:0.000000=180.000000
;
#STOPS:
;
#BGCHANGES:2.000=HAPPY HAPPY - TWICE.mp4=1.000=0=0=0=StretchNoLoop====,
99999=-nosongbg-=1.000=0=0=0 // don't automatically add -songbackground-
;
#KEYSOUNDS:;
#ATTACKS:;

//---------------dance-single - ----------------
#NOTES:
     dance-single:
     :
     Challenge:
     8:
     0.583923,0.594885,0.440656,0.683776,0.136755,538.000000,480.000000,58.000000,90.000000,64.000000,0.000000,0.583923,0.594885,0.440656,0.683776,0.136755,538.000000,480.000000,58.000000,90.000000,64.000000,0.000000:
// measure 0
0000
0000
0000
0000
,  // measure 1
0000
0000
0000
0000
,  // measure 2
0000
0000
0000
0000
,  // measure 3
0000
0000
0000
0000
,  // measure 4
0000
0000
0000
0000
,  // measure 5
1000
0000
0010
0100
0000
0001
0000
1000
,  // measure 6
0000
1000
0000
0100
0010
0000
0001
0000
,  // measure 7
2000
0000
0000
0000
0000
3001
0010
0001
,  // measure 8
0100
0010
2000
3000
,  // measure 9
0100
0000
0000
0000
0000
0000
0000
0000
1001
0000
0000
0000
0000
0000
0000
0000
1000
0000
0000
0000
0000
0001
0000
0000
0100
0000
0000
0000
0000
0010
0000
0000
,  // measure 10
0000
0000
0000
0000
0000
0110
0000
0000
0000
0000
0000
0000
0000
1000
0000
0000
0002
0000
0000
0000
0000
0000
0000
0000
0023
0000
0000
0000
0000
0000
0000
0000
,  // measure 11
0130
0000
0000
0000
0000
0010
0000
0000
0001
0000
0000
0000
0000
1000
0000
0000
0001
0000
0000
0000
0000
0100
0000
0000
0001
0000
0000
0000
0000
1000
0000
0000
,  // measure 12
0000
0000
0000
0000
0000
1010
0000
0000
0000
0000
0000
0000
0000
0001
0000
0000
0200
0000
0000
0000
0000
0000
0000
0000
0320
0000
0000
0000
0000
0000
0000
0000
,  // measure 13
1030
0000
0000
0000
0000
0000
0000
0000
0001
0000
0000
0000
0000
0010
0000
0000
0000
0000
0000
0000
0000
0110
0000
0000
0000
0000
0000
0000
0000
1000
0000
0000
,  // measure 14
0001
0000
0000
0000
0000
0100
0000
0000
0020
0000
0000
0000
0000
0000
0000
0000
1030
0000
0000
0000
0000
0000
0000
0000
0100
0000
0000
0000
0000
0010
0000
0000
,  // measure 15
0000
0000
0000
0000
0000
0110
0000
0000
0000
0000
0000
0000
0000
1000
0000
0000
0001
0000
0000
0000
0000
1000
0000
0000
0100
0000
0000
0000
0000
0010
0000
0000
,  // measure 16
0002
0103
2000
3100
,  // measure 17
0010
0000
0000
0000
0000
0000
0000
0000
1001
0000
0000
0000
0000
0000
0000
0000
0100
0000
0000
0000
0000
0001
0000
0000
0200
0000
0000
0000
0000
0000
0000
0000
,  // measure 18
0310
0000
0000
0000
0000
1000
0000
0000
0000
0000
0000
0000
0000
0001
0000
0000
1000
0000
0000
0000
0000
0000
0000
0000
1200
0000
0000
0000
0000
0000
0000
0000
,  // measure 19
1300
0000
0000
0000
0000
0000
0000
0000
0001
0000
0000
0000
0000
0010
0000
0000
0100
0000
0000
0000
0000
0100
0000
0000
0010
0000
0000
0000
0000
0001
0000
0000
,  // measure 20
0100
0000
0000
0000
0000
0100
0000
0000
1000
0000
0000
0000
0000
0100
0000
0000
0010
0000
0000
0000
0000
1000
0000
0000
0002
0000
0000
0000
0000
0000
0000
0000
,  // measure 21
1003
0000
0000
0000
0000
0000
0000
0000
0001
0000
0000
0000
0000
0010
0000
0000
0000
0000
0000
0000
0000
0110
0000
0000
0000
0000
0000
0000
0000
1000
0000
0000
,  // measure 22
0100
0000
0000
0000
0000
0010
0000
0000
0002
0000
0000
0000
0000
0000
0000
0000
1003
0000
0000
0000
0001
0000
0000
0000
0100
0000
0000
0000
0010
0000
0000
0000
,  // measure 23
0000
0101
0000
1000
0000
1000
0100
0000
,  // measure 24
0020
0000
0000
0002
0000
0000
0033
0000
,  // measure 25
1000
0100
1000
0100
0010
0001
1000
0000
,  // measure 26
0001
0100
0010
1000
0001
0000
0101
0000
,  // measure 27
1000
0200
0000
1300
0001
0010
1000
0010
,  // measure 28
0001
1000
0100
0010
0002
0000
2003
0000
,  // measure 29
3010
MMMM
0110
1000
,  // measure 30
0001
0010
0110
0002
,  // measure 31
1003
0010
0100
0010
,  // measure 32
1000
0000
0100
0000
1000
0001
1000
0001
0000
0000
MMMM
0000
MMMM
0000
0000
0000
,  // measure 33
2001
0000
3100
0000
1002
0000
0103
2001
,  // measure 34
0000
3200
0001
0000
1000
0000
0301
0000
,  // measure 35
0110
0000
1000
0001
0000
0020
0100
0000
,  // measure 36
0032
0000
2003
0000
3001
0100
0010
2000
,  // measure 37
0000
0100
3100
0000
1000
0100
0010
0002
,  // measure 38
0000
0100
0103
0010
1000
0100
0010
0200
,  // measure 39
0000
2300
0010
0000
3100
0001
0100
1000
,  // measure 40
0010
0101
1100
MMMM
,  // measure 41
2001
0000
3010
0000
1002
0000
0013
1002
,  // measure 42
0000
0203
1000
0000
0001
0000
1300
0000
,  // measure 43
0110
0000
0001
1000
0000
0200
0010
0000
,  // measure 44
2300
0000
3001
0100
0001
1000
0100
0020
,  // measure 45
0000
0001
0031
1000
0001
0100
0010
2000
,  // measure 46
0000
0100
3100
0010
0100
1000
0010
0200
,  // measure 47
0000
0302
0010
0000
0103
1000
0100
0001
,  // measure 48
0010
0101
1100
MMMM
,  // measure 49
0002
0003
0020
0030
0200
1000
1300
0010
,  // measure 50
1010
0001
0011
1000
,  // measure 51
2100
0000
3001
0010
0100
0000
0110
0000
,  // measure 52
0002
0000
1003
0010
0100
1000
0100
0001
,  // measure 53
0010
0100
MMMM
0100
0100
0000
1001
0000
,  // measure 54
1000
0100
0010
0100
1000
0000
0011
0000
,  // measure 55
0001
0100
0010
0100
0001
0000
1010
0000
,  // measure 56
0100
0001
0010
0100
MMMM
0010
1000
0100
,  // measure 57
0020
0031
0020
1030
,  // measure 58
0110
0000
1000
0000
0100
0000
1000
0001
,  // measure 59
MMMM
0010
0100
0000
0200
0300
MMMM
0000
,  // measure 60
0001
0000
1000
0000
0010
0000
0100
0010
,  // measure 61
MMMM
1000
0100
0001
0020
0000
0130
0000
,  // measure 62
0010
0001
0000
0010
0001
0000
MMMM
0000
,  // measure 63
0010
1000
0000
0010
1000
0000
1100
0000
,  // measure 64
0002
0023
2030
3002
,  // measure 65
0203
0000
2300
0000
,  // measure 66
3001
0100
0010
1000
0001
0000
0101
0000
,  // measure 67
1000
0100
0010
0001
0200
0000
1300
0000
,  // measure 68
0100
0010
0100
0010
1000
0100
0010
0001
,  // measure 69
MMMM
0010
0100
0010
0100
0000
0110
0000
,  // measure 70
0001
MMMM
1001
0001
,  // measure 71
0100
0010
0110
2000
,  // measure 72
3001
0010
1000
0010
,  // measure 73
0001
0000
1000
0000
0010
0100
0010
0100
0000
0000
MMMM
0000
MMMM
0000
0000
0000
,  // measure 74
2010
0000
3100
0000
0012
0000
0103
1020
,  // measure 75
0000
0230
1000
0000
0001
0000
1300
0000
,  // measure 76
0110
0000
1000
0002
0000
0023
0100
0000
,  // measure 77
0032
0000
1003
0000
1000
0100
0010
0002
,  // measure 78
0000
1003
0001
0000
0001
0100
0010
2000
,  // measure 79
0000
3001
1000
0001
1000
0100
0001
0200
,  // measure 80
0000
2300
0001
0000
3010
0001
0010
1000
,  // measure 81
0100
0011
1010
MMMM
,  // measure 82
0102
0000
0013
0000
2100
0000
3010
0102
,  // measure 83
0000
0023
1000
0000
0001
0000
1030
0000
,  // measure 84
0110
0000
0001
1000
0000
0200
0010
0000
,  // measure 85
2300
0000
3002
0000
0013
0100
1000
0020
,  // measure 86
0000
0130
0001
0000
0010
0100
1000
0020
,  // measure 87
0000
0130
0001
1000
0001
0010
0100
0020
,  // measure 88
0000
0230
0001
0000
1300
0001
0100
0010
,  // measure 89
1010
0101
1200
0320
,  // measure 90
0032
0000
0000
1003
0010
1000
0001
0100
,  // measure 91
0020
1030
1100
0110
,  // measure 92
2000
0000
0000
3001
0010
0002
0000
0103
,  // measure 93
0020
1030
1100
0101
,  // measure 94
0020
0000
0000
1030
0001
0010
0100
0010
,  // measure 95
0200
1300
0001
0101
,  // measure 96
0120
0000
0000
0031
0010
1000
0100
0010
,  // measure 97
0001
0000
0110
0000
2001
0000
0010
3010
;

//---------------dance-single - ----------------
#NOTES:
     dance-single:
     :
     Hard:
     7:
     0.478643,0.521190,0.379876,0.220328,0.000000,441.000000,391.000000,50.000000,29.000000,0.000000,0.000000,0.478643,0.521190,0.379876,0.220328,0.000000,441.000000,391.000000,50.000000,29.000000,0.000000,0.000000:
0000
0000
0000
0000
,
0000
0000
0000
0000
,
0000
0000
0000
0000
,
0000
0000
0000
0000
,
0000
0000
0000
0000
,
0000
0000
0000
0000
,
0000
0000
0000
0001
,
0200
0000
0000
0000
0300
0010
1000
0001
,
1000
0001
0020
0030
,
0100
0110
1000
1100
,
0001
0000
0101
0000
1000
0100
0010
0000
,
0001
0011
1000
1010
,
0001
0000
0101
0000
1000
0001
0100
0000
,
0010
1010
0001
0011
,
1000
0000
1100
0000
0001
1000
0100
0000
,
0010
0011
1000
1010
,
0100
1002
0013
2001
,
3100
1010
0100
0011
,
1000
0000
0101
0000
1000
0001
0010
0000
,
0100
0011
1000
0110
,
0001
0000
1100
0000
0001
1000
0010
0000
,
1000
0011
0100
1010
,
0001
0000
1100
0000
1000
0001
0010
0000
,
0100
1010
0100
0101
,
1000
0100
0010
0001
0100
0010
1000
0000
,
0002
0000
0100
0000
,
0000
0000
0100
0000
,
2003
0000
0010
0000
,
0000
0000
0010
0000
,
3100
0000
0110
0000
,
1000
0001
1001
0000
,
0001
0100
0010
1000
,
0001
1000
0001
1000
0000
0000
0000
0000
,
2001
0000
3100
0000
0010
0000
0100
1000
,
0000
1000
0001
0000
0010
0001
0100
0000
,
0001
0000
0101
0000
0010
0100
0001
1000
,
0000
1000
0001
0000
1000
0100
0010
0000
,
0001
0000
0101
0000
1000
0000
0010
0100
,
0000
0100
0010
0000
1000
0001
0100
0000
,
0010
0000
0110
0000
1000
0100
0010
0001
,
0000
1000
0010
0000
0100
0001
0010
0000
,
0100
0000
1100
0000
0010
0000
0001
1000
,
0000
1000
0010
0000
0100
0001
1000
0000
,
0100
0000
1100
0000
0001
0100
0010
0100
,
0000
0100
0001
0000
1000
0100
0010
0000
,
0001
0000
0011
0000
1000
0000
0001
0100
,
0000
0010
1000
0000
0100
1000
0001
0000
,
0010
0000
0110
0000
1000
0001
0100
0010
,
0000
1000
0010
0000
0100
0001
1000
0000
,
0200
0000
0300
0000
,
0020
0000
0000
0000
0001
0000
0000
0100
,
0000
0100
0001
0000
,
0230
0000
0000
0000
0010
0000
0000
1000
,
0000
1000
1000
0000
0310
0000
0110
0000
,
0001
0100
0010
0100
0001
0000
0000
0000
,
1000
0100
0010
0100
1000
0000
0001
0000
,
1000
0100
0010
0001
0000
0100
0010
1000
,
0002
0003
2000
3010
,
0110
0000
1000
0000
0001
0000
0010
0100
,
0000
0010
0100
0000
2000
0000
3001
0000
,
1001
0000
1000
0000
0010
0000
0100
0002
,
0000
1003
1000
0001
1000
0000
0010
0000
,
0100
0010
0000
0100
0010
0000
0000
0000
,
1000
0001
0000
1000
0001
0000
1000
0000
,
0002
0023
0230
2300
,
3002
0000
0203
0310
,
2000
0000
0010
0000
,
0000
0000
0010
0000
,
3200
0000
0010
0000
,
0000
0000
0310
0000
,
1000
0000
1001
0000
,
0010
0100
0110
0000
,
0001
0010
0100
1000
,
0010
0100
0001
1000
0000
0000
0000
0000
,
1002
0000
0013
0000
0100
0000
0010
0001
,
0000
0001
1000
0000
0100
1000
0010
0000
,
1000
0000
0110
0000
0100
0010
1000
0001
,
0000
0001
1000
0000
0001
0010
0100
0000
,
1000
0000
1010
0000
0001
0000
0100
0010
,
0000
0010
1000
0000
0100
0010
0001
0000
,
0100
0000
0110
0000
0001
0010
0100
1000
,
0000
0001
0100
0000
0010
1000
0100
0000
,
0010
0000
0011
0000
0100
0000
1000
0001
,
0000
0001
0100
0000
0010
1000
0001
0000
,
0010
0000
0011
0000
1000
0010
0100
0010
,
0000
0010
1000
0000
0001
0010
0100
0000
,
1000
0000
1100
0000
0001
0000
1000
0010
,
0000
0100
0001
0000
0010
0001
1000
0000
,
0100
0000
0110
0000
0001
1000
0010
0100
,
0000
0001
0100
0000
0010
1000
0001
0000
,
0020
0000
0000
0100
0130
0000
0000
1000
,
0000
0001
1000
0000
0010
0100
0010
0000
,
0201
0000
0000
0010
0310
0000
0000
1000
,
0000
1000
0001
0000
0010
0000
0100
0000
,
1200
0000
0000
0010
0310
0000
0000
0001
,
0000
1000
0001
0000
0100
0010
1000
0000
,
0200
0000
0000
0010
0310
0001
1000
0001
,
0010
0100
0220
0000
,
0330
0000
0000
0000
;
