#TITLE:Everlasting Love;
#SUBTITLE:;
#ARTIST:Alisa;
#TITLETRANSLIT:;
#SUBTITLETRANSLIT:;
#ARTISTTRANSLIT:;
#GENRE:;
#CREDIT:;
#BANNER:everlastinglove-bn.png;
#BACKGROUND:everlastinglove-bg.png;
#LYRICSPATH:;
#CDTITLE:cdtitle.png;
#MUSIC:everlastinglove.ogg;
#OFFSET:-0.283000;
#SAMPLESTART:55.314999;
#SAMPLELENGTH:24.458000;
#SELECTABLE:YES;
#BPMS:0.000000=157.000000
;
#STOPS:
;
#BGCHANGES:;
#KEYSOUNDS:;
#ATTACKS:;

//---------------dance-single - ----------------
#NOTES:
     dance-single:
     :
     Hard:
     6:
     0.478186,0.478186,0.273249,0.212527,0.000000,441.000000,405.000000,36.000000,28.000000,7.000000,0.000000,0.478186,0.478186,0.273249,0.212527,0.000000,441.000000,405.000000,36.000000,28.000000,7.000000,0.000000:
// measure 0
0000
0000
0000
0000
,  // measure 1
0000
0000
0000
0000
,  // measure 2
0000
0000
0000
0000
,  // measure 3
0000
0000
0000
0000
,  // measure 4
0000
0000
0010
0001
0010
0001
1000
0000
,  // measure 5
0001
0100
0010
1000
0001
0000
1000
0000
,  // measure 6
1010
0000
1000
0001
1000
0000
0001
0000
,  // measure 7
0100
0001
0M00
0001
0100
0000
0010
0000
,  // measure 8
1001
0000
0001
0010
0001
0010
0001
0000
,  // measure 9
1000
0100
0010
0001
1000
0000
0001
0000
,  // measure 10
0011
0000
0001
1000
0001
0000
0100
0000
,  // measure 11
0010
1000
00M0
1000
0010
0000
0100
0000
,  // measure 12
0110
0000
1000
0001
1000
0001
0100
0000
,  // measure 13
0001
0100
1000
0100
0001
0000
1000
0000
,  // measure 14
0011
0000
1000
0010
1000
0000
0001
0000
,  // measure 15
0100
0010
0M00
0010
0100
0000
0001
0000
,  // measure 16
1001
0000
0001
1000
0001
1000
0010
0000
,  // measure 17
1000
0010
0001
0010
1000
0000
0001
0000
,  // measure 18
1010
0000
0001
1000
0001
0000
1000
0010
,  // measure 19
0000
1000
0010
0000
1000
0001
0100
0000
,  // measure 20
0020
0000
1000
1030
,  // measure 21
0001
0000
1000
0100
0001
0000
0100
0000
,  // measure 22
1100
0000
0001
0001
,  // measure 23
0002
0203
0320
2030
,  // measure 24
3001
0000
0010
0001
0010
0000
1001
0000
,  // measure 25
1010
0000
0001
1000
0010
1000
0001
0000
,  // measure 26
0100
0000
0001
0100
0001
0000
1001
0000
,  // measure 27
1100
0000
0001
1000
0100
1000
0001
0000
,  // measure 28
0020
0000
0001
0031
,  // measure 29
1000
0000
0001
0100
1000
0000
0100
0000
,  // measure 30
0101
0000
1000
1000
,  // measure 31
2000
0001
3002
0100
,  // measure 32
0103
0000
0010
1000
0010
0000
1001
0000
,  // measure 33
0101
0000
1000
0010
0100
0010
1000
0000
,  // measure 34
0001
0000
0100
0001
0100
0000
1001
0000
,  // measure 35
1100
0000
0001
1000
0100
1000
0001
0000
,  // measure 36
0020
0000
0001
0000
0100
0000
0031
1000
,  // measure 37
0001
1000
0100
0000
1001
0000
1000
0000
,  // measure 38
0020
0000
1000
0000
0100
0000
1030
0001
,  // measure 39
1000
0001
0100
0000
1001
0000
0001
0010
,  // measure 40
0100
1000
0010
0000
1000
0000
0001
0001
,  // measure 41
0001
0000
0100
0000
0010
1000
0100
1000
,  // measure 42
0010
0000
0100
0000
0001
0000
1000
1000
,  // measure 43
1000
0000
0010
0000
0100
0001
0010
0001
,  // measure 44
0200
0000
0001
0000
0010
0000
0301
1000
,  // measure 45
0001
1000
0010
0000
1001
0000
1000
0000
,  // measure 46
0200
0000
1000
0000
0010
0000
1300
0001
,  // measure 47
1000
0001
0010
0000
1001
0000
0001
0010
,  // measure 48
0100
1000
0001
0000
1000
0000
0010
0010
,  // measure 49
0010
0000
0100
0000
0001
0100
0010
1000
,  // measure 50
0100
0000
1000
0000
0001
0000
0100
0100
,  // measure 51
0100
0000
0001
0000
1000
0100
0010
0001
,  // measure 52
0020
0000
0001
0000
0001
0000
0230
0010
,  // measure 53
0000
0010
2300
0000
3001
0000
0000
0000
,  // measure 54
2000
0000
0010
0000
0010
0000
3002
1000
,  // measure 55
0000
1000
0203
0000
0310
0000
0000
0000
,  // measure 56
1010
1100
1010
0000
,  // measure 57
0001
0000
0000
0000
1000
0000
0001
0001
,  // measure 58
0001
0000
0100
0000
,  // measure 59
0010
0000
0100
0000
,  // measure 60
0020
0000
1000
0000
1000
0000
0230
0010
,  // measure 61
0000
0010
0302
0000
1003
0000
0000
0000
,  // measure 62
0002
0000
0010
0000
0010
0000
2003
0001
,  // measure 63
0000
0001
3200
0000
0310
0000
0000
0000
,  // measure 64
0011
0101
0011
0000
,  // measure 65
1000
0000
0000
0000
0001
0000
1000
1000
,  // measure 66
1000
0000
0010
1000
0100
0010
0001
0100
,  // measure 67
0010
0000
1000
0001
1000
0000
0010
0000
,  // measure 68
0100
0001
0100
0001
2000
0000
0001
0001
,  // measure 69
000M
0001
3001
0000
1000
0100
0001
0000
,  // measure 70
0100
1000
0100
1000
0002
0000
1000
1000
,  // measure 71
M000
1000
1003
0000
0001
0100
1000
0000
,  // measure 72
0100
0000
1001
0000
0101
0000
0001
0010
,  // measure 73
0001
0000
1000
0000
0001
0100
0010
1000
,  // measure 74
0010
0000
1001
0000
1010
0000
1000
0001
,  // measure 75
1000
0000
0001
0000
1000
0100
0010
0001
,  // measure 76
1000
0001
1000
0001
0200
0000
0010
0010
,  // measure 77
00M0
0010
0310
0000
0100
0001
1000
0000
,  // measure 78
0001
0010
0001
0010
0200
0000
0010
0010
,  // measure 79
00M0
0010
0310
0000
0100
1000
0001
0000
,  // measure 80
1000
0000
1010
0000
1001
0000
0001
0010
,  // measure 81
0001
0000
1000
0000
0001
0100
1000
0100
,  // measure 82
0001
0000
1001
0000
1100
0000
1000
0001
,  // measure 83
1000
0000
0010
0000
0100
0010
0100
0010
,  // measure 84
0110
0000
0000
0000
;

//---------------dance-single - ----------------
#NOTES:
     dance-single:
     :
     Medium:
     5:
     0.390356,0.478186,0.288429,0.121444,0.000000,360.000000,322.000000,38.000000,16.000000,8.000000,0.000000,0.390356,0.478186,0.288429,0.121444,0.000000,360.000000,322.000000,38.000000,16.000000,8.000000,0.000000:
0000
0000
0000
0000
,
0000
0000
0000
0000
,
0000
0000
0000
0000
,
0000
0000
0000
0000
,
0000
0001
1000
0001
,
0010
0000
0100
1000
0010
0000
1010
0000
,
0001
1000
0010
1000
,
0001
0100
0001
0100
0001
0000
0010
0000
,
1001
1000
0001
1000
,
0010
0000
0100
0001
0010
0000
0011
0000
,
1000
0001
0100
0001
,
1000
0010
1000
0010
1000
0000
0100
0000
,
1001
0001
0010
0001
,
1000
0000
0001
0100
1000
0000
0101
0000
,
1000
0010
1000
0001
,
0010
0100
0010
0100
0010
0000
0100
0000
,
1001
1000
0010
1000
,
0001
0000
1000
0100
0001
0000
1100
0000
,
0001
0000
1000
0100
0010
0000
0001
1000
,
0000
0001
0000
1000
1000
0000
0100
0000
,
0020
0000
0031
1000
,
0010
0000
0100
0001
0010
0000
0000
0000
,
0002
0000
1000
1003
,
0001
0010
0100
1000
,
2000
0010
00M0
3010
,
1000
0000
0001
0010
0100
0010
0001
0000
,
0002
0100
0M00
0103
,
0001
0000
1000
0010
0100
0010
1000
0000
,
0020
0000
1030
0001
,
0010
0000
0100
1000
0010
0000
0000
0000
,
2000
0000
0001
3001
,
1010
0001
0011
1000
,
2000
0010
00M0
3010
,
1000
0000
0001
0100
1000
0100
0001
0000
,
0002
0010
00M0
0013
,
0001
0000
1000
0100
0001
0100
1000
0000
,
1100
1001
1100
0001
,
1000
0000
0001
0001
0001
0000
0010
0000
,
0011
0101
0011
1000
,
0001
0000
1000
1000
1000
0000
0001
0000
,
0010
0100
1000
1010
,
1001
0000
0001
0001
1000
0000
0100
0000
,
0010
0100
1000
0011
,
1001
0000
1000
1000
0001
0000
0100
0000
,
0101
0011
0101
1000
,
0001
0000
1000
1000
1000
0000
0010
0000
,
1010
1001
1010
0001
,
1000
0000
0001
0001
0001
0000
1000
0000
,
0100
0010
0001
1001
,
0101
0000
0001
0001
1000
0000
0001
0000
,
0010
0100
1000
1001
,
1100
0000
1000
1000
0001
0000
0100
0000
,
0020
0000
1000
0000
,
1030
0001
1000
0000
,
0002
0000
0010
0000
,
0013
0100
1000
0000
,
1010
1010
1001
0000
,
1000
0000
0000
0000
0001
0000
0010
0010
,
0010
0000
0001
0000
,
1000
0000
0001
0000
,
0200
0000
0001
0000
,
0301
1000
0001
0000
,
2000
0000
0010
0000
,
3010
0100
0001
0000
,
0011
0011
1001
0000
,
0001
0000
0000
0000
1000
0000
0010
0010
,
0010
0000
1000
0000
,
0001
0000
1000
0001
,
0010
0000
0100
0000
1000
0000
0010
1000
,
0000
0010
1000
0000
0001
0000
1000
0000
,
0010
0000
0100
0000
0001
0000
0010
0001
,
0000
0010
0001
0000
1000
0000
0001
0000
,
0020
0001
000M
0031
,
1000
0000
0001
0001
0001
0000
1000
0000
,
0200
1000
M000
1300
,
0001
0000
1000
1000
1000
0000
0010
0000
,
1000
0000
0100
0000
0010
0000
0001
1000
,
0000
0001
1000
0000
0010
0000
1000
0000
,
0001
0000
0100
0000
0010
0000
1000
0001
,
0000
1000
0001
0000
1000
0000
0100
0000
,
0020
0001
000M
0031
,
1000
0000
0100
0100
0100
0000
1000
0000
,
0020
1000
M000
1030
,
0001
1000
0110
1001
,
0110
0000
0000
0000
;

//---------------dance-single - ----------------
#NOTES:
     dance-single:
     :
     Easy:
     3:
     0.296020,0.382548,0.212527,0.091083,0.000000,273.000000,245.000000,28.000000,12.000000,0.000000,0.000000,0.296020,0.382548,0.212527,0.091083,0.000000,273.000000,245.000000,28.000000,12.000000,0.000000,0.000000:
0000
0000
0000
0000
,
0000
0000
0000
0000
,
0000
0000
0000
0000
,
0000
0000
0000
0000
,
0000
0001
1000
0001
,
0010
0000
0010
0000
,
0001
0100
0010
1000
,
0010
0010
0010
0000
,
0000
1000
0001
1000
,
0100
0000
0100
0000
,
1000
0010
0100
0001
,
0010
0010
0010
0000
,
0000
0001
0100
0001
,
1000
0000
1000
0000
,
0001
0010
0100
1000
,
0001
0100
1000
0000
,
0000
0100
0001
0100
,
0010
0000
0010
0000
,
1000
0100
0010
0001
,
1000
0100
0001
0100
,
2000
0000
0001
0000
,
3001
0010
0010
0000
,
0002
0000
1000
0000
,
1003
0001
0010
0100
,
1100
0001
1100
0000
,
0001
0100
1000
0100
,
0101
1000
0101
0000
,
0001
1000
0010
0100
,
0002
0000
0010
0000
,
0013
0001
1000
0000
,
2000
0000
0010
0000
,
3010
1000
0001
1000
,
1100
0010
1100
0000
,
0001
0100
1000
0100
,
0101
0010
0101
0000
,
1000
0001
0010
0100
,
1000
1000
1000
0000
,
0001
1000
0001
0000
,
0001
0001
0001
0000
,
1000
0100
0010
0001
,
0011
0000
1001
0000
,
0001
0010
0100
1000
,
1010
0000
1001
0000
,
1000
0010
0100
0001
,
1000
1000
1000
0000
,
0001
1000
0001
0000
,
0001
0001
0001
0000
,
1000
0100
0010
0001
,
0011
0000
0101
0000
,
0001
1000
0010
0100
,
1010
0000
1100
0000
,
1000
0001
0010
0100
,
2000
0000
0010
0000
,
3010
0000
1000
1000
,
0002
0000
0010
0000
,
0013
0000
0001
0001
,
1000
0010
1010
0000
,
1000
0000
0001
0000
,
0011
0000
1001
0000
,
1000
0000
0001
0000
,
2000
0000
0010
0000
,
3010
0000
1000
1000
,
0002
0000
0010
0000
,
0013
0000
0001
0001
,
1000
0001
1001
0000
,
1000
0000
0010
0000
,
1001
0000
1010
0000
,
0001
0000
0010
0000
,
0001
1000
0001
0100
,
0020
1000
1030
0000
,
1000
0001
1000
0100
,
0020
0001
0031
0000
,
1000
0010
1000
0001
,
0010
0100
1001
0000
,
0001
0010
0001
1000
,
0010
0100
1001
0000
,
1000
0010
1000
0100
,
0020
0001
0031
0000
,
0001
0010
0001
0100
,
0020
1000
1030
0000
,
1000
0001
1000
0100
,
0010
0001
1001
0000
,
0001
1000
0001
0100
,
0010
1000
1001
1001
,
0110
0000
0000
0000
;
