#VERSION:0.83;
#TITLE:365;
#SUBTITLE:;
#ARTIST:Zedd & Katy Perry;
#TITLETRANSLIT:;
#SUBTITLETRANSLIT:;
#ARTISTTRANSLIT:;
#GENRE:;
#ORIGIN:;
#CREDIT:;
#BANNER:;
#BACKGROUND:;
#PREVIEWVID:;
#JACKET:;
#CDIMAGE:;
#DISCIMAGE:;
#LYRICSPATH:;
#CDTITLE:;
#MUSIC:[Be Mine] - 365.ogg;
#OFFSET:0.485000;
#SAMPLESTART:75.425003;
#SAMPLELENGTH:12.000000;
#SELECTABLE:YES;
#BPMS:0.000=98.000;
#STOPS:;
#DELAYS:;
#WARPS:;
#TIMESIGNATURES:0.000=4=4;
#TICKCOUNTS:0.000=4;
#COMBOS:0.000=1;
#SPEEDS:0.000=1.000=0.000=0;
#SCROLLS:0.000=1.000;
#FAKES:;
#LABELS:0.000=Song Start;
#BGCHANGES:;
#KEYSOUNDS:;
#ATTACKS:
;

//---------------dance-single - ----------------
#NOTEDATA:;
#CHARTNAME:;
#STEPSTYPE:dance-single;
#DESCRIPTION:;
#CHARTSTYLE:;
#DIFFICULTY:Hard;
#METER:8;
#RADARVALUES:0.507200,0.502222,0.000000,0.344381,0.565769,433.000000,433.000000,0.000000,42.000000,52.000000,0.000000,0.000000,0.000000,0.000000,0.507200,0.502222,0.000000,0.344381,0.565769,433.000000,433.000000,0.000000,42.000000,52.000000,0.000000,0.000000,0.000000,0.000000;
#CREDIT:;
#NOTES:
// measure 0
0000
0000
0000
0000
,  // measure 1
0000
0000
0000
0000
,  // measure 2
2000
0000
0000
3100
0010
0000
0002
0000
2003
0000
0000
3010
0100
0000
0002
0000
,  // measure 3
2003
0000
0000
3100
0010
0000
0002
0000
2003
0000
0000
3010
0100
0000
0001
0000
,  // measure 4
0002
0000
0000
0013
0100
0000
2000
0000
3002
0000
0000
0103
0010
0000
2000
0000
,  // measure 5
3002
0000
0000
0013
0100
0000
2000
0000
3001
0000
0100
0010
0100
0000
0010
0000
,  // measure 6
1000
0000
0000
0000
0100
0000
0200
0000
0000
0000
0310
0001
0010
0000
0001
0000
,  // measure 7
1000
0000
0000
0000
0010
0000
0020
0000
0100
0000
0030
0100
0010
0000
1000
0000
,  // measure 8
2000
0000
0000
3010
0100
0000
0001
0000
0002
0000
0000
0013
0100
0000
1000
0000
,  // measure 9
0002
0000
0000
0103
0001
0000
1000
0000
0020
0000
0000
1030
0100
0000
0010
0000
,  // measure 10
0001
0000
0000
0000
0100
0000
0000
0000
0000
0001
0000
0000
0010
0000
0000
0000
0000
0000
0100
0000
0000
0000
0000
0000
1000
0000
0000
0000
0100
0000
0000
0000
0000
1000
0000
0000
0010
0000
0000
0000
0000
0000
0100
0000
0000
0000
0000
0000
,  // measure 11
0001
0000
0000
0000
0010
0000
0000
0000
0000
0100
0000
0000
1000
0000
0000
0000
0000
0000
0001
0000
0000
0000
0000
0000
0010
0000
0000
0000
0000
0000
0100
0000
0000
1000
0000
0000
0200
0000
0000
0000
0000
0000
1300
0000
0000
0000
0000
0000
,  // measure 12
0010
0000
0000
0000
0100
0000
0000
0000
0000
0010
0000
0000
0100
0000
0000
0000
0000
0000
0010
0000
0000
0000
0000
0000
1000
0000
0000
0000
0001
0000
0000
0000
0000
1000
0000
0000
0001
0000
0000
0000
0000
0000
0010
0000
0000
0000
0000
0000
,  // measure 13
0100
0000
0000
0000
1000
0000
0000
0000
0000
0001
0000
0000
0010
0000
0000
0000
0000
0000
0100
0000
0000
0000
0000
0000
1000
0000
0000
0000
0000
0000
0001
0000
0000
0100
0000
0000
0002
0000
0000
0000
0000
0000
0000
0000
0000
0000
0000
0000
,  // measure 14
1003
0100
1000
0100
0010
0001
1000
0100
0010
0000
0001
0000
1000
0100
M0MM
0100
,  // measure 15
0001
0000
1000
0000
0001
0010
MM0M
0010
1000
0000
0001
0000
1000
0100
M0MM
0100
,  // measure 16
0001
0100
0001
0100
0010
1000
0001
0100
0010
0000
1000
0000
0001
0100
M0MM
0100
,  // measure 17
1000
0000
0001
0000
1000
0010
MM0M
0010
0001
0000
1000
0000
0001
0100
M0MM
0100
,  // measure 18
1000
0010
1000
0010
0100
0001
1000
0100
0010
0000
0001
0000
1000
0010
0000
0001
,  // measure 19
0010
0000
1000
0000
0100
0001
0000
0100
1000
0000
0010
0000
0100
0001
0000
1000
,  // measure 20
0100
0010
0100
0010
0001
1000
0010
0100
0001
1000
0100
0000
0010
0000
0001
0000
,  // measure 21
1000
0000
0010
0100
0000
0001
0000
1000
0100
0000
0010
0000
0002
0000
0003
0000
,  // measure 22
0000
0000
0000
0000
,  // measure 23
0001
0000
1000
0100
0010
0000
0001
0000
1000
0000
0010
0100
0001
0000
0100
0000
,  // measure 24
0010
0000
1000
0010
0100
0000
0001
0000
1000
0000
0100
0010
0001
0000
1000
0000
,  // measure 25
0001
0000
0100
0010
1000
0000
0010
0000
0100
0000
0001
0010
0100
0000
1000
0000
,  // measure 26
0001
0000
0010
0100
1000
0000
0010
0000
0100
0000
0001
0100
0010
0000
1000
0000
,  // measure 27
0100
0000
0000
0010
0001
0000
0002
0000
0003
0000
1000
0010
1000
0000
0010
0000
,  // measure 28
0100
0000
0000
0010
1000
0000
2000
0000
0100
0000
3000
0100
0010
0000
0001
0000
,  // measure 29
1000
0000
0010
0100
0001
0000
0010
0000
0100
0000
1000
0100
0010
0000
0001
0000
,  // measure 30
1000
0000
0001
0100
0010
0000
1000
0000
0200
0000
0300
0000
0000
0000
0000
0000
,  // measure 31
0001
0010
0001
0010
0100
1000
0001
0010
0100
0000
1000
0000
0001
0010
MM0M
0010
,  // measure 32
1000
0000
0001
0000
1000
0100
M0MM
0100
0001
0000
1000
0000
0001
0010
MM0M
0010
,  // measure 33
1000
0010
1000
0010
0100
0001
1000
0010
0100
0000
0001
0000
1000
0010
MM0M
0010
,  // measure 34
0001
0000
1000
0000
0001
0100
M0MM
0100
1000
0000
0001
0000
1000
0010
MM0M
0010
,  // measure 35
0001
0100
0001
0100
0010
1000
0001
0010
0100
0000
1000
0000
0001
0100
0000
1000
,  // measure 36
0100
0000
0001
0000
0010
1000
0000
0010
0001
0000
0100
0000
0010
1000
0000
0001
,  // measure 37
0010
0100
0010
0100
1000
0001
0100
0010
1000
0001
0010
0000
0100
0000
1000
0000
,  // measure 38
0001
0000
0100
0010
0000
1000
0000
0001
0010
0000
0100
0000
2000
0000
3000
0000
,  // measure 39
0001
0100
0100
0010
1000
1000
0100
MMMM
,  // measure 40
0000
0000
0000
0000
0002
0000
0000
0000
0000
0000
0203
0000
0000
0000
0000
0000
0310
0000
0000
0000
1000
0010
1000
0000
0001
0000
0010
0001
0010
0000
0000
0000
,  // measure 41
0100
0100
1000
0010
0010
0100
0100
MMMM
,  // measure 42
0000
0000
0002
0000
0000
2003
0000
0000
3001
0000
0010
0100
1000
0000
0010
0000
,  // measure 43
1000
0100
0100
0010
0001
0001
0100
MMMM
,  // measure 44
0000
0000
0000
0000
2000
0000
0000
0000
0000
0000
3020
0000
0000
0000
0000
0000
0130
0000
0000
0000
0001
0010
0001
0000
1000
0000
0010
1000
0010
0000
0000
0000
,  // measure 45
0100
0100
0001
0010
0010
0100
1000
MMMM
,  // measure 46
0000
0000
2000
0000
0000
3002
0000
0000
0103
0000
0010
1000
0100
0010
0001
0000
,  // measure 47
2000
0000
0000
3100
0010
0000
0002
0000
2003
0000
0000
3100
0010
0000
0002
0000
,  // measure 48
2003
0000
0000
3010
0100
0000
0002
0000
2003
0000
0000
3010
0100
0000
0002
0000
,  // measure 49
0003
0000
0000
0000
;
