#TITLE:THERE'S A WHOLE LOTTA LOVIN' GOING ON;
#SUBTITLE:;
#ARTIST:SIX;
#TITLETRANSLIT:;
#SUBTITLETRANSLIT:;
#ARTISTTRANSLIT:;
#CREDIT:;
#BANNER:[BE MINE] - There's a Whole Lotta Lovin' Going On (#Infinity)-BN.png;
#BACKGROUND:[BE MINE] - There's a Whole Lotta Lovin' Going On (#Infinity)-BG.png;
#LYRICSPATH:;
#CDTITLE:infinity-cd.png;
#MUSIC:[BE MINE] - There's a Whole Lotta Lovin' Going On (#Infinity).ogg;
#OFFSET:-1.582;
#SAMPLESTART:42.418;
#SAMPLELENGTH:15.220;
#SELECTABLE:YES;
#BPMS:0.000=126.160,152.000=63.080,166.000=126.160,202.000=61.000,203.000=58.000,204.000=55.000;
#STOPS:;
#BGCHANGES:;

//---------------dance-single - ----------------
#NOTES:
     dance-single:
     :
     Hard:
     6:
     0.369,0.389,0.175,0.105,0.035:
0000
0000
0000
0000
,
0000
0000
0000
0000
,
0000
0000
0000
0000
,
0000
0000
0000
0000
,
1000
0001
1000
0001
1000
0001
1000
0001
,
0001
1000
0001
1000
0001
1000
0001
1000
,
1000
0100
1000
0000
0001
0100
0001
0000
,
1002
0000
0010
0103
,
1010
0000
0001
0000
0001
1000
0001
0000
,
0001
0100
0001
0000
1000
0100
1000
0000
,
0001
0000
0000
0000
0010
0001
1000
0000
,
0001
0001
1000
0001
,
0101
0000
1010
0010
,
0101
0000
1000
0000
1000
0001
0010
0000
,
0001
0000
0001
0000
1000
0100
0000
0100
,
1000
0000
0001
0000
0001
1000
0000
0001
,
1000
0000
0010
0000
0010
1000
0000
0001
,
0010
0000
0010
0000
1000
0100
0010
0000
,
1000
0100
1000
0100
0010
0100
0010
0100
,
0001
0100
0010
0100
0001
0100
0000
0000
,
1001
0000
0100
0010
0100
0010
0100
0000
,
1000
0002
0100
0103
,
1000
0001
0100
0001
1000
0100
1000
0000
,
1000
0100
1000
0001
0100
0001
1000
0100
,
0010
0000
1001
0100
,
0010
0010
1001
0010
,
0010
0100
0010
0100
0010
0100
1000
0001
,
0100
0010
0100
0010
1000
0100
0010
0000
,
0101
1000
0011
1000
,
0001
0001
0100
0000
0002
0000
1003
0000
,
0001
0010
0001
1000
0010
1000
0001
0010
,
0001
0100
1000
0100
0001
0010
0100
1000
,
0100
0000
0000
0000
0110
0000
1000
0001
,
0100
0000
0110
0000
1000
0001
0100
0000
,
1002
0000
0103
0000
1001
0001
0100
0000
,
1001
0100
1010
0001
,
0010
1000
0100
0000
0001
0000
0010
0000
,
1000
0000
0100
0000
0000
0001
0000
0000
0100
0000
0000
1000
0000
0000
0010
0000
,
0001
0000
0000
0000
0100
0010
1000
0001
0100
0000
0000
0010
0000
0000
1000
0000
,
0001
0000
0000
0000
1000
0010
0100
0001
1000
0000
0000
0010
0000
0000
0100
0000
,
0002
0000
0000
0000
2000
0003
0200
3000
,
0020
0300
0030
0000
,
0001
0000
1000
0000
0010
1000
0100
1000
,
0010
1000
0100
0010
0001
0100
0010
0100
,
0001
0010
0100
1000
0001
0010
0001
0000
,
0001
0100
0001
0000
0101
0001
0100
0000
,
0100
0010
1000
0000
1002
0000
0013
0100
,
2000
0000
3010
0100
0002
0000
0013
0100
,
0010
0000
1001
0000
0100
1000
0001
0000
,
0100
0001
1000
0000
0010
0000
0000
0000
,
0100
0000
0001
0000
0011
0000
0001
1000
,
0010
0000
0100
0001
0020
0000
0000
0000
,
0000
0000
0030
0000
;

//---------------dance-single - ----------------
#NOTES:
     dance-single:
     :
     Challenge:
     7:
     0.449,0.435,0.358,0.227,0.092:
0000
0000
0000
0000
,
0000
0000
0000
0000
,
0000
0000
0000
0000
,
0000
0000
0000
0000
,
1000
0100
0001
0100
1000
0100
0001
0100
,
1000
0010
1000
0100
0001
0100
1000
0010
,
1000
0100
0010
0100
0010
0001
0100
0010
,
1000
1000
0010
0100
0002
0000
0103
0000
,
1001
0100
0010
0100
0001
1000
0001
0100
,
0010
1000
0100
1000
0010
0100
0001
1000
,
0002
0000
0100
0000
0013
0100
1000
0000
,
2100
0000
0010
0000
3010
0100
0001
0000
,
1001
0001
0100
0001
1000
0010
0100
0000
,
1010
0010
0100
0010
0010
1000
0001
0000
,
0011
0000
1100
0000
0100
0010
0000
0010
,
0100
0000
1001
0000
0100
0010
0000
0000
,
1010
0000
0101
0000
1000
1000
0010
1000
,
1100
0000
0101
0000
1100
0100
0101
0000
,
1000
0001
0100
0000
1000
0000
0001
0000
,
0010
1000
0001
0010
0001
1000
0000
0000
,
1000
0001
0100
0000
1000
0000
0010
0000
,
0110
1001
0110
0110
,
1001
0010
0100
1000
1000
0010
0100
0001
,
1001
0001
0100
0010
0100
0010
1000
0000
,
1001
1000
0100
0000
2000
0000
3010
0100
,
0001
0010
0001
0000
0001
0000
0100
0000
,
1001
0001
0010
0100
1000
0100
0010
0001
,
0001
1000
0100
0000
0001
0100
0000
0000
,
1001
0000
0100
0010
1000
0000
1000
0000
,
1001
0000
0010
0100
0001
0010
0001
0000
,
1001
0010
0100
0010
1000
0100
0010
0001
,
0100
1000
0100
0001
0100
1000
0100
0001
,
0001
0100
0001
0000
1001
0000
0010
0001
,
1000
0000
1000
0000
0100
1000
0010
0000
,
0102
0000
1003
1000
0002
0000
0013
0010
,
2001
3020
0230
0302
,
1003
1000
0001
0001
1000
0001
1000
0001
,
1000
0000
0010
0000
0000
0001
0000
0000
0010
0000
0000
1000
0000
0000
0100
0000
,
0010
0000
0000
0000
0001
0010
0100
1000
0001
0000
0000
001M
0000
0000
10M0
0000
,
0001
M000
0000
0000
0001
1000
0010
0100
0001
0000
0000
010M
0000
0000
0M01
0000
,
2000
0000
000M
0000
0000
0000
0000
0000
0000
0000
0000
0000
0000
0000
0000
0000
3200
0000
0010
0000
M000
0010
0000
0000
0320
0000
0000
0000
0031
0000
0100
0000
,
0020
000M
0000
0100
0200
0000
0000
0330
1001
0000
0000
0000
MMMM
0000
0000
0000
,
0010
0000
0010
0000
1001
0010
0100
0010
,
1001
0100
0010
0100
1001
0000
1100
0000
,
1001
0101
1001
M00M
,
0100
0100
0010
0000
1200
0000
0010
0000
,
0001
0000
0310
0000
1002
0000
0103
0100
,
1020
0000
0130
0000
1002
0000
0103
0001
,
0011
0001
0101
0000
1000
0001
0100
0100
,
0001
1000
0100
0100
1000
0001
0010
0001
,
0010
0000
0001
0000
1000
0000
0000
0000
2000
0000
0000
0000
3020
0000
0230
M000
,
0302
00M0
0000
0M00
2003
0000
3200
000M
0320
M000
0000
0M00
0000
0000
0000
0000
,
0000
0000
0030
0000
;

//---------------dance-single - ----------------
#NOTES:
     dance-single:
     :
     Medium:
     4:
     0.320,0.367,0.340,0.323,0.009:
0000
0000
0000
0000
,
0000
0000
0000
0000
,
0000
0000
0000
0000
,
0000
0000
0000
0000
,
1000
1000
1000
1000
1000
0000
1000
0000
,
0001
0001
0001
0001
0001
0000
1000
0000
,
0002
0000
2003
0000
,
3002
0000
0000
0003
0010
0000
0100
0000
,
1100
0010
0101
0010
,
1100
1100
0011
0011
,
0011
0000
0001
0100
,
0020
0000
0000
0030
1000
0000
0100
0000
,
2200
3300
1000
0001
,
2002
3003
0220
0330
,
1001
1001
1001
0000
,
0011
0011
0011
0000
,
1001
0000
0100
0000
0010
0010
0010
0000
,
0110
0001
2000
3000
,
0001
0000
0001
0000
0010
0001
0000
0001
,
1000
0000
1000
0000
1000
0001
0000
0001
,
1000
0000
0010
0000
0010
1000
0001
0000
,
0020
0001
0001
0031
,
1002
0100
1000
0103
,
2001
0100
0001
3100
,
2001
3000
2010
3001
,
0001
0000
0010
0100
,
2001
0010
0100
3010
,
1002
0010
0100
1003
,
2000
0001
3002
1000
,
2003
3100
0002
0103
,
1001
0100
1001
0100
,
0011
1000
0101
1000
,
1010
0001
0001
0100
,
0101
0000
0001
1000
,
0200
1000
2300
0010
,
0010
0100
0001
3001
,
0001
0010
0100
1000
,
1000
0001
0100
0000
1000
0000
0001
0000
,
2000
0000
0000
0000
0000
0000
3000
0000
1000
0000
0000
1000
0000
0000
1000
0000
,
0002
0000
0000
0000
0000
0000
0003
0000
0100
0000
0000
0100
0000
0000
0100
0000
,
0200
0000
0000
0000
0000
0000
0300
0000
0020
0000
0000
0030
2000
0000
0000
3000
,
0002
0000
0003
0000
,
0001
1000
2100
0100
,
0001
3010
2010
0010
,
0001
3100
1002
0103
,
1002
0013
1001
0100
,
0100
0010
0220
0330
,
1000
0001
0011
1000
,
0101
1000
1100
1000
,
0100
0010
0001
0100
,
0010
0010
1000
0100
,
0010
0001
0200
0000
,
0000
0000
0300
0000
;

//---------------dance-single - ----------------
#NOTES:
     dance-single:
     :
     Easy:
     3:
     0.165,0.180,0.061,0.000,0.000: // measure 1
0000
0000
0000
0000
,  // measure 2
0000
0000
0000
0000
,  // measure 3
0000
0000
0000
0000
,  // measure 4
0000
0000
0000
0000
,  // measure 5
1000
0000
0000
0000
,  // measure 6
0001
0000
0000
0000
,  // measure 7
0100
0000
0000
0000
,  // measure 8
1001
0000
0000
0000
,  // measure 9
1001
0000
0010
0001
,  // measure 10
1000
0000
0010
1000
,  // measure 11
0001
0000
1000
0000
,  // measure 12
0010
0000
0100
0000
,  // measure 13
0110
0000
0010
0000
,  // measure 14
1001
0000
1000
0000
,  // measure 15
0100
0100
0100
0000
,  // measure 16
0100
0100
0100
0000
,  // measure 17
1000
1000
1000
0000
,  // measure 18
0010
0010
0010
0000
,  // measure 19
1000
0001
1000
0001
,  // measure 20
1000
1000
1000
0000
,  // measure 21
0001
0100
0010
1000
,  // measure 22
0001
0000
0100
0000
,  // measure 23
0110
0000
0010
0100
,  // measure 24
0001
0000
0010
0100
,  // measure 25
1000
0000
0001
0000
,  // measure 26
1000
0000
0010
0000
,  // measure 27
0010
0000
1000
0100
,  // measure 28
0010
0000
0001
0100
,  // measure 29
0010
0000
0100
0000
,  // measure 30
0001
0000
1000
0001
,  // measure 31
1001
0000
0010
0001
,  // measure 32
1000
0000
0100
1000
,  // measure 33
0001
0000
0100
0000
,  // measure 34
0001
0000
1000
1000
,  // measure 35
1000
0000
0010
0100
,  // measure 36
0001
0000
0010
0000
,  // measure 37
0001
0010
0100
1000
,  // measure 38
0001
0000
0100
0000
,  // measure 39
0010
0000
1000
0000
,  // measure 40
0100
0000
1000
0000
,  // measure 41
0001
0000
0010
0001
,  // measure 42
0100
0000
0010
0000
,  // measure 43
1000
1000
1001
0000
,  // measure 44
0001
0000
0010
0100
,  // measure 45
1000
0000
0010
0100
,  // measure 46
0001
0000
1000
1000
,  // measure 47
0001
0001
0001
0000
,  // measure 48
0100
0000
0001
0010
,  // measure 49
0100
1000
0001
0000
,  // measure 50
0001
0000
1000
0000
,  // measure 51
0010
0100
0001
1000
,  // measure 52
0100
0010
0001
0000
;

//---------------dance-single - ----------------
#NOTES:
     dance-single:
     :
     Beginner:
     1:
     0.096,0.157,0.000,0.000,0.000:
0000
0000
0000
0000
,
0000
0000
0000
0000
,
0000
0000
0000
0000
,
0000
0000
0000
0000
,
0010
0000
0000
0000
,
0010
0000
0000
0000
,
0010
0000
0000
0000
,
0000
0000
0000
0000
,
1000
0000
0001
0000
,
0010
0000
0001
0000
,
1000
0000
0000
0000
,
0001
0000
0000
0000
,
0100
0000
0010
0000
,
1000
0000
0001
0000
,
1000
1000
1000
0000
,
1000
1000
1000
0000
,
0001
0001
0001
0000
,
0001
0001
0001
0000
,
1000
0000
0001
0000
,
0010
0010
0010
0000
,
0001
0000
0100
0000
,
0010
0000
0000
0000
,
1000
0000
0100
0000
,
1000
0000
0001
0000
,
0001
0000
0000
0000
,
0100
0000
0000
0000
,
0010
0000
0100
0000
,
0001
0000
1000
0000
,
0001
0000
0000
0000
,
1000
0000
0000
0000
,
0100
0000
1000
0000
,
0001
0000
1000
0000
,
0001
0000
0000
0000
,
0010
0000
0000
0000
,
0001
0000
0001
0000
,
1000
0000
1000
0000
,
0001
0000
0000
0000
,
0100
0000
0000
0000
,
0010
0000
0000
0000
,
1000
0000
0000
0000
,
0100
0000
0000
0000
,
0010
0000
0010
0000
,
0000
0000
0001
0000
,
0001
0000
0100
0000
,
0001
0000
1000
0000
,
0000
0000
0001
0000
,
0000
0000
0010
0000
,
0100
0000
1000
0000
,
0001
0000
0100
0000
,
0000
0000
0010
0000
,
0000
0000
1000
0000
,
0001
0000
0100
0000
;
