#TITLE:spring pony;
#SUBTITLE:;
#ARTIST:S-C-U;
#TITLETRANSLIT:;
#SUBTITLETRANSLIT:;
#ARTISTTRANSLIT:;
#GENRE:;
#CREDIT:;
#BANNER:[Zoology] - spring pony.png;
#BACKGROUND:[Zoology] - spring pony-bg.png;
#LYRICSPATH:;
#CDTITLE:;
#MUSIC:[Zoology] - spring pony.ogg;
#OFFSET:-0.450000;
#SAMPLESTART:64.450012;
#SAMPLELENGTH:15.000002;
#SELECTABLE:YES;
#DISPLAYBPM:150.000000;
#BPMS:0.000000=150.000000
;
#STOPS:
;
#BGCHANGES:;
#KEYSOUNDS:;
#ATTACKS:;

//---------------dance-single - ----------------
#NOTES:
     dance-single:
     :
     Challenge:
     10:
     0.674774,0.745050,0.017960,0.143678,0.799210,526.000000,524.000000,2.000000,16.000000,0.000000,0.000000,0.674774,0.745050,0.017960,0.143678,0.799210,526.000000,524.000000,2.000000,16.000000,0.000000,0.000000:
0000
0000
0000
0000
,
0000
0000
0000
0000
,
0000
0000
0000
0000
,
0000
0000
0000
0000
,
1000
0000
0001
0000
0000
0100
0000
0000
0010
0000
0000
1000
0000
0000
1000
0000
,
0001
0000
1000
0000
0000
0010
0000
0000
0100
0000
0000
0001
0000
0000
0001
0000
,
0010
0000
0000
0010
0000
0000
0010
0000
0000
0010
0000
0000
0010
0000
0001
0000
,
0100
0000
0000
1000
0000
0000
0100
0000
0001
0000
0100
0000
0010
0000
1000
0000
,
0001
0000
1000
0000
0000
0100
0000
0000
0010
0000
0000
0001
0000
0000
0001
0000
,
1000
0000
0001
0000
0000
0010
0000
0000
0100
0000
0000
1000
0000
0000
1000
0000
,
0100
0000
0000
0100
0000
0000
0100
0000
0000
0100
0000
0000
0100
0000
1000
0000
,
0010
0000
0000
0001
0000
0000
0010
0000
1000
0000
0100
0000
0010
0000
0001
0000
,
1000
0000
0001
0000
1000
0000
0100
0010
0000
0100
0000
0010
0001
0000
0100
0000
,
0001
0000
1000
0000
0001
0000
0100
0010
0000
0100
0000
0010
1000
0000
0100
0000
,
2000
0000
0000
3020
0000
0000
0100
0000
0000
0000
0001
0000
0000
0031
0000
0000
,
2000
0100
0000
0010
0000
3001
0010
0001
,
1000
0000
0100
1000
0000
0001
0000
0100
0001
0000
0010
0000
0100
1000
0000
0010
,
0100
0000
0010
1000
0000
0100
0000
0010
0001
1000
0001
0000
1000
0001
1000
0000
,
0001
0000
1000
0000
0001
0000
0100
0010
0000
0100
0000
0010
1000
0000
0100
0000
,
1000
0000
0001
0000
1000
0000
0010
0100
0000
0010
0000
0100
0001
0000
0010
0000
,
0002
0000
0000
0203
0000
0000
0010
0000
0000
0000
1000
0000
0000
1300
0000
0000
,
0002
0100
0000
0010
0000
1003
0100
1000
,
0001
0000
0100
0001
0000
1000
0000
0100
1000
0000
0010
0000
0100
0001
0000
0010
,
0100
0000
0010
0001
0000
0100
0000
0010
1000
0001
1000
0000
0001
1000
0001
0000
,
0000
0000
1000
0100
1000
0100
1000
0000
0001
0010
0001
0010
0001
0000
1000
0001
,
1000
0000
0010
0100
0000
0001
0000
0020
0000
0000
0000
0000
0000
0000
0031
1000
,
0001
0010
0001
0010
0001
0000
1000
0100
1000
0100
1000
0000
0001
1000
0001
1000
,
0001
0000
0100
0000
0010
1000
0000
0200
0000
0000
0000
0000
0000
0000
1300
0001
,
1000
0000
0001
0000
0100
0000
0001
0100
0000
0020
0000
0000
0000
0000
1030
0001
,
1000
0000
0010
0000
0100
0000
0010
0200
0000
0000
0301
0000
0010
0000
0100
0000
,
1000
0000
0000
1000
0000
0000
0001
0000
0010
0001
0010
0000
0001
0000
1000
0001
,
1000
0001
1000
0000
0001
0100
0001
0000
1000
0010
1000
0000
0001
1000
0001
0000
,
0000
0000
1000
0100
1000
0100
1000
0000
0001
0010
0001
0010
0001
0000
1000
0001
,
1000
0000
0001
0100
0000
0010
0000
0200
0000
0000
0000
0000
0000
0000
0301
1000
,
0001
0100
0001
0100
0001
0000
1000
0010
1000
0010
1000
0000
0001
1000
0001
1000
,
0001
0000
0100
0000
0010
1000
0000
0200
0000
0000
0000
0000
0000
0000
1300
0010
,
1000
0100
0000
1000
0000
0010
0000
2000
0000
0000
0000
0000
0000
0000
3001
0100
,
0001
0010
0000
0001
0000
0100
0000
0002
0000
0000
0000
0000
0000
0000
0103
0010
,
0100
0010
0000
0010
0000
0010
0000
0010
0000
0010
0000
0010
0100
0000
1001
0000
,
0000
0000
0000
0000
,
1000
0000
0100
0000
0010
0000
0001
1000
0000
0001
0000
1000
0001
0000
1000
0000
,
0001
0000
0010
0000
0100
0000
1000
0001
0000
1000
0000
0001
1000
0000
0001
0000
,
1000
0000
0100
0000
0001
0100
0000
1000
0000
0010
0100
0000
0001
0000
0010
0100
,
1000
0000
0000
1000
0000
0000
1000
0000
0010
0000
0010
0000
0100
0000
0100
0000
,
0001
0000
0010
0000
0100
0000
1000
0001
0000
1000
0000
0001
1000
0000
0001
0000
,
1000
0000
0100
0000
0010
0000
0001
1000
0000
0001
0000
1000
0001
0000
1000
0000
,
0001
0000
0010
0000
1000
0010
0000
0001
0000
0100
0010
0000
1000
0000
0100
0010
,
0001
0000
0000
0001
0000
0000
0001
0000
0100
0000
0100
0000
0010
0000
0010
0000
,
1000
0000
0001
0100
0010
0000
0100
0000
0001
0000
0001
0000
1000
0000
1000
0000
,
0001
0000
1000
0010
0100
0000
0010
0000
1000
0000
1000
0000
0001
0000
0001
0000
,
1000
0000
0001
0100
0010
0000
0100
0000
0001
0000
0001
0000
1000
0000
1000
0000
,
0001
0000
1000
0010
0100
0000
0010
0000
1000
0000
1000
0000
0001
0000
0001
0000
,
1000
0000
0001
1000
0010
0000
1000
0000
0001
0000
1000
0001
0100
0000
0001
0000
,
1000
0000
0001
1000
0010
0000
1000
0000
0001
0000
1000
0001
0100
0000
0001
0000
,
1000
0000
0100
0010
0100
0000
0001
0000
0100
0010
0100
0000
1000
0000
0100
0010
,
0100
0000
0001
0000
0100
0010
0100
0000
1000
0010
0100
0001
0010
0000
0100
0000
,
2002
0000
0000
0000
,
3003
0000
0000
0000
0000
0000
0000
0000
1000
0000
0100
0010
0001
0000
0100
0001
,
0000
0010
0100
0000
0010
0000
0100
0000
1000
0000
0010
1000
0100
0000
0010
0100
,
0000
1000
0010
0000
0100
0000
0010
0000
1000
0001
0000
1000
0000
0001
1000
0000
,
0001
0000
0000
1000
0001
0000
1000
0000
0010
0000
0010
0000
0010
0000
0100
0010
,
0000
0100
0000
0010
0100
0000
0001
0000
1000
0000
0001
0010
0100
0000
0010
0001
,
0000
0100
0010
0000
0100
0000
0001
0000
1000
0000
0010
1000
0100
0000
1000
0010
,
0000
0100
0010
0000
1000
0000
0100
0000
1000
0001
0000
1000
0000
0001
1000
0000
,
0001
0000
0000
1000
0001
0000
1000
0000
0100
0000
0100
0000
0100
0000
0010
0100
,
0000
0010
0000
0100
0010
0000
0001
0000
1000
0000
1000
0000
1000
0000
1000
0001
,
0000
0001
0000
0001
0010
0000
0010
0000
0000
0000
0000
0000
0000
0000
0000
0000
;

//---------------dance-single - ----------------
#NOTES:
     dance-single:
     :
     Hard:
     8:
     0.506722,0.536436,0.098779,0.134698,0.206537,395.000000,384.000000,11.000000,15.000000,0.000000,0.000000,0.506722,0.536436,0.098779,0.134698,0.206537,395.000000,384.000000,11.000000,15.000000,0.000000,0.000000:
0000
0000
0000
0000
,
0000
0000
0000
0000
,
0000
0000
0000
0000
,
0000
0000
0000
0000
,
1000
0000
0001
0000
0000
0100
0000
0000
0010
0000
0000
1000
0000
0000
0100
0000
,
1000
0000
0001
0000
0000
0010
0000
0000
0100
0000
0000
0010
0000
0000
0001
0000
,
1000
0000
0000
1000
0000
0000
1000
0000
0000
1000
0000
0000
1000
0000
0001
0000
,
0100
0000
0000
0100
0000
0000
0100
0000
0010
0000
1000
0000
0010
0000
0100
0000
,
0001
0000
1000
0000
0000
0100
0000
0000
0010
0000
0000
0001
0000
0000
0100
0000
,
0001
0000
1000
0000
0000
0010
0000
0000
0100
0000
0000
0010
0000
0000
1000
0000
,
0001
0000
0000
0001
0000
0000
0001
0000
0000
0001
0000
0000
0001
0000
1000
0000
,
0010
0000
0000
0010
0000
0000
0010
0000
0100
0000
0001
0000
1000
0000
0100
0000
,
1000
0100
0010
0001
0010
0000
0010
0000
,
0001
0010
0100
1000
0100
0000
0100
0000
,
2001
0000
0000
0010
0000
0000
3002
0000
0000
0000
0100
0000
0000
0100
0003
0000
,
0200
0010
0000
0010
0000
0310
1000
0100
,
1000
0010
0001
0010
1000
0000
1000
0000
,
0001
0100
1000
0100
0010
0000
0110
0000
,
0001
0100
0010
1000
0010
0000
0010
0000
,
1000
0010
0100
0001
0100
0000
0100
0000
,
1002
0000
0000
0010
0000
0000
2003
0000
0000
0000
0010
0000
0000
0010
3000
0000
,
0020
0100
0000
0100
0000
0130
0001
0010
,
0001
0100
1000
0100
0001
0000
0001
0000
,
1000
0010
0001
0010
0100
0000
0110
0000
,
0000
1000
1000
0000
0001
0001
0000
1000
,
0001
0000
0000
0010
0000
0001
0000
0020
0000
0000
0000
0000
0000
0000
0031
0000
,
1000
1000
0000
0001
0001
0000
1000
0001
,
1000
0000
0000
0000
0100
0000
0000
2000
0000
0000
0000
0000
0000
0000
3001
0000
,
1000
0010
0100
0010
1000
0010
0000
0100
,
0001
0010
0100
0010
0000
0001
0100
0010
,
1000
0000
0000
0001
0000
0000
2000
0000
0000
0000
0010
0000
0000
0000
3010
0000
,
0100
0100
0011
1001
,
0000
0001
0001
0000
1000
1000
0000
0001
,
1000
0000
0000
0010
0000
1000
0000
0020
0000
0000
0000
0000
0000
0000
1030
0000
,
0001
0001
0000
1000
1000
0000
0001
1000
,
0001
0000
0000
0000
0010
0000
0000
0002
0000
0000
0000
0000
0000
0000
1003
0000
,
0001
0010
0100
1000
0200
0000
0000
1300
,
0001
0100
0010
1000
0200
0000
0000
1300
,
0001
1000
0000
0001
0000
1000
0000
0001
0000
1000
0000
0001
1000
0000
0001
0000
,
0000
0000
0000
0000
,
1000
0100
0010
0100
0010
0100
1000
0000
,
0001
0010
0100
0010
0100
0010
0001
0000
,
1000
0010
0100
0001
1000
0100
0001
0100
,
1000
0000
0000
1000
0000
0000
1000
0000
0001
0000
0100
0000
0010
0000
0000
0000
,
0001
0100
0010
0100
0010
0100
0001
0000
,
1000
0010
0100
0010
0100
0010
1000
0000
,
0001
0010
0100
1000
0001
0100
1000
0100
,
0001
0000
0000
0001
0000
0000
0001
0000
1000
0000
0100
0000
0010
0000
0000
0000
,
1000
0001
0010
0001
1000
0001
1000
0001
,
1000
0001
0100
0001
1000
0001
1000
0000
,
0001
1000
0010
1000
0001
1000
0001
1000
,
0001
1000
0100
1000
0001
1000
0001
0000
,
1000
0100
0010
0100
1000
0001
0100
0000
,
0001
0100
0010
0100
0001
1000
0100
0000
,
1000
0100
0010
0001
0100
0010
1000
0100
,
0010
0001
0100
0010
1000
0010
0100
0001
,
2002
0000
0000
0000
,
3003
0000
0000
0000
0000
0000
0000
0000
1000
0000
0010
0000
0100
0000
0000
0110
,
0000
0000
0100
0000
0010
0000
0100
0000
0001
0000
0010
0000
0100
0000
0000
0110
,
0000
0000
0100
0000
0010
0000
0100
0000
1000
0000
0000
0001
0000
0000
1000
0000
,
0100
0000
0000
0000
0010
0000
0100
0000
1000
0000
0010
0000
0100
0000
0000
0100
,
0000
0000
0100
0000
0010
0000
1000
0000
0001
0000
0010
0000
0100
0000
0000
0110
,
0000
0000
0100
0000
0010
0000
0100
0000
1000
0000
0010
0000
0100
0000
0000
0110
,
0000
0000
0100
0000
0010
0000
0100
0000
0001
0000
0000
1000
0000
0000
0001
0000
,
0100
0000
0000
0000
0010
0000
1000
0000
0100
0000
1000
0000
0010
0000
0000
0010
,
0000
0000
0010
0000
1000
0000
0100
0000
1000
0000
0001
0000
1000
0000
0001
1000
,
0000
0001
0000
1000
0001
0000
1000
0000
0000
0000
0000
0000
0000
0000
0000
0000
;

//---------------dance-single - ----------------
#NOTES:
     dance-single:
     :
     Medium:
     6:
     0.424620,0.506634,0.242457,0.143678,0.157148,331.000000,304.000000,27.000000,16.000000,0.000000,0.000000,0.424620,0.506634,0.242457,0.143678,0.157148,331.000000,304.000000,27.000000,16.000000,0.000000,0.000000:
0000
0000
0000
0000
,
0000
0000
0000
0000
,
0000
0000
0000
0000
,
0000
0000
0000
0000
,
1000
0000
0001
0000
0000
1000
0000
0000
0001
0000
0000
1000
0000
0000
0001
0000
,
0100
0000
0010
0000
0000
0100
0000
0000
0010
0000
0000
0100
0000
0000
0010
0000
,
1000
0000
0000
0100
0000
0000
0010
0000
0000
0001
0000
0000
0100
0000
0010
0000
,
1000
0000
0000
0010
0000
0000
0100
0000
0001
0000
0000
0000
1001
0000
0000
0000
,
0001
0000
1000
0000
0000
0001
0000
0000
1000
0000
0000
0001
0000
0000
1000
0000
,
0010
0000
0100
0000
0000
0010
0000
0000
0100
0000
0000
0010
0000
0000
0100
0000
,
0001
0000
0000
0010
0000
0000
0100
0000
0000
1000
0000
0000
0010
0000
0100
0000
,
0001
0000
0000
0100
0000
0000
0010
0000
1000
0000
0000
0000
1001
0000
0000
0000
,
1000
0010
0100
0000
0001
0000
0010
0000
,
0001
0100
0010
0000
1000
0000
0100
0000
,
1002
0000
0000
0010
0000
0000
2003
0000
0000
0000
0100
0000
0000
0100
0000
0000
,
3200
0010
0000
0010
0000
1300
0010
0100
,
0001
0000
0001
0000
1000
0010
0100
0000
,
0001
0000
0001
1000
0100
0000
0110
0000
,
0001
0010
0100
0000
1000
0000
0010
0000
,
1000
0100
0010
0000
0001
0000
0100
0000
,
2001
0000
0000
0100
0000
0000
3002
0000
0000
0000
0010
0000
0000
0010
0000
0000
,
0023
0100
0000
0100
0000
0031
0010
0100
,
1000
0000
1000
0000
0001
0010
0100
0000
,
1000
0000
1000
0001
0010
0000
0110
0000
,
0000
1001
0000
0000
0110
0000
0000
0000
,
1000
0000
0000
0001
0000
1000
0000
0002
0000
0000
0000
0000
0003
0000
0000
0000
,
1001
0000
0000
0110
0000
0000
0011
0000
,
0001
0000
0000
0000
1000
0000
0000
0002
0000
0000
0000
0000
0000
0000
0000
0000
,
1003
0010
0100
0000
0010
0000
0010
0000
,
1000
0001
0010
0001
0000
0001
0100
0010
,
1000
0000
0000
1000
0000
0000
1000
0000
0000
0000
0100
0000
1000
0000
0010
0000
,
0100
0100
1010
1001
,
0000
0110
0000
0000
1001
0000
0000
0000
,
0001
0000
0000
1000
0000
0001
0000
2000
0000
0000
0000
0000
3000
0000
0000
0000
,
0110
0000
0000
1001
0000
0000
1100
0000
,
1000
0000
0000
0000
0001
0000
0000
2000
0000
0000
0000
0000
0000
0000
0000
0000
,
3001
0010
0100
0000
1000
0000
1001
0000
,
1000
0100
0010
0000
0001
0000
1001
0000
,
2002
0000
0000
0000
3003
0000
0100
0100
,
0000
0000
0000
0000
,
1000
0000
1000
0000
0001
0100
0010
0000
,
1000
0000
1000
0000
0001
0010
0100
0000
,
1000
0010
0010
0010
,
0100
0000
0000
0100
0000
0000
0100
0000
0001
0000
1000
0000
0010
0000
0000
0000
,
0001
0000
0001
0000
1000
0100
0010
0000
,
0001
0000
0001
0000
1000
0010
0100
0000
,
0001
0010
0010
0010
,
0100
0000
0000
0100
0000
0000
0100
0000
1000
0000
0010
0000
0100
0000
0000
0000
,
1000
0001
0010
0000
0001
1000
0001
0000
,
1000
0001
0100
0000
0100
0000
1001
0000
,
0001
0100
0010
0000
1000
0001
1000
0000
,
0001
1000
0100
0000
0100
0000
1001
0000
,
1000
0100
0010
0000
0010
0001
0100
0000
,
0001
0100
0010
0000
0010
1000
0100
0000
,
1000
0001
0010
0001
1000
0010
1000
0001
,
0010
0001
1000
0010
0100
0010
0100
0000
,
2002
0000
0000
0000
,
3003
0000
0000
0000
0000
0000
0000
0000
1000
0000
0001
0000
0010
0000
0000
0100
,
0000
0000
0010
0000
0001
0000
0000
0000
1000
0000
0001
0000
0100
0000
0000
0010
,
0000
0000
0100
0000
0010
0000
0000
0000
1000
0000
0000
0001
0000
0000
1000
0000
,
0001
0000
1000
0001
0100
0000
0100
0000
,
0010
0000
0000
0000
0110
0000
0000
0000
0001
0000
1000
0000
0010
0000
0000
0100
,
0000
0000
0010
0000
1000
0000
0000
0000
0001
0000
1000
0000
0100
0000
0000
0010
,
0000
0000
0100
0000
0010
0000
0000
0000
0001
0000
0000
1000
0000
0000
0001
0000
,
1000
0000
0001
1000
0100
0000
0100
0000
,
0010
0110
2002
0000
,
3003
0000
0100
0100
0000
0000
0000
0000
;

//---------------dance-single - ----------------
#NOTES:
     dance-single:
     :
     Easy:
     4:
     0.283508,0.298020,0.125718,0.170618,0.000000,221.000000,207.000000,14.000000,19.000000,0.000000,0.000000,0.283508,0.298020,0.125718,0.170618,0.000000,221.000000,207.000000,14.000000,19.000000,0.000000,0.000000:
0000
0000
0000
0000
,
0000
0000
0000
0000
,
0000
0000
0000
0000
,
0000
0000
0000
0000
,
1000
0010
1000
0010
,
0100
0001
0100
0001
,
1000
1000
1000
1000
,
0010
0100
0001
1001
,
0001
0010
0001
0010
,
0100
1000
0100
1000
,
0001
0001
0001
0001
,
0100
0010
1000
1001
,
1000
1000
0001
0010
,
0001
0001
1000
0010
,
2000
0000
0000
3020
0000
0230
0000
0000
,
0301
0000
0000
0010
,
0001
0100
0010
0010
,
0100
0001
0010
1001
,
0001
0001
1000
0100
,
1000
1000
0001
0100
,
0002
0000
0000
0203
0000
0320
0000
0000
,
1030
0000
0000
0100
,
1000
0010
0100
0100
,
0010
1000
0100
1001
,
0000
0010
0000
0000
0010
0000
0000
0000
,
2002
0000
0000
3003
,
0100
0000
0000
0100
0000
0000
0000
0000
,
1000
0001
2000
0000
,
3001
0100
0010
0100
,
0001
0010
0100
1000
,
0001
0000
0000
0120
0000
0000
0000
0000
,
1030
1000
0001
0001
,
0000
0010
0000
0000
0010
0000
0000
0000
,
2002
0000
0000
3003
,
0100
0000
0000
0100
0000
0000
0000
0000
,
1000
0001
2000
0000
,
3010
0100
0010
0100
,
0001
1000
0001
1000
,
2002
0000
0000
0000
,
3003
0000
0000
0000
,
1000
1000
0001
0010
,
0001
0001
0100
0010
,
1000
1000
1000
1000
,
0100
0000
0110
0010
,
0001
0001
1000
0100
,
1000
1000
0010
0100
,
0001
0001
0001
0001
,
0100
0000
0110
0010
,
1000
0010
0010
1000
,
0001
0010
0100
0100
,
0001
0010
0010
0001
,
1000
0010
0100
0100
,
1000
0010
0010
0010
,
0001
0010
0010
0010
,
1000
0010
0001
0010
,
1000
0010
0100
0100
,
2002
0000
0000
0000
,
3003
0000
1000
0001
,
0100
0010
1000
0001
,
1000
0000
0100
0000
0010
0000
0000
0010
,
0000
0010
0001
0001
,
0100
0110
0001
1000
,
0010
0100
0001
1000
,
0001
0000
0010
0000
0100
0000
0000
0100
,
0000
0100
1000
1000
,
0010
0110
2002
0000
,
0000
0000
0000
3003
0000
0000
0000
0000
;

//---------------dance-single - ----------------
#NOTES:
     dance-single:
     :
     Beginner:
     1:
     0.150092,0.264682,0.125718,0.000000,0.000000,117.000000,103.000000,14.000000,0.000000,0.000000,0.000000,0.150092,0.264682,0.125718,0.000000,0.000000,117.000000,103.000000,14.000000,0.000000,0.000000,0.000000:
// measure 0
0000
0000
0000
0000
,  // measure 1
0000
0000
0000
0000
,  // measure 2
0000
0000
0000
0000
,  // measure 3
0000
0000
0000
0000
,  // measure 4
1000
0000
0000
0000
,  // measure 5
1000
0000
0000
0000
,  // measure 6
0001
0000
0000
0000
,  // measure 7
0001
0000
0000
0000
,  // measure 8
1000
0000
0000
0000
,  // measure 9
1000
0000
0000
0000
,  // measure 10
0001
0000
0000
0000
,  // measure 11
0001
0000
0000
0000
,  // measure 12
1000
0000
1000
0000
,  // measure 13
0001
0000
0001
0000
,  // measure 14
0010
0000
0010
0000
,  // measure 15
1001
0000
0000
0000
,  // measure 16
0001
0000
1000
0000
,  // measure 17
0001
0000
1001
0000
,  // measure 18
1000
0000
1000
0000
,  // measure 19
0001
0000
0001
0000
,  // measure 20
0010
0000
0010
0000
,  // measure 21
1001
0000
0000
0000
,  // measure 22
1000
0000
0010
0000
,  // measure 23
0100
0000
1001
0000
,  // measure 24
0000
0000
0000
0000
,  // measure 25
0110
0000
0000
0000
,  // measure 26
1001
0000
0000
0000
,  // measure 27
0110
0000
0000
0000
,  // measure 28
1000
0000
1000
0000
,  // measure 29
0001
0000
0001
0000
,  // measure 30
0010
0000
0010
0000
,  // measure 31
1001
0000
0000
0000
,  // measure 32
0110
0000
0000
0000
,  // measure 33
1001
0000
0000
0000
,  // measure 34
0110
0000
0000
0000
,  // measure 35
1001
0000
0000
0000
,  // measure 36
1000
0000
1000
0000
,  // measure 37
0001
0000
0001
0000
,  // measure 38
1001
0000
0000
0000
,  // measure 39
0000
0000
0000
0000
,  // measure 40
1000
0000
1000
0000
,  // measure 41
0010
0000
0010
0000
,  // measure 42
0100
0000
0100
0000
,  // measure 43
0010
0000
0010
0000
,  // measure 44
0001
0000
0001
0000
,  // measure 45
1000
0000
1000
0000
,  // measure 46
0100
0000
0100
0000
,  // measure 47
0010
0000
0010
0000
,  // measure 48
1000
0000
1000
0000
,  // measure 49
0001
0000
0001
0000
,  // measure 50
1000
0000
1000
0000
,  // measure 51
0001
0000
0001
0000
,  // measure 52
1000
0000
0001
0000
,  // measure 53
1000
0000
0001
0000
,  // measure 54
0100
0100
0100
0100
,  // measure 55
0100
0100
0100
0100
,  // measure 56
0100
0000
0000
0000
,  // measure 57
0000
0000
0010
0000
,  // measure 58
0010
0000
0010
0000
,  // measure 59
0010
0000
1000
0000
,  // measure 60
0001
0000
1000
0000
,  // measure 61
0001
0000
0100
0000
,  // measure 62
0100
0000
0100
0000
,  // measure 63
0100
0000
0001
0000
,  // measure 64
1000
0000
0001
0000
,  // measure 65
1000
0000
1001
0000
;
